<?xml version="1.0" standalone="no"?>
<!DOCTYPE svg PUBLIC "-//W3C//DTD SVG 1.1//EN" "http://www.w3.org/Graphics/SVG/1.1/DTD/svg11.dtd" >
<svg xmlns="http://www.w3.org/2000/svg" xmlns:xlink="http://www.w3.org/1999/xlink" version="1.1">
<metadata>
Created by FontForge 20170731 at Thu Jul 22 19:47:27 2021
 By Aleksey,,,
Copyright 2019 The Manrope Project Authors (https://github.com/sharanda/manrope)
</metadata>
<defs>
<font id="Manrope-Medium" horiz-adv-x="498" >
  <font-face 
    font-family="Manrope Medium"
    font-weight="500"
    font-stretch="normal"
    units-per-em="2000"
    panose-1="0 0 0 0 0 0 0 0 0 0"
    ascent="1600"
    descent="-400"
    x-height="1080"
    cap-height="1440"
    bbox="-343 -570 2512 2019"
    underline-thickness="50"
    underline-position="-175"
    unicode-range="U+000D-2215"
  />
<missing-glyph horiz-adv-x="1480" 
d="M200 0v114h1080v-114h-1080zM200 144v80h1080v-80h-1080zM200 260v74h1080v-74h-1080zM200 374v70h1080v-70h-1080zM200 490v66h1080v-66h-1080zM200 606v60h1080v-60h-1080zM200 720v56h1080v-56h-1080zM200 838v48h1080v-48h-1080zM200 952v44h1080v-44h-1080z
M200 1066v42h1080v-42h-1080zM200 1184v36h1080v-36h-1080zM200 1298v32h1080v-32h-1080zM200 1414v26h1080v-26h-1080z" />
    <glyph glyph-name="parenleft_c_parenright.liga" unicode="&#x28;c&#x29;" horiz-adv-x="1862" 
d="M931 -75q-159 0 -299 60t-246 166t-166 246t-60 299q0 160 60 300t166 245.5t246 165.5t299 60q160 0 300 -60t245.5 -165.5t165.5 -245.5t60 -300q0 -159 -60 -299t-165.5 -246t-245.5 -166t-300 -60zM942 273q-94 0 -166 31.5t-127 99.5q-52 66 -72.5 141.5
t-20.5 152.5q1 81 22.5 155.5t70.5 135.5q55 67 128.5 99.5t171.5 32.5q55 0 102.5 -11t95.5 -41q51 -30 88.5 -77.5t53.5 -110.5l-143 -41q-11 30 -31 57.5t-48 48.5q-26 20 -58.5 29.5t-66.5 9.5q-54 0 -99 -22t-77 -62q-32 -41 -44 -94.5t-12 -107.5q0 -58 13.5 -111
t42.5 -94q30 -41 75.5 -62.5t101.5 -21.5q76 0 127 37q27 21 44 45.5t29 54.5l146 -36q-20 -57 -54 -101.5t-74 -73.5q-45 -31 -97 -47t-122 -16zM931 96q124 0 232.5 46.5t191 129t129 192t46.5 233.5t-46.5 232.5t-129 191t-190.5 129t-233 46.5t-234 -46.5t-191.5 -129
t-129 -190.5t-46.5 -233t46.5 -234t129 -191.5t192 -129t233.5 -46.5z" />
    <glyph glyph-name="space_less_three_space.liga" unicode="&#x20;&#x3c;&#x33;&#x20;" horiz-adv-x="2330" 
d="M1165 -30q-64 0 -107 46l-389 410q-71 77 -95 169t-8 182.5t66 166t128 121t176 45.5q117 0 229 -80q59 43 117.5 61.5t110.5 18.5q100 0 178 -46t128 -122t65.5 -167t-9 -182t-95.5 -167l-388 -410q-43 -46 -107 -46zM1165 118l389 409q57 60 67 134.5t-16.5 143.5
t-81.5 113.5t-130 44.5q-54 0 -112 -30.5t-116 -93.5q-119 124 -229 124q-76 0 -130.5 -45.5t-80 -115t-14.5 -143.5t66 -132z" />
    <glyph glyph-name="prnleft_grtr_prnright.liga" unicode="&#x28;&#x3e;&#x29;" horiz-adv-x="2300" 
d="M1017 1050l396 -330l-396 -330v660zM1152 -99q-171 0 -320 63.5t-261.5 176t-176 261.5t-63.5 320q0 169 63.5 317.5t176 260.5t261.5 175.5t320 63.5q169 0 317.5 -63.5t260.5 -175.5t175.5 -260.5t63.5 -317.5q0 -171 -63.5 -320t-175.5 -261.5t-260.5 -176
t-317.5 -63.5zM1150 -270q205 0 384.5 77t316 213t213 315.5t76.5 384.5t-76.5 385t-212.5 316t-316 212.5t-385 76.5t-384.5 -76.5t-315.5 -213t-213 -316t-77 -384.5t77 -384.5t213 -315.5t315.5 -213t384.5 -77z" />
    <glyph glyph-name="f_f" unicode="ff" horiz-adv-x="1360" 
d="M243 0v1139q0 42 4 85.5t18 85t46 76.5q37 41 81 58.5t89.5 21.5t86.5 4h137v-148h-127q-79 0 -118 -38.5t-39 -116.5v-1167h-178zM60 933v147h645v-147h-645zM878 0v1139q0 42 4 85.5t18 85t46 76.5q37 41 81 58.5t89.5 21.5t86.5 4h137v-148h-127q-79 0 -118 -38.5
t-39 -116.5v-1167h-178zM695 933v147h645v-147h-645z" />
    <glyph glyph-name="f_f_l" unicode="ffl" horiz-adv-x="1927" 
d="M1314 933v147h290v-147h-290zM878 0v1139q0 42 4 85.5t18 85t46 76.5q37 41 81 58.5t89.5 21.5t86.5 4h137v-148h-127q-79 0 -118 -38.5t-39 -116.5v-1167h-178zM695 933v147h645v-147h-645zM1589 0v1470h178v-1470h-178zM243 0v1139q0 42 4 85.5t18 85t46 76.5
q37 41 81 58.5t89.5 21.5t86.5 4h137v-148h-127q-79 0 -118 -38.5t-39 -116.5v-1167h-178zM60 933v147h645v-147h-645z" />
    <glyph glyph-name="t_t.liga" unicode="tt" horiz-adv-x="1526" 
d="M743 0q-96 -19 -189.5 -15.5t-166.5 38t-111 107.5q-32 64 -34.5 129.5t-2.5 148.5v972h178v-964q0 -66 1.5 -113t20.5 -81q36 -64 114.5 -75t189.5 6v-153zM20 933v147h723v-147h-723zM1446 0q-96 -19 -189.5 -15.5t-166.5 38t-111 107.5q-32 64 -34.5 129.5t-2.5 148.5
v972h178v-964q0 -66 1.5 -113t20.5 -81q36 -64 114.5 -75t189.5 6v-153zM723 933v147h723v-147h-723z" />
    <glyph glyph-name="fi" unicode="fi" horiz-adv-x="1253" 
d="M243 0v1139q0 42 4 85.5t18 85t46 76.5q37 41 81 58.5t89.5 21.5t86.5 4h137v-148h-127q-79 0 -118 -38.5t-39 -116.5v-1167h-178zM60 933v147h645v-147h-645zM915 1271v184h178v-184h-178zM915 0v1080h178v-1080h-178z" />
    <glyph glyph-name="fl" unicode="fl" horiz-adv-x="1292" 
d="M679 933v147h290v-147h-290zM243 0v1139q0 42 4 85.5t18 85t46 76.5q37 41 81 58.5t89.5 21.5t86.5 4h137v-148h-127q-79 0 -118 -38.5t-39 -116.5v-1167h-178zM60 933v147h645v-147h-645zM954 0v1470h178v-1470h-178z" />
    <glyph glyph-name="hyphen_hyphen.liga" unicode="&#x2d;&#x2d;" horiz-adv-x="1080" 
d="M120 557v147h840v-147h-840z" />
    <glyph glyph-name="hyphen_greater.liga" unicode="&#x2d;&#x3e;" horiz-adv-x="2009" 
d="M280 557v147h1193l-308 308l91 91l473 -473l-473 -473l-91 91l309 309h-1194z" />
    <glyph glyph-name="less_hyphen.liga" unicode="&#x3c;&#x2d;" horiz-adv-x="2009" 
d="M1729 557h-1194l309 -309l-91 -91l-473 473l473 473l91 -91l-308 -308h1193v-147z" />
    <glyph glyph-name=".notdef" horiz-adv-x="1480" 
d="M200 0v114h1080v-114h-1080zM200 144v80h1080v-80h-1080zM200 260v74h1080v-74h-1080zM200 374v70h1080v-70h-1080zM200 490v66h1080v-66h-1080zM200 606v60h1080v-60h-1080zM200 720v56h1080v-56h-1080zM200 838v48h1080v-48h-1080zM200 952v44h1080v-44h-1080z
M200 1066v42h1080v-42h-1080zM200 1184v36h1080v-36h-1080zM200 1298v32h1080v-32h-1080zM200 1414v26h1080v-26h-1080z" />
    <glyph glyph-name=".null" horiz-adv-x="0" 
 />
    <glyph glyph-name="nonmarkingreturn" horiz-adv-x="666" 
 />
    <glyph glyph-name="CR" unicode="&#xd;" horiz-adv-x="1200" 
 />
    <glyph glyph-name="space" unicode=" " horiz-adv-x="400" 
 />
    <glyph glyph-name="exclam" unicode="!" horiz-adv-x="658" 
d="M240 0v184h178v-184h-178zM240 360v1080h178v-1080h-178z" />
    <glyph glyph-name="quotedbl" unicode="&#x22;" horiz-adv-x="834" 
d="M120 1080v360h178v-360h-178zM456 1080v360h178v-360h-178z" />
    <glyph glyph-name="numbersign" unicode="#" horiz-adv-x="1848" 
d="M400 1l112 419h-392l45 170h393l77 292h-392l46 169h392l104 389h176l-105 -389h305l104 389h176l-105 -389h392l-45 -169h-392l-79 -292h392l-45 -170h-392l-112 -419h-175l111 419h-304l-112 -419h-175zM733 590h304l78 292h-304z" />
    <glyph glyph-name="dollar" unicode="$" horiz-adv-x="1204" 
d="M519 -198v231h178v-231h-178zM519 1407v232h178v-232h-178zM622 -30q-146 0 -262.5 52.5t-191.5 149t-98 227.5l175 29q32 -133 135.5 -211t249.5 -78q147 0 238 71t91 183q0 82 -48.5 132t-162.5 85l-329 102q-295 92 -295 352q0 122 59.5 213.5t167 142t250.5 49.5
q139 -1 248 -51.5t180.5 -144.5t96.5 -225l-180 -33q-14 85 -61.5 149t-120.5 99.5t-164 36.5q-85 1 -152.5 -28t-106.5 -81t-39 -119q0 -73 54.5 -123.5t171.5 -86.5l270 -80q178 -53 257 -142.5t79 -238.5q0 -129 -63.5 -226t-179 -151t-269.5 -54z" />
    <glyph glyph-name="percent" unicode="%" horiz-adv-x="1802" 
d="M300 0l-120 120l1322 1320l120 -120zM1322 -30q-99 0 -180.5 48.5t-130.5 130t-49 181.5q0 98 50 180t132 131t178 49q99 0 181 -48.5t130.5 -130t48.5 -181.5t-48.5 -181.5t-130.5 -130t-181 -48.5zM1322 127q55 0 101.5 28t74 74t27.5 101t-27.5 101.5t-74 74
t-101.5 27.5t-101 -27.5t-74 -74t-28 -101.5t28 -101t74 -74t101 -28zM480 750q-99 0 -181 48.5t-130.5 130t-48.5 181.5q0 98 50 180t132 131t178 49q99 0 180.5 -48.5t130.5 -130t49 -181.5t-49 -181.5t-130.5 -130t-180.5 -48.5zM480 907q55 0 101.5 28t74 74t27.5 101
t-27.5 101.5t-74 74t-101.5 27.5t-101 -27.5t-74 -74t-28 -101.5t28 -101t74 -74t101 -28z" />
    <glyph glyph-name="ampersand" unicode="&#x26;" horiz-adv-x="1314" 
d="M608 -30q-120 0 -224 35t-174 110q-54 60 -80.5 132.5t-29.5 153.5q0 79 23 154.5t73 134.5q26 32 58.5 54.5t65.5 38.5q-69 74 -105.5 139t-36.5 157q0 117 60.5 211.5t165.5 138.5q51 22 104.5 30.5t104.5 8.5q86 0 167 -24t138 -78q38 -32 65 -73.5t42 -86.5l-174 -45
q-19 51 -63 86q-35 30 -81.5 41t-93.5 11q-78 0 -141 -30q-56 -27 -84 -75.5t-28 -114.5q0 -57 19.5 -93.5t54.5 -77.5q21 -22 47.5 -46.5t54.5 -50.5l424 -394q3 25 4 51t1 50l-1 199h163v-234q0 -71 -4.5 -121t-14.5 -83l183 -169l-116 -124l-152 144q-39 -44 -93 -77
t-108 -50q-51 -19 -105 -26t-109 -7zM612 141q49 0 89 6t76 23q48 23 74 44t43 39l-439 402q-36 -12 -67.5 -32t-54.5 -47q-26 -32 -38.5 -75t-12.5 -91q1 -51 17 -94t45 -77q44 -51 119 -74.5t149 -23.5z" />
    <glyph glyph-name="quotesingle" unicode="'" horiz-adv-x="458" 
d="M120 1080v360h178v-360h-178z" />
    <glyph glyph-name="parenleft" unicode="(" horiz-adv-x="870" 
d="M653 -366q-117 135 -201 303t-129 353t-43 370q-2 186 43 371t129 352.5t201 302.5l132 -100q-118 -140 -193.5 -291t-111.5 -310.5t-37 -324.5q1 -163 37.5 -323.5t112 -312t192.5 -289.5z" />
    <glyph glyph-name="parenright" unicode=")" horiz-adv-x="870" 
d="M217 -366l-132 101q117 138 192.5 289.5t112.5 312t37 323.5q0 165 -36.5 324.5t-112 310.5t-193.5 291l132 100q117 -135 201.5 -302.5t129 -352.5t42.5 -371q2 -185 -42.5 -370t-129 -353t-201.5 -303z" />
    <glyph glyph-name="asterisk" unicode="*" horiz-adv-x="892" 
d="M276 762l-131 95l155 195l-240 70l50 154l234 -87l-9 251h162l-9 -251l234 87l50 -154l-240 -70l154 -195l-131 -95l-139 206z" />
    <glyph glyph-name="plus" unicode="+" horiz-adv-x="1150" 
d="M502 265v382h-382v147h382v381h147v-381h381v-147h-381v-382h-147z" />
    <glyph glyph-name="comma" unicode="," horiz-adv-x="556" 
d="M120 -224l11 83q42 -3 63 16t27 52t2 73h-103v226h196v-256q0 -105 -51.5 -158t-144.5 -36z" />
    <glyph glyph-name="hyphen" unicode="-" horiz-adv-x="840" 
d="M120 557v147h600v-147h-600z" />
    <glyph glyph-name="period" unicode="." horiz-adv-x="540" 
d="M172 0v196h196v-196h-196z" />
    <glyph glyph-name="slash" unicode="/" horiz-adv-x="805" 
d="M504 1440h181l-384 -1440h-181z" />
    <glyph glyph-name="zero" unicode="0" horiz-adv-x="1252" 
d="M626 -30q-140 0 -249.5 63.5t-173 173t-63.5 249.5v528q0 140 63.5 250t173 173t249.5 63t250 -63t173 -173t63 -250v-528q0 -140 -63 -249.5t-173 -173t-250 -63.5zM626 141q85 0 154 41t110 110.5t41 153.5v549q0 85 -41 154t-110 110t-154 41q-84 0 -153.5 -41
t-110.5 -110t-41 -154v-549q0 -84 41 -153.5t110.5 -110.5t153.5 -41z" />
    <glyph glyph-name="one" unicode="1" horiz-adv-x="812" 
d="M391 0v1243l-271 -164v199l271 162h181v-1440h-181z" />
    <glyph glyph-name="two" unicode="2" horiz-adv-x="1157" 
d="M100 1l1 160l639 575q80 72 107.5 136.5t27.5 132.5q0 83 -38 150t-103.5 106t-148.5 39q-86 0 -153 -40.5t-105.5 -107.5t-37.5 -146h-182q0 136 63 240.5t171.5 164t246.5 59.5q134 0 240 -61.5t167.5 -167t61.5 -238.5q0 -94 -23.5 -163t-72.5 -127.5t-123 -124.5
l-531 -477l-23 60h773v-170h-957z" />
    <glyph glyph-name="three" unicode="3" horiz-adv-x="1125" 
d="M535 -28q-107 0 -199 39.5t-158.5 112t-97.5 172.5l171 49q33 -100 110 -152t173 -51q88 2 152.5 40.5t100 105.5t35.5 155q0 134 -80 217.5t-210 83.5q-36 0 -75.5 -10t-73.5 -28l-86 141l534 483l23 -60h-717v170h849v-171l-455 -436l-2 63q143 10 250 -47t166.5 -163
t59.5 -243q0 -138 -62 -244t-168 -166.5t-240 -60.5z" />
    <glyph glyph-name="four" unicode="4" horiz-adv-x="1192" 
d="M762 0v265h-662v169l475 1006h202l-475 -1006h460v405h180v-405h150v-169h-150v-265h-180z" />
    <glyph glyph-name="five" unicode="5" horiz-adv-x="1161" 
d="M566 -30q-111 0 -206.5 46t-163 126.5t-96.5 185.5l171 46q18 -71 64 -122.5t107.5 -80t128.5 -28.5q88 0 158.5 42.5t111.5 113t41 154.5q0 87 -42.5 157.5t-113.5 111.5t-155 41q-95 0 -162.5 -39.5t-106.5 -96.5l-158 60l44 753h773v-169h-687l79 74l-37 -603l-39 51
q60 64 143.5 99t170.5 35q134 0 240 -62.5t168 -170t62 -241.5q0 -133 -68 -242.5t-180.5 -175t-246.5 -65.5z" />
    <glyph glyph-name="six" unicode="6" horiz-adv-x="1242" 
d="M631 -30q-137 0 -248.5 66t-177 180.5t-65.5 258.5v479q0 151 65.5 267.5t180 182t261.5 65.5q119 0 221.5 -48.5t172.5 -139.5l-133 -118q-43 63 -112 100t-149 37q-95 0 -168.5 -45.5t-115.5 -120t-42 -160.5v-289l-39 44q63 90 160 144t210 54q134 0 240.5 -63
t168 -170.5t61.5 -241.5t-67 -243t-178.5 -174t-245.5 -65zM631 142q86 0 157 41.5t112.5 112t41.5 156.5t-41.5 157t-112 112.5t-156.5 41.5t-156.5 -41.5t-112.5 -112.5t-42 -157q0 -85 41.5 -155.5t112 -112.5t156.5 -42z" />
    <glyph glyph-name="seven" unicode="7" horiz-adv-x="1025" 
d="M216 0l518 1269h-654v171h845v-171l-517 -1269h-192z" />
    <glyph glyph-name="eight" unicode="8" horiz-adv-x="1182" 
d="M590 -30q-138 0 -244 55.5t-166 154.5t-60 231q0 129 61.5 233t185.5 160l-3 -65q-101 49 -155 138.5t-54 198.5q0 122 56 210t154 136t225 48t225 -48t154 -136t56 -210q0 -109 -51 -197.5t-157 -139.5l-4 64q124 -54 186.5 -158.5t62.5 -233.5q0 -132 -60.5 -231
t-167 -154.5t-244.5 -55.5zM590 140q126 0 204.5 69.5t78.5 201.5q0 133 -77.5 202.5t-205.5 69.5q-127 0 -204.5 -69.5t-77.5 -202.5q0 -132 78 -201.5t204 -69.5zM590 854q110 0 178 55.5t68 166.5t-68 166.5t-178 55.5q-109 0 -177.5 -55.5t-68.5 -166.5t68.5 -166.5
t177.5 -55.5z" />
    <glyph glyph-name="nine" unicode="9" horiz-adv-x="1242" 
d="M611 1469q138 0 249 -66t176.5 -180t65.5 -259v-479q0 -151 -65 -267t-179.5 -182t-262.5 -66q-118 0 -220.5 49t-173.5 139l133 118q44 -62 113 -99.5t148 -37.5q96 0 169.5 46t115 120t41.5 160v289l39 -44q-62 -90 -159 -144t-211 -54q-134 0 -240 63t-168 170.5
t-62 241.5t67 243.5t178.5 174t245.5 64.5zM611 1297q-86 0 -156.5 -41.5t-112.5 -112t-42 -156.5t41.5 -156.5t112 -112.5t156.5 -42t157 42t112.5 112.5t41.5 156.5q0 85 -41.5 155.5t-112 112.5t-156.5 42z" />
    <glyph glyph-name="colon" unicode=":" horiz-adv-x="627" 
d="M220 150v196h196v-196h-196zM221 734v196h196v-196h-196z" />
    <glyph glyph-name="semicolon" unicode=";" horiz-adv-x="636" 
d="M220 -224l11 83q42 -3 63 16t27 52t2 73h-103v226h196v-256q0 -105 -51.5 -158t-144.5 -36zM220 884v196h196v-196h-196z" />
    <glyph glyph-name="less" unicode="&#x3c;" horiz-adv-x="1244" 
d="M753 157l-473 473l473 473l112 -111l-368 -362l368 -362z" />
    <glyph glyph-name="equal" unicode="=" horiz-adv-x="1500" 
d="M240 823v147h1020v-147h-1020zM240 470v147h1020v-147h-1020z" />
    <glyph glyph-name="greater" unicode="&#x3e;" horiz-adv-x="1244" 
d="M491 157l-112 111l368 362l-368 362l112 111l473 -473z" />
    <glyph glyph-name="question" unicode="?" horiz-adv-x="1067" 
d="M415 392q0 75 9.5 136.5t41.5 119.5q29 56 69 91.5t86 68.5t91 81q40 45 53 90.5t13 96.5q0 45 -10.5 81.5t-34.5 62.5q-36 45 -89.5 62t-111.5 17q-55 0 -103.5 -15t-80.5 -47q-32 -29 -47 -70.5t-15 -89.5h-186q6 87 41.5 165.5t98.5 129.5q59 50 135 73.5t153 23.5
q102 0 193.5 -31t152.5 -103q47 -51 70 -117t23 -139q0 -89 -35.5 -166t-95.5 -139q-33 -36 -71.5 -66t-73 -60t-54.5 -66q-26 -47 -29.5 -86.5t-3.5 -103.5h-189zM416 0v219h188v-219h-188z" />
    <glyph glyph-name="at" unicode="@" horiz-adv-x="1814" 
d="M908 -210q-161 0 -297.5 55t-237.5 154t-157 233t-56 291q0 178 56.5 319.5t158 241.5t238 153t296.5 53q190 0 332 -59.5t235.5 -162t138 -231.5t38.5 -269q-7 -191 -85 -291t-229 -100q-88 0 -158 41t-95 118l53 -4q-38 -74 -108 -105.5t-145 -31.5q-96 0 -168.5 41.5
t-114 116t-41.5 172.5q0 102 43 176t117 114.5t167 40.5q65 0 135 -27t108 -82l-40 -48v129h120l-2 -342q0 -75 32.5 -118t101.5 -43q53 0 85.5 30t48.5 82.5t18 122.5q5 154 -42 264t-130.5 181t-188 104.5t-216.5 33.5q-145 0 -257.5 -47t-190 -131.5t-117 -196.5
t-37.5 -242q3 -131 48 -239.5t125.5 -186.5t189 -120.5t236.5 -42.5q78 0 155.5 19t139.5 52l52 -134q-82 -42 -172 -63t-183 -21zM896 344q75 0 123.5 43t48.5 139q0 91 -45 137t-123 46q-90 0 -136.5 -48.5t-46.5 -134.5q0 -87 48 -134.5t131 -47.5z" />
    <glyph glyph-name="A" unicode="A" horiz-adv-x="1292" 
d="M40 0l482 1440h248l482 -1440h-185l-451 1336h56l-447 -1336h-185zM272 337v167h748v-167h-748z" />
    <glyph glyph-name="B" unicode="B" horiz-adv-x="1238" 
d="M140 0v1440h561q129 0 220.5 -53t140 -139.5t48.5 -186.5q0 -117 -60 -205t-162 -121l-2 49q139 -37 216 -136t77 -236q0 -126 -51.5 -218t-148 -143t-228.5 -51h-611zM320 170h397q80 0 143 29.5t99.5 83.5t36.5 130q0 73 -32.5 131t-91 92.5t-135.5 34.5h-417v-501z
M320 839h379q64 0 115.5 27.5t82 77.5t30.5 117q0 93 -63 152t-165 59h-379v-433z" />
    <glyph glyph-name="C" unicode="C" horiz-adv-x="1446" 
d="M732 -30q-215 0 -365 95t-228.5 264t-78.5 391t78.5 391t228.5 264t365 95q250 0 411.5 -127t222.5 -342l-181 -48q-44 161 -157 254t-296 93q-161 0 -268 -73t-161 -203.5t-55 -303.5q-1 -172 53 -302.5t162 -204t269 -73.5q183 0 296 93.5t157 253.5l181 -48
q-61 -214 -222.5 -341.5t-411.5 -127.5z" />
    <glyph glyph-name="D" unicode="D" horiz-adv-x="1362" 
d="M140 0v1440h444q22 0 77 -1t105 -8q167 -22 279.5 -121.5t169.5 -252.5t57 -337t-57 -337t-169.5 -252.5t-279.5 -121.5q-50 -6 -105.5 -7.5t-76.5 -1.5h-444zM323 170h261q38 0 85 2.5t82 8.5q118 22 191 99t107 192t34 248q0 136 -34.5 251t-107.5 191t-190 97
q-35 7 -83 9t-84 2h-261v-1100z" />
    <glyph glyph-name="E" unicode="E" horiz-adv-x="1150" 
d="M140 0v1440h910v-169h-732v-451h612v-169h-612v-482h732v-169h-910z" />
    <glyph glyph-name="F" unicode="F" horiz-adv-x="1020" 
d="M140 0v1440h840v-178h-662v-453h542v-178h-542v-631h-178z" />
    <glyph glyph-name="G" unicode="G" horiz-adv-x="1428" 
d="M723 -30q-148 0 -270 52t-210 149.5t-135.5 236t-47.5 312.5q0 230 82 398t231 259.5t350 91.5q242 0 390 -112.5t204 -307.5l-180 -37q-45 131 -148 209t-257 78q-161 1 -267.5 -71.5t-160.5 -203.5t-55 -304q-1 -172 53 -302t161.5 -203.5t268.5 -74.5q139 -1 234 53
t147 156t63 245h-306v147h494q3 -20 3.5 -47.5t0.5 -37.5q0 -197 -73.5 -352.5t-217 -244.5t-354.5 -89z" />
    <glyph glyph-name="H" unicode="H" horiz-adv-x="1394" 
d="M140 0v1440h178v-635h758v635h178v-1440h-178v636h-758v-636h-178z" />
    <glyph glyph-name="I" unicode="I" 
d="M160 0v1440h178v-1440h-178z" />
    <glyph glyph-name="J" unicode="J" horiz-adv-x="952" 
d="M400 -29q-151 0 -256 82t-144 220l177 42q16 -73 77.5 -124t141.5 -51q52 0 106 25.5t83 83.5q20 40 23 88.5t3 114.5v988h180v-988q0 -62 -0.5 -111t-10 -93.5t-36.5 -90.5q-54 -95 -144.5 -140.5t-199.5 -45.5z" />
    <glyph glyph-name="K" unicode="K" horiz-adv-x="1223" 
d="M140 0v1440h178v-676l630 676h224l-654 -699l705 -741h-230l-675 704v-704h-178z" />
    <glyph glyph-name="L" unicode="L" horiz-adv-x="1036" 
d="M160 0v1440h178v-1271h668v-169h-846z" />
    <glyph glyph-name="M" unicode="M" horiz-adv-x="1691" 
d="M140 0v1440h162l544 -1147l541 1147h164v-1439h-169v1048l-489 -1049h-95l-489 1049v-1049h-169z" />
    <glyph glyph-name="N" unicode="N" horiz-adv-x="1391" 
d="M140 0v1440h180l751 -1125v1125h180v-1440h-180l-751 1126v-1126h-180z" />
    <glyph glyph-name="O" unicode="O" horiz-adv-x="1464" 
d="M732 -30q-215 0 -365 95t-228.5 264t-78.5 391t78.5 391t228.5 264t365 95q216 0 366 -95t228 -264t78 -391t-78 -391t-228 -264t-366 -95zM732 140q161 -1 268.5 72.5t161 204.5t53.5 303q0 173 -53.5 303t-161 203t-268.5 74t-267.5 -72t-160.5 -204t-55 -304
q-1 -172 53 -302t161.5 -203.5t268.5 -74.5z" />
    <glyph glyph-name="P" unicode="P" horiz-adv-x="1231" 
d="M140 0v1440h569q21 0 50 -1.5t56 -6.5q117 -18 196.5 -80t119.5 -156.5t40 -209.5q0 -114 -40.5 -208.5t-120 -157t-195.5 -80.5q-27 -4 -56 -6t-50 -2h-391v-532h-178zM318 701h385q19 0 43.5 2t46.5 7q69 16 112.5 58.5t63.5 100t20 117.5t-20 117.5t-63.5 100.5
t-112.5 58q-22 6 -46.5 7.5t-43.5 1.5h-385v-570z" />
    <glyph glyph-name="Q" unicode="Q" horiz-adv-x="1464" 
d="M1270 -29l-393 391l117 117l391 -391zM732 -30q-215 0 -365 95t-228.5 264t-78.5 391t78.5 391t228.5 264t365 95q216 0 366 -95t228 -264t78 -391t-78 -391t-228 -264t-366 -95zM732 140q161 -1 268.5 72.5t161 204.5t53.5 303q0 173 -53.5 303t-161 203t-268.5 74
t-267.5 -72t-160.5 -204t-55 -304q-1 -172 53 -302t161.5 -203.5t268.5 -74.5z" />
    <glyph glyph-name="R" unicode="R" horiz-adv-x="1281" 
d="M140 0v1440h569q21 0 50 -1.5t56 -6.5q117 -18 196.5 -80t119.5 -156.5t40 -209.5q0 -167 -87 -289.5t-255 -153.5l-68 -11h-443v-532h-178zM997 0l-284 586l176 54l312 -640h-204zM318 701h385q19 0 43.5 2t46.5 7q69 16 112.5 58.5t63.5 100t20 117.5t-20 117.5
t-63.5 100.5t-112.5 58q-22 6 -46.5 7.5t-43.5 1.5h-385v-570z" />
    <glyph glyph-name="S" unicode="S" horiz-adv-x="1260" 
d="M651 -30q-153 0 -275.5 52t-202 148.5t-103.5 228.5l184 29q35 -136 145.5 -212.5t260.5 -76.5q97 0 175.5 30.5t124.5 87.5t46 135q0 48 -16.5 82.5t-45 59t-64.5 41.5t-75 28l-367 109q-60 18 -116 45.5t-100 69t-70 100t-26 138.5q0 128 66.5 218.5t180.5 138.5
t257 47q145 -1 259.5 -51.5t190 -144.5t101.5 -225l-189 -33q-15 88 -66.5 151.5t-128.5 98t-169 35.5q-88 1 -159 -28t-113 -80.5t-42 -118.5q0 -66 38 -106.5t93.5 -64t108.5 -38.5l274 -79q47 -13 108.5 -36t119.5 -64.5t96 -110t38 -172.5t-41.5 -185t-115.5 -135.5
t-172 -83t-210 -28.5z" />
    <glyph glyph-name="T" unicode="T" horiz-adv-x="1200" 
d="M511 0v1271h-491v169h1160v-169h-491v-1271h-178z" />
    <glyph glyph-name="U" unicode="U" horiz-adv-x="1416" 
d="M708 -30q-167 0 -295 69t-200.5 193.5t-72.5 292.5v914l180 1v-900q0 -102 34.5 -177.5t91.5 -125.5t125.5 -74.5t136.5 -24.5q69 0 138 25t125.5 74.5t90.5 125.5t34 177v900h180v-915q0 -167 -72.5 -292t-200.5 -194t-295 -69z" />
    <glyph glyph-name="V" unicode="V" horiz-adv-x="1232" 
d="M492 0l-482 1440h185l419 -1251l423 1251h185l-482 -1440h-248z" />
    <glyph glyph-name="W" unicode="W" horiz-adv-x="1898" 
d="M447 0l-417 1440h186l320 -1139l319 1138l187 1l320 -1139l319 1139h187l-417 -1440h-178l-324 1129l-324 -1129h-178z" />
    <glyph glyph-name="X" unicode="X" horiz-adv-x="1245" 
d="M20 0l495 729l-482 711h217l373 -561l372 561h218l-482 -711l494 -729h-217l-385 578l-385 -578h-218z" />
    <glyph glyph-name="Y" unicode="Y" horiz-adv-x="1149" 
d="M485 0v599l-485 841h207l368 -637l367 637h207l-484 -841v-599h-180z" />
    <glyph glyph-name="Z" unicode="Z" horiz-adv-x="1261" 
d="M100 0v32l761 1239h-731v169h1031v-34l-757 -1237h747v-169h-1051z" />
    <glyph glyph-name="bracketleft" unicode="[" horiz-adv-x="825" 
d="M280 -432v2214h395v-162h-233v-1890h233v-162h-395z" />
    <glyph glyph-name="backslash" unicode="\" horiz-adv-x="805" 
d="M301 1440l384 -1440h-181l-384 1440h181z" />
    <glyph glyph-name="bracketright" unicode="]" horiz-adv-x="825" 
d="M545 -432h-395v162h233v1890h-233v162h395v-2214z" />
    <glyph glyph-name="asciicircum" unicode="^" horiz-adv-x="1346" 
d="M211 998l472 474l474 -473l-111 -112l-363 368l-361 -369z" />
    <glyph glyph-name="underscore" unicode="_" horiz-adv-x="1320" 
d="M0 -223v147h1320v-147h-1320z" />
    <glyph glyph-name="grave" unicode="`" horiz-adv-x="1012" 
d="M469 1605l-131 330h145l131 -330h-145z" />
    <glyph glyph-name="a" unicode="a" horiz-adv-x="1125" 
d="M447 -30q-121 0 -202.5 44.5t-123 117.5t-41.5 160q0 85 32.5 147.5t91.5 104t141 65.5q77 21 172.5 36.5t193.5 28.5t183 25l-64 -37q3 144 -57.5 213t-208.5 69q-98 0 -171.5 -44.5t-103.5 -144.5l-169 51q39 142 151 223t295 81q147 0 252.5 -52.5t151.5 -158.5
q23 -50 29 -108.5t6 -122.5v-668h-158v259l37 -24q-61 -131 -170.5 -198t-266.5 -67zM474 119q96 0 166.5 34.5t113.5 91t56 123.5q15 50 16.5 111.5t1.5 94.5l62 -27q-87 -12 -171 -23t-159 -23.5t-135 -29.5q-44 -14 -82.5 -36t-62 -56.5t-23.5 -85.5q0 -44 22.5 -84
t70 -65t124.5 -25z" />
    <glyph glyph-name="b" unicode="b" horiz-adv-x="1200" 
d="M636 -30q-152 0 -256 75.5t-157.5 205t-53.5 290.5q0 163 53.5 292t158 203t256.5 74q150 0 258.5 -74.5t166.5 -203.5t58 -291t-58 -291t-166.5 -204.5t-259.5 -75.5zM139 0v1440h179v-645h-20v-795h-159zM614 133q107 0 177 54t105 146.5t35 207.5q0 114 -34.5 206
t-106 146t-181.5 54q-105 0 -174 -51.5t-103 -143t-34 -211.5q0 -118 33.5 -210.5t103.5 -145t179 -52.5z" />
    <glyph glyph-name="c" unicode="c" horiz-adv-x="1122" 
d="M595 -30q-164 0 -278.5 73.5t-174.5 202.5t-62 294q2 169 63.5 297.5t176.5 200.5t277 72q171 0 294.5 -84t165.5 -230l-176 -53q-34 94 -110.5 146t-175.5 52q-111 0 -183 -51.5t-107 -142t-36 -207.5q2 -180 83.5 -290.5t242.5 -110.5q106 0 176 48.5t106 140.5
l180 -47q-56 -151 -175 -231t-287 -80z" />
    <glyph glyph-name="d" unicode="d" horiz-adv-x="1201" 
d="M564 -30q-151 0 -259 75.5t-166.5 204.5t-58.5 291t58.5 291t166.5 203.5t258 74.5q153 0 257 -74t157.5 -203t53.5 -292q0 -161 -53.5 -290.5t-157.5 -205t-256 -75.5zM586 133q109 0 179 52.5t103.5 145t33.5 210.5q0 120 -33.5 211.5t-102.5 143t-175 51.5
q-110 0 -181.5 -54t-106 -146t-34.5 -206q0 -115 35 -207.5t105.5 -146.5t176.5 -54zM902 0v795h-20v645h179v-1440h-159z" />
    <glyph glyph-name="e" unicode="e" horiz-adv-x="1181" 
d="M608 -30q-159 0 -277.5 70.5t-184.5 197t-66 295.5q0 177 65 306.5t181.5 200t273.5 70.5q163 0 277.5 -75t172 -214t49.5 -331h-180v64q-3 199 -81 297.5t-232 98.5q-165 0 -251 -106t-86 -304q0 -191 86 -296t245 -105q107 0 186 49t124 141l171 -59
q-63 -143 -189.5 -221.5t-283.5 -78.5zM209 490v143h798v-143h-798z" />
    <glyph glyph-name="f" unicode="f" horiz-adv-x="725" 
d="M243 0v1139q0 42 4 85.5t18 85t46 76.5q37 41 81 58.5t89.5 21.5t86.5 4h137v-148h-127q-79 0 -118 -38.5t-39 -116.5v-1167h-178zM60 933v147h645v-147h-645z" />
    <glyph glyph-name="g" unicode="g" horiz-adv-x="1200" 
d="M577 -510q-85 0 -166 26t-148.5 78.5t-112.5 132.5l163 86q40 -79 113.5 -115t151.5 -36q103 0 171 37.5t100.5 111.5t31.5 184v295h21v790h158v-1087q0 -44 -2.5 -85t-10.5 -81q-21 -115 -83 -189.5t-160 -111t-227 -36.5zM564 -30q-151 0 -259 75.5t-166.5 204.5
t-58.5 291t58.5 291t166.5 203.5t258 74.5q153 0 257 -74t157.5 -203t53.5 -292q0 -161 -53.5 -290.5t-157.5 -205t-256 -75.5zM586 133q109 0 179 52.5t103.5 145t33.5 210.5q0 120 -33.5 211.5t-102.5 143t-175 51.5q-110 0 -181.5 -54t-106 -146t-34.5 -206
q0 -115 35 -207.5t105.5 -146.5t176.5 -54z" />
    <glyph glyph-name="h" unicode="h" horiz-adv-x="1209" 
d="M909 0v541q0 77 -13.5 148t-47 127.5t-90 89.5t-142.5 33q-67 0 -121.5 -22.5t-93.5 -68.5t-60.5 -115.5t-21.5 -163.5l-117 36q0 157 56.5 269.5t159 173t241.5 60.5q105 0 179 -33t123 -87.5t77 -122t39.5 -137t11.5 -131.5v-597h-180zM139 0v1440h160v-795h20v-645
h-180z" />
    <glyph glyph-name="i" unicode="i" 
d="M160 1271v184h178v-184h-178zM160 0v1080h178v-1080h-178z" />
    <glyph glyph-name="j" unicode="j" horiz-adv-x="526" 
d="M-20 -480v170h58q78 0 119 39t41 124v1227h178v-1288q0 -133 -68.5 -202.5t-202.5 -69.5h-125zM198 1271v184h178v-184h-178z" />
    <glyph glyph-name="k" unicode="k" horiz-adv-x="1020" 
d="M139 0l1 1440h180v-880l453 520h231l-477 -540l533 -540h-249l-491 520v-520h-181z" />
    <glyph glyph-name="l" unicode="l" 
d="M160 0v1470h178v-1470h-178z" />
    <glyph glyph-name="m" unicode="m" horiz-adv-x="1730" 
d="M1431 0l1 691q0 121 -64.5 189.5t-167.5 68.5q-60 0 -114 -27.5t-88 -86t-34 -149.5l-94 38q-2 115 47.5 201.5t135.5 134.5t194 48q169 0 266 -102.5t97 -275.5l-1 -730h-178zM139 0v1080h159v-289h20v-791h-179zM786 0l1 684q0 124 -64 194.5t-170 70.5
q-105 0 -170 -72t-65 -191l-94 56q0 105 50 188t136 130.5t195 47.5t190 -46t125 -131.5t44 -203.5l-1 -727h-177z" />
    <glyph glyph-name="n" unicode="n" horiz-adv-x="1209" 
d="M909 0v541q0 77 -13.5 148t-47 127.5t-90 89.5t-142.5 33q-67 0 -121.5 -22.5t-93.5 -68.5t-60.5 -115.5t-21.5 -163.5l-117 36q0 157 56.5 269.5t159 173t241.5 60.5q105 0 179 -33t123 -87.5t77 -122t39.5 -137t11.5 -131.5v-597h-180zM139 0v1080h160v-289h20v-791
h-180z" />
    <glyph glyph-name="o" unicode="o" horiz-adv-x="1201" 
d="M600 -30q-161 0 -277.5 73t-179.5 202t-63 296q0 170 64 298t181 199.5t275 71.5q162 0 279 -72.5t179.5 -201t62.5 -295.5q0 -169 -63 -297.5t-180 -201t-278 -72.5zM600 139q168 0 250 112t82 290q0 183 -83 291.5t-249 108.5q-113 0 -186 -51t-109 -141t-36 -208
q0 -182 84 -292t247 -110z" />
    <glyph glyph-name="p" unicode="p" horiz-adv-x="1200" 
d="M636 -30q-152 0 -256 75.5t-157.5 205t-53.5 290.5q0 163 53.5 292t158 203t256.5 74q150 0 258.5 -74.5t166.5 -203.5t58 -291t-58 -291t-166.5 -204.5t-259.5 -75.5zM139 -480v1560h159v-795h20v-765h-179zM614 133q107 0 177 54t105 146.5t35 207.5q0 114 -34.5 206
t-106 146t-181.5 54q-105 0 -174 -51.5t-103 -143t-34 -211.5q0 -118 33.5 -210.5t103.5 -145t179 -52.5z" />
    <glyph glyph-name="q" unicode="q" horiz-adv-x="1201" 
d="M564 -30q-151 0 -259 75.5t-166.5 204.5t-58.5 291t58.5 291t166.5 203.5t258 74.5q153 0 257 -74t157.5 -203t53.5 -292q0 -161 -53.5 -290.5t-157.5 -205t-256 -75.5zM586 133q109 0 179 52.5t103.5 145t33.5 210.5q0 120 -33.5 211.5t-102.5 143t-175 51.5
q-110 0 -181.5 -54t-106 -146t-34.5 -206q0 -115 35 -207.5t105.5 -146.5t176.5 -54zM882 -480v765h20v795h159v-1560h-179z" />
    <glyph glyph-name="r" unicode="r" horiz-adv-x="747" 
d="M140 0v1080h159v-261l-26 34q19 50 49.5 92t68.5 69q42 34 95 52t108 21.5t103 -7.5v-167q-56 15 -123 8t-124 -49q-52 -37 -80.5 -90t-39.5 -114.5t-11 -125.5v-542h-179z" />
    <glyph glyph-name="s" unicode="s" horiz-adv-x="1061" 
d="M548 -29q-193 0 -316.5 84.5t-151.5 236.5l182 29q22 -88 101 -139.5t196 -51.5q111 0 174 46t63 125q0 46 -21 74.5t-86.5 53.5t-197.5 60q-143 38 -225 79t-117 95t-35 131q0 95 52 166.5t145.5 110.5t217.5 39q123 0 220 -39t156.5 -110.5t70.5 -166.5l-182 -33
q-13 87 -83.5 137t-181.5 53q-105 4 -170.5 -37t-65.5 -111q0 -39 24.5 -67t91 -53t193.5 -57q143 -36 225.5 -78.5t117.5 -100t35 -141.5q0 -156 -115 -245.5t-317 -89.5z" />
    <glyph glyph-name="t" unicode="t" horiz-adv-x="823" 
d="M743 0q-96 -19 -189.5 -15.5t-166.5 38t-111 107.5q-32 64 -34.5 129.5t-2.5 148.5v972h178v-964q0 -66 1.5 -113t20.5 -81q36 -64 114.5 -75t189.5 6v-153zM20 933v147h723v-147h-723z" />
    <glyph glyph-name="u" unicode="u" horiz-adv-x="1209" 
d="M550 -28q-104 0 -178.5 33t-123.5 88t-77 122t-39.5 137t-11.5 131v597h180v-541q0 -76 14 -147t47.5 -128t90 -90t141.5 -33q67 0 122 23t94 68.5t60 115.5t21 163l117 -36q0 -156 -56.5 -269t-159 -173.5t-241.5 -60.5zM910 0v289h-20v791h179v-1080h-159z" />
    <glyph glyph-name="v" unicode="v" horiz-adv-x="1046" 
d="M432 0l-392 1080h180l303 -853l302 853h181l-392 -1080h-182z" />
    <glyph glyph-name="w" unicode="w" horiz-adv-x="1558" 
d="M370 0l-330 1081l177 -1l241 -790l243 790h157l242 -790l242 790h176l-330 -1080h-148l-261 821l-261 -821h-148z" />
    <glyph glyph-name="x" unicode="x" horiz-adv-x="1072" 
d="M20 0l413 546l-404 534h212l296 -396l293 396h212l-404 -534l414 -546h-213l-302 408l-304 -408h-213z" />
    <glyph glyph-name="y" unicode="y" horiz-adv-x="1076" 
d="M290 -480l209 568l3 -168l-472 1160h187l370 -933h-64l347 933h181l-588 -1560h-173z" />
    <glyph glyph-name="z" unicode="z" horiz-adv-x="1062" 
d="M40 0v32l655 886h-601v162h888v-34l-654 -884h620v-162h-908z" />
    <glyph glyph-name="braceleft" unicode="{" horiz-adv-x="859" 
d="M649 -432q-113 0 -182.5 70t-69.5 181v635q0 28 -16 52l-86 121q-15 22 -15 48.5t15 47.5l86 121q16 26 16 52v634q0 112 69.5 182t182.5 70h125v-170h-115q-38 0 -65 -26.5t-27 -65.5v-624q0 -82 -48 -150l-51 -71l51 -71q48 -67 48 -150v-625q0 -38 27 -65t65 -27h115
v-169h-125z" />
    <glyph glyph-name="bar" unicode="|" horiz-adv-x="538" 
d="M180 0v1440h178v-1440h-178z" />
    <glyph glyph-name="braceright" unicode="}" horiz-adv-x="859" 
d="M210 -432h-125v169h115q39 0 65.5 27t26.5 65v625q0 83 48 150l51 71l-51 71q-48 68 -48 150v624q0 39 -26.5 65.5t-65.5 26.5h-115v170h125q113 0 182.5 -70t69.5 -182v-634q0 -26 16 -52l86 -121q16 -21 16 -47.5t-16 -48.5l-86 -121q-16 -24 -16 -52v-635
q0 -111 -69.5 -181t-182.5 -70z" />
    <glyph glyph-name="asciitilde" unicode="~" horiz-adv-x="1360" 
d="M899 447q-62 0 -120 26t-111.5 60t-101.5 60t-90 26q-51 0 -67 -44.5t1 -99.5h-169q-23 94 -4.5 170.5t75 121.5t147.5 45q63 0 121.5 -26t112 -60t101.5 -60t90 -26q47 0 65.5 43.5t0.5 103.5h169q23 -93 5 -170t-74.5 -123.5t-150.5 -46.5z" />
    <glyph glyph-name="uni00A0" unicode="&#xa0;" horiz-adv-x="400" 
 />
    <glyph glyph-name="exclamdown" unicode="&#xa1;" horiz-adv-x="658" 
d="M240 1080h178v-184h-178v184zM240 720h178v-1080h-178v1080z" />
    <glyph glyph-name="cent" unicode="&#xa2;" horiz-adv-x="1122" 
d="M529 -59v183q-144 15 -243.5 91t-151.5 198.5t-54 276.5q2 157 55 279t152.5 196.5t241.5 89.5v185h147v-186q141 -18 242 -98.5t139 -209.5l-176 -53q-34 94 -110.5 146t-175.5 52q-111 0 -183 -51.5t-107 -142t-36 -207.5q2 -180 83.5 -290.5t242.5 -110.5
q106 0 176 48.5t106 140.5l180 -47q-51 -132 -148 -209.5t-233 -95.5v-185h-147z" />
    <glyph glyph-name="sterling" unicode="&#xa3;" horiz-adv-x="1142" 
d="M70 0v169h77q60 0 102 43.5t42 101.5v777q0 110 51.5 196t139.5 134.5t197 48.5q98 0 172 -43t128.5 -123.5t92.5 -191.5l-162 -53q-37 119 -92 180t-140 61q-93 0 -149.5 -59.5t-56.5 -156.5l-1 -915h534v-169h-935zM70 643v170h745v-170h-745z" />
    <glyph glyph-name="currency" unicode="&#xa4;" horiz-adv-x="1302" 
d="M651 196q-108 0 -203 41t-167 113.5t-113 167.5t-41 204q0 108 41 203t113 167t167 113t203 41q109 0 204 -41t167.5 -113t113.5 -167t41 -203q0 -109 -41 -204t-113.5 -167.5t-167.5 -113.5t-204 -41zM180 130l-120 120l223 223l121 -120zM284 966l-224 224l120 120
l223 -223zM1122 130l-223 223l120 120l223 -223zM651 352q102 0 186 50.5t133.5 134t49.5 183.5q0 102 -50.5 186t-135 133.5t-183.5 49.5q-102 0 -185.5 -49.5t-133 -133.5t-49.5 -186q0 -100 49.5 -183.5t133 -134t185.5 -50.5zM1019 967l-120 120l223 223l120 -120z" />
    <glyph glyph-name="yen" unicode="&#xa5;" horiz-adv-x="1149" 
d="M185 519v147h780v-147h-780zM185 216v147h780v-147h-780zM485 0v599l-485 841h207l368 -637l367 637h207l-484 -841v-599h-180z" />
    <glyph glyph-name="brokenbar" unicode="&#xa6;" horiz-adv-x="538" 
d="M180 676v764h178v-764h-178zM180 -344v764h178v-764h-178z" />
    <glyph glyph-name="section" unicode="&#xa7;" horiz-adv-x="1061" 
d="M551 -299q-104 0 -196.5 33.5t-157.5 104.5t-87 183l182 29q17 -67 60 -109t98.5 -62t110.5 -20q56 0 105 19t79.5 57t30.5 95q0 55 -32 85.5t-99.5 52.5t-173.5 50q-117 31 -201.5 67.5t-130 90.5t-45.5 137q0 99 58 161.5t146.5 90t180.5 20.5l10 -65
q-96 -26 -156 -71.5t-60 -113.5q0 -54 39.5 -84.5t109 -51t160.5 -44.5q117 -31 201.5 -67t130.5 -94.5t46 -156.5q0 -110 -54 -185t-146.5 -113.5t-208.5 -38.5zM612 253l-3 67q48 5 93.5 29t74.5 64.5t29 97.5q0 55 -32 85.5t-99.5 52.5t-173.5 50q-117 31 -201.5 67
t-130 92t-45.5 146q0 108 58 178t147.5 104t183.5 34q103 0 192.5 -38t149 -108.5t71.5 -169.5l-182 -33q-12 70 -48.5 111.5t-87 60.5t-104.5 19t-100 -17.5t-73.5 -50t-27.5 -78.5q0 -54 40.5 -85t110.5 -51t158 -44q116 -31 201 -67t131 -93.5t46 -153.5q0 -101 -49 -168
t-134.5 -93.5t-194.5 -7.5z" />
    <glyph glyph-name="dieresis" unicode="&#xa8;" horiz-adv-x="1052" 
d="M632 1636v180h180v-180h-180zM240 1636v180h180v-180h-180z" />
    <glyph glyph-name="copyright" unicode="&#xa9;" horiz-adv-x="1662" 
d="M831 -75q-159 0 -299 60t-246 166t-166 246t-60 299q0 160 60 300t166 245.5t246 165.5t299 60q160 0 300 -60t245.5 -165.5t165.5 -245.5t60 -300q0 -159 -60 -299t-165.5 -246t-245.5 -166t-300 -60zM842 273q-94 0 -166 31.5t-127 99.5q-52 66 -72.5 141.5
t-20.5 152.5q1 81 22.5 155.5t70.5 135.5q55 67 128.5 99.5t171.5 32.5q55 0 102.5 -11t95.5 -41q51 -30 88.5 -77.5t53.5 -110.5l-143 -41q-11 30 -31 57.5t-48 48.5q-26 20 -58.5 29.5t-66.5 9.5q-54 0 -99 -22t-77 -62q-32 -41 -44 -94.5t-12 -107.5q0 -58 13.5 -111
t42.5 -94q30 -41 75.5 -62.5t101.5 -21.5q76 0 127 37q27 21 44 45.5t29 54.5l146 -36q-20 -57 -54 -101.5t-74 -73.5q-45 -31 -97 -47t-122 -16zM831 96q124 0 232.5 46.5t191 129t129 192t46.5 233.5t-46.5 232.5t-129 191t-190.5 129t-233 46.5t-234 -46.5t-191.5 -129
t-129 -190.5t-46.5 -233t46.5 -234t129 -191.5t192 -129t233.5 -46.5z" />
    <glyph glyph-name="ordfeminine" unicode="&#xaa;" horiz-adv-x="633" 
d="M262 540q-89 0 -135.5 48.5t-46.5 114.5q0 60 31.5 100t94.5 61q50 16 123.5 26.5t152.5 21.5l-40 -35q3 67 -23 98.5t-93 31.5q-39 0 -74 -18.5t-48 -61.5l-104 32q20 69 76.5 110t150.5 41q72 0 126.5 -24t79.5 -77q14 -28 17 -57.5t3 -64.5v-332h-99v120l16 -20
q-35 -59 -84.5 -87t-123.5 -28zM283 631q64 0 101 32.5t46 65.5q9 24 10 55.5t1 47.5l37 -13q-78 -12 -129.5 -20t-87.5 -19q-32 -11 -51 -29t-19 -47q0 -31 23 -52t69 -21z" />
    <glyph glyph-name="guillemotleft" unicode="&#xab;" horiz-adv-x="1105" 
d="M873 103l-348 438l348 437l102 -80l-285 -357l285 -358zM508 103l-348 438l348 437l102 -80l-285 -357l285 -358z" />
    <glyph glyph-name="logicalnot" unicode="&#xac;" horiz-adv-x="1200" 
d="M933 384v243h-813v147h960v-390h-147z" />
    <glyph glyph-name="uni00AD" unicode="&#xad;" horiz-adv-x="840" 
d="M120 557v147h600v-147h-600z" />
    <glyph glyph-name="registered" unicode="&#xae;" horiz-adv-x="1270" 
d="M635 565q-102 0 -192 38.5t-158 107t-106.5 158t-38.5 192.5q0 102 38.5 191.5t106.5 157.5t158 106.5t192 38.5q103 0 192.5 -38.5t157.5 -106.5t106.5 -157.5t38.5 -191.5q0 -103 -38.5 -192.5t-106.5 -158t-157.5 -107t-192.5 -38.5zM636 695q100 0 183 50t132.5 133
t49.5 183q0 101 -49.5 184t-132.5 132t-183 49q-101 0 -184 -49t-132.5 -132t-49.5 -184q0 -100 49.5 -183t132.5 -133t184 -50zM471 829v468h202q68 0 112 -43.5t45 -109.5q0 -41 -21.5 -78.5t-63.5 -58.5l88 -178h-92l-79 163h-110v-163h-81zM552 1068h122q30 0 51.5 22
t21.5 54q0 36 -21 56t-52 20h-122v-152z" />
    <glyph glyph-name="macron" unicode="&#xaf;" horiz-adv-x="992" 
d="M240 1680v146h512v-146h-512z" />
    <glyph glyph-name="degree" unicode="&#xb0;" horiz-adv-x="900" 
d="M420 750q-99 0 -181 48.5t-130.5 130t-48.5 181.5q0 98 50 180t132 131t178 49q99 0 180.5 -48.5t130.5 -130t49 -181.5t-49 -181.5t-130.5 -130t-180.5 -48.5zM420 907q55 0 101.5 28t74 74t27.5 101t-27.5 101.5t-74 74t-101.5 27.5t-101 -27.5t-74 -74t-28 -101.5
t28 -101t74 -74t101 -28z" />
    <glyph glyph-name="plusminus" unicode="&#xb1;" horiz-adv-x="1200" 
d="M527 440v247h-407v147h407v246h147v-246h406v-147h-406v-247h-147zM120 148v147h960v-147h-960z" />
    <glyph glyph-name="uni00B2" unicode="&#xb2;" horiz-adv-x="808" 
d="M100 540l1 112l394 355q48 43 65.5 81.5t17.5 76.5q0 75 -48 125.5t-122 50.5q-51 0 -91 -24t-62.5 -64t-21.5 -86h-130q0 87 39.5 153t109 103t158.5 37q85 0 152.5 -38.5t106.5 -105.5t39 -152q0 -61 -16 -104t-48.5 -79.5t-80.5 -79.5l-322 -290l-19 49h486v-120h-608
z" />
    <glyph glyph-name="uni00B3" unicode="&#xb3;" horiz-adv-x="789" 
d="M369 519q-100 0 -180 56.5t-109 152.5l122 34q19 -60 65 -91t102 -31q77 1 124 50.5t47 125.5q0 78 -47.5 127.5t-124.5 49.5q-22 0 -44.5 -6t-43.5 -16l-60 99l336 300l19 -50h-459v120h541v-121l-283 -270l-3 51q91 5 158 -31.5t103.5 -102.5t36.5 -150
q0 -86 -39.5 -153t-107.5 -105.5t-153 -38.5z" />
    <glyph glyph-name="acute" unicode="&#xb4;" horiz-adv-x="1012" 
d="M544 1605h-145l131 330h145z" />
    <glyph glyph-name="uni00B5" unicode="&#xb5;" horiz-adv-x="1228" 
d="M139 -480v1560h180v-541q0 -76 14 -147t47.5 -128t90 -90t141.5 -33q67 0 122 23t94 68.5t60 115.5t21 163v569h179v-1080h-159v143q-59 -84 -151.5 -127.5t-208.5 -43.5q-87 0 -155.5 29t-115.5 83v-564h-159z" />
    <glyph glyph-name="paragraph" unicode="&#xb6;" horiz-adv-x="1323" 
d="M683 -282v814h-91q-13 0 -42 1.5t-64 6.5q-115 18 -194.5 80t-120.5 157t-41 209t40.5 208.5t120 157.5t195.5 80q35 6 63.5 7t42.5 1h269v-1722h-178zM1015 -282v1722h178v-1722h-178z" />
    <glyph glyph-name="periodcentered" unicode="&#xb7;" horiz-adv-x="480" 
d="M243 510q-51 0 -87 34.5t-36 85.5q0 52 36 86t87 34q48 0 82.5 -34t34.5 -86q0 -51 -34.5 -85.5t-82.5 -34.5z" />
    <glyph glyph-name="cedilla" unicode="&#xb8;" horiz-adv-x="805" 
d="M371 -481q-37 0 -69.5 9.5t-61.5 23.5l43 115q45 -16 73 -16q36 0 55.5 22t19.5 48q0 44 -40 63.5t-92 34.5l73 205l121 1l-47 -132q55 -25 88 -68.5t33 -108.5q0 -85 -58 -141t-138 -56z" />
    <glyph glyph-name="uni00B9" unicode="&#xb9;" horiz-adv-x="658" 
d="M290 540v762l-170 -103v140l170 101h128v-900h-128z" />
    <glyph glyph-name="ordmasculine" unicode="&#xba;" horiz-adv-x="694" 
d="M347 540q-122 0 -194.5 80t-72.5 206q0 127 74 205.5t193 78.5q122 0 194.5 -79.5t72.5 -204.5q0 -127 -73 -206.5t-194 -79.5zM346 646q75 0 112 50t37 130q0 81 -37.5 130t-111.5 49q-75 0 -110.5 -49.5t-35.5 -130.5t36.5 -130t109.5 -49z" />
    <glyph glyph-name="guillemotright" unicode="&#xbb;" horiz-adv-x="1105" 
d="M232 103l-102 80l285 358l-285 357l102 80l348 -437zM597 103l-102 80l285 358l-285 357l102 80l348 -437z" />
    <glyph glyph-name="onequarter" unicode="&#xbc;" horiz-adv-x="1988" 
d="M290 540v762l-170 -103v140l170 101h128v-900h-128zM1531 0v159h-409v120l294 621h144l-294 -621h265v246h127v-246h90v-120h-90v-159h-127zM429 0l-114 87l1029 1360l113 -87z" />
    <glyph glyph-name="onehalf" unicode="&#xbd;" horiz-adv-x="1922" 
d="M290 540v762l-170 -103v140l170 101h128v-900h-128zM1214 0l1 112l394 355q48 43 65.5 81.5t17.5 76.5q0 75 -48 125.5t-122 50.5q-51 0 -91 -24t-63 -64t-21 -86h-130q0 87 39.5 153.5t108.5 103t159 36.5q85 0 152 -38.5t106.5 -105.5t39.5 -152q0 -61 -16.5 -104
t-48.5 -79.5t-80 -79.5l-322 -290l-19 49h486v-120h-608zM429 0l-114 87l1029 1360l113 -87z" />
    <glyph glyph-name="threequarters" unicode="&#xbe;" horiz-adv-x="1991" 
d="M369 519q-100 0 -180 56.5t-109 152.5l122 34q19 -60 65 -91t102 -31q77 1 124 50.5t47 125.5q0 78 -47.5 127.5t-124.5 49.5q-22 0 -44.5 -6t-43.5 -16l-60 99l336 300l19 -50h-459v120h541v-121l-283 -270l-3 51q91 5 158 -31.5t103.5 -102.5t36.5 -150
q0 -86 -39.5 -153t-107.5 -105.5t-153 -38.5zM1654 0v159h-409v120l294 621h144l-294 -621h265v246h127v-246h90v-120h-90v-159h-127zM560 0l-114 87l1029 1360l113 -87z" />
    <glyph glyph-name="questiondown" unicode="&#xbf;" horiz-adv-x="1067" 
d="M652 688q0 -75 -9 -136t-42 -120q-28 -55 -68.5 -90.5t-86 -68.5t-91.5 -82q-38 -44 -52 -89.5t-14 -97.5q0 -44 11 -80t34 -64q36 -44 90 -61.5t111 -17.5q56 0 104.5 15.5t79.5 46.5q34 30 48.5 71.5t13.5 88.5h186q-6 -86 -41 -165t-99 -130q-58 -49 -134 -73
t-154 -24q-102 0 -193 31.5t-153 102.5q-46 52 -69.5 118.5t-23.5 137.5q0 90 36 167t95 138q34 36 72.5 66.5t72.5 60.5t54 65q28 48 30.5 88t2.5 102h189zM651 1080v-219h-188v219h188z" />
    <glyph glyph-name="Agrave" unicode="&#xc0;" horiz-adv-x="1292" 
d="M556 1605l-131 330h145l131 -330h-145zM1252 0h-185l-447 1336h56l-451 -1336h-185l482 1440h248zM1020 337h-748v167h748v-167z" />
    <glyph glyph-name="Aacute" unicode="&#xc1;" horiz-adv-x="1292" 
d="M736 1605h-145l131 330h145zM40 0l482 1440h248l482 -1440h-185l-451 1336h56l-447 -1336h-185zM272 337v167h748v-167h-748z" />
    <glyph glyph-name="Acircumflex" unicode="&#xc2;" horiz-adv-x="1292" 
d="M322 1605l244 285h158l244 -285h-175l-148 175l-148 -175h-175zM40 0l482 1440h248l482 -1440h-185l-451 1336h56l-447 -1336h-185zM272 337v167h748v-167h-748z" />
    <glyph glyph-name="Atilde" unicode="&#xc3;" horiz-adv-x="1292" 
d="M802 1658q-44 0 -85 18.5t-79 42.5t-72 42.5t-64 18.5q-36 0 -47 -31.5t0 -70.5h-120q-24 100 17 169.5t138 69.5q45 0 86 -18.5t79.5 -42.5t72.5 -42.5t63 -18.5q34 0 47 31t0 73h120q25 -98 -16 -169.5t-140 -71.5zM40 0l482 1440h248l482 -1440h-185l-451 1336h56
l-447 -1336h-185zM272 337v167h748v-167h-748z" />
    <glyph glyph-name="Adieresis" unicode="&#xc4;" horiz-adv-x="1292" 
d="M753 1636v180h180v-180h-180zM361 1636v180h180v-180h-180zM40 0l482 1440h248l482 -1440h-185l-451 1336h56l-447 -1336h-185zM272 337v167h748v-167h-748z" />
    <glyph glyph-name="Aring" unicode="&#xc5;" horiz-adv-x="1292" 
d="M647 1555q-63 0 -116 31.5t-84.5 84t-31.5 116.5t31.5 116.5t84 84t116.5 31.5q65 0 117.5 -31.5t83.5 -84t31 -116.5t-31 -116.5t-84 -84t-117 -31.5zM647 1677q47 0 78.5 32.5t31.5 77.5q0 46 -31.5 78t-78.5 32q-45 0 -77.5 -32t-32.5 -78q0 -45 32.5 -77.5
t77.5 -32.5zM40 0l482 1440h248l482 -1440h-185l-451 1336h56l-447 -1336h-185zM272 337v167h748v-167h-748z" />
    <glyph glyph-name="AE" unicode="&#xc6;" horiz-adv-x="1850" 
d="M40 0l482 1440h383v-169h-324l90 64l-446 -1335h-185zM272 337v167h698v-167h-698zM840 0v1440h910v-169h-732v-451h612v-169h-612v-482h732v-169h-910z" />
    <glyph glyph-name="Ccedilla" unicode="&#xc7;" horiz-adv-x="1446" 
d="M715 -481q-37 0 -69.5 9.5t-61.5 23.5l43 115q45 -16 73 -16q36 0 55.5 22t19.5 48q0 44 -40 63.5t-92 34.5l73 205l121 1l-47 -132q55 -25 88 -68.5t33 -108.5q0 -85 -58 -141t-138 -56zM732 -30q-215 0 -365 95t-228.5 264t-78.5 391t78.5 391t228.5 264t365 95
q250 0 411.5 -127t222.5 -342l-181 -48q-44 161 -157 254t-296 93q-161 0 -268 -73t-161 -203.5t-55 -303.5q-1 -172 53 -302.5t162 -204t269 -73.5q183 0 296 93.5t157 253.5l181 -48q-61 -214 -222.5 -341.5t-411.5 -127.5z" />
    <glyph glyph-name="Egrave" unicode="&#xc8;" horiz-adv-x="1150" 
d="M550 1605l-131 330h145l131 -330h-145zM140 0v1440h910v-169h-732v-451h612v-169h-612v-482h732v-169h-910z" />
    <glyph glyph-name="Eacute" unicode="&#xc9;" horiz-adv-x="1150" 
d="M693 1605h-145l131 330h145zM140 0v1440h910v-169h-732v-451h612v-169h-612v-482h732v-169h-910z" />
    <glyph glyph-name="Ecircumflex" unicode="&#xca;" horiz-adv-x="1150" 
d="M260 1605l244 285h158l244 -285h-175l-148 175l-148 -175h-175zM140 0v1440h910v-169h-732v-451h612v-169h-612v-482h732v-169h-910z" />
    <glyph glyph-name="Edieresis" unicode="&#xcb;" horiz-adv-x="1150" 
d="M685 1636v180h180v-180h-180zM293 1636v180h180v-180h-180zM140 0v1440h910v-169h-732v-451h612v-169h-612v-482h732v-169h-910z" />
    <glyph glyph-name="Igrave" unicode="&#xcc;" 
d="M174 1605l-131 330h145l131 -330h-145zM160 0v1440h178v-1440h-178z" />
    <glyph glyph-name="Iacute" unicode="&#xcd;" 
d="M325 1605h-145l131 330h145zM160 0v1440h178v-1440h-178z" />
    <glyph glyph-name="Icircumflex" unicode="&#xce;" 
d="M-76 1605l244 285h158l244 -285h-175l-148 175l-148 -175h-175zM160 0v1440h178v-1440h-178z" />
    <glyph glyph-name="Idieresis" unicode="&#xcf;" 
d="M355 1636v180h180v-180h-180zM-37 1636v180h180v-180h-180zM160 0v1440h178v-1440h-178z" />
    <glyph glyph-name="Eth" unicode="&#xd0;" horiz-adv-x="1355" 
d="M20 647v147h645v-147h-645zM133 0v1440h444q22 0 77 -1t105 -8q167 -22 279.5 -121.5t169.5 -252.5t57 -337t-57 -337t-169.5 -252.5t-279.5 -121.5q-50 -6 -105.5 -7.5t-76.5 -1.5h-444zM316 170h261q38 0 85 2.5t82 8.5q118 22 191 99t107 192t34 248q0 136 -34.5 251
t-107.5 191t-190 97q-35 7 -83 9t-84 2h-261v-1100z" />
    <glyph glyph-name="Ntilde" unicode="&#xd1;" horiz-adv-x="1391" 
d="M876 1608q-44 0 -85 18.5t-79 42.5t-72 42.5t-64 18.5q-36 0 -47 -31.5t0 -70.5h-120q-24 100 17 169.5t138 69.5q45 0 86 -18.5t79.5 -42.5t72.5 -42.5t63 -18.5q34 0 47 31t0 73h120q25 -98 -16 -169.5t-140 -71.5zM140 0v1440h180l751 -1125v1125h180v-1440h-180
l-751 1126v-1126h-180z" />
    <glyph glyph-name="Ograve" unicode="&#xd2;" horiz-adv-x="1464" 
d="M650 1605l-131 330h145l131 -330h-145zM732 -30q-215 0 -365 95t-228.5 264t-78.5 391t78.5 391t228.5 264t365 95q216 0 366 -95t228 -264t78 -391t-78 -391t-228 -264t-366 -95zM732 140q161 -1 268.5 72.5t161 204.5t53.5 303q0 173 -53.5 303t-161 203t-268.5 74
t-267.5 -72t-160.5 -204t-55 -304q-1 -172 53 -302t161.5 -203.5t268.5 -74.5z" />
    <glyph glyph-name="Oacute" unicode="&#xd3;" horiz-adv-x="1464" 
d="M820 1605h-145l131 330h145zM732 -30q-215 0 -365 95t-228.5 264t-78.5 391t78.5 391t228.5 264t365 95q216 0 366 -95t228 -264t78 -391t-78 -391t-228 -264t-366 -95zM732 140q161 -1 268.5 72.5t161 204.5t53.5 303q0 173 -53.5 303t-161 203t-268.5 74t-267.5 -72
t-160.5 -204t-55 -304q-1 -172 53 -302t161.5 -203.5t268.5 -74.5z" />
    <glyph glyph-name="Ocircumflex" unicode="&#xd4;" horiz-adv-x="1464" 
d="M407 1605l244 285h158l244 -285h-175l-148 175l-148 -175h-175zM732 -30q-215 0 -365 95t-228.5 264t-78.5 391t78.5 391t228.5 264t365 95q216 0 366 -95t228 -264t78 -391t-78 -391t-228 -264t-366 -95zM732 140q161 -1 268.5 72.5t161 204.5t53.5 303q0 173 -53.5 303
t-161 203t-268.5 74t-267.5 -72t-160.5 -204t-55 -304q-1 -172 53 -302t161.5 -203.5t268.5 -74.5z" />
    <glyph glyph-name="Otilde" unicode="&#xd5;" horiz-adv-x="1464" 
d="M732 -30q-215 0 -365 95t-228.5 264t-78.5 391t78.5 391t228.5 264t365 95q216 0 366 -95t228 -264t78 -391t-78 -391t-228 -264t-366 -95zM732 140q161 -1 268.5 72.5t161 204.5t53.5 303q0 173 -53.5 303t-161 203t-268.5 74t-267.5 -72t-160.5 -204t-55 -304
q-1 -172 53 -302t161.5 -203.5t268.5 -74.5zM902 1608q-44 0 -85 18.5t-79 42.5t-72 42.5t-64 18.5q-36 0 -47 -31.5t0 -70.5h-120q-24 100 17 169.5t138 69.5q45 0 86 -18.5t79.5 -42.5t72.5 -42.5t63 -18.5q34 0 47 31t0 73h120q25 -98 -16 -169.5t-140 -71.5z" />
    <glyph glyph-name="Odieresis" unicode="&#xd6;" horiz-adv-x="1464" 
d="M838 1636v180h180v-180h-180zM446 1636v180h180v-180h-180zM732 -30q-215 0 -365 95t-228.5 264t-78.5 391t78.5 391t228.5 264t365 95q216 0 366 -95t228 -264t78 -391t-78 -391t-228 -264t-366 -95zM732 140q161 -1 268.5 72.5t161 204.5t53.5 303q0 173 -53.5 303
t-161 203t-268.5 74t-267.5 -72t-160.5 -204t-55 -304q-1 -172 53 -302t161.5 -203.5t268.5 -74.5z" />
    <glyph glyph-name="multiply" unicode="&#xd7;" horiz-adv-x="988" 
d="M765 346l-271 271l-270 -271l-104 105l270 270l-269 269l104 104l269 -269l270 269l104 -104l-270 -269l270 -270z" />
    <glyph glyph-name="Oslash" unicode="&#xd8;" horiz-adv-x="1464" 
d="M179 -26l-127 114l179 197l28 27l844 925l16 21l186 205l127 -114l-202 -223l-21 -17l-844 -927l-20 -26zM732 -30q-215 0 -365 95t-228.5 264t-78.5 391t78.5 391t228.5 264t365 95q216 0 366 -95t228 -264t78 -391t-78 -391t-228 -264t-366 -95zM732 140
q161 -1 268.5 72.5t161 204.5t53.5 303q0 173 -53.5 303t-161 203t-268.5 74t-267.5 -72t-160.5 -204t-55 -304q-1 -172 53 -302t161.5 -203.5t268.5 -74.5z" />
    <glyph glyph-name="Ugrave" unicode="&#xd9;" horiz-adv-x="1416" 
d="M656 1605l-131 330h145l131 -330h-145zM708 -30q-167 0 -295 69t-200.5 193.5t-72.5 292.5v914l180 1v-900q0 -102 34.5 -177.5t91.5 -125.5t125.5 -74.5t136.5 -24.5q69 0 138 25t125.5 74.5t90.5 125.5t34 177v900h180v-915q0 -167 -72.5 -292t-200.5 -194t-295 -69z
" />
    <glyph glyph-name="Uacute" unicode="&#xda;" horiz-adv-x="1416" 
d="M768 1605h-145l131 330h145zM708 -30q-167 0 -295 69t-200.5 193.5t-72.5 292.5v914l180 1v-900q0 -102 34.5 -177.5t91.5 -125.5t125.5 -74.5t136.5 -24.5q69 0 138 25t125.5 74.5t90.5 125.5t34 177v900h180v-915q0 -167 -72.5 -292t-200.5 -194t-295 -69z" />
    <glyph glyph-name="Ucircumflex" unicode="&#xdb;" horiz-adv-x="1416" 
d="M383 1605l244 285h158l244 -285h-175l-148 175l-148 -175h-175zM708 -30q-167 0 -295 69t-200.5 193.5t-72.5 292.5v914l180 1v-900q0 -102 34.5 -177.5t91.5 -125.5t125.5 -74.5t136.5 -24.5q69 0 138 25t125.5 74.5t90.5 125.5t34 177v900h180v-915q0 -167 -72.5 -292
t-200.5 -194t-295 -69z" />
    <glyph glyph-name="Udieresis" unicode="&#xdc;" horiz-adv-x="1416" 
d="M814 1636v180h180v-180h-180zM422 1636v180h180v-180h-180zM708 -30q-167 0 -295 69t-200.5 193.5t-72.5 292.5v914l180 1v-900q0 -102 34.5 -177.5t91.5 -125.5t125.5 -74.5t136.5 -24.5q69 0 138 25t125.5 74.5t90.5 125.5t34 177v900h180v-915q0 -167 -72.5 -292
t-200.5 -194t-295 -69z" />
    <glyph glyph-name="Yacute" unicode="&#xdd;" horiz-adv-x="1149" 
d="M633 1605h-145l131 330h145zM485 0v599l-485 841h207l368 -637l367 637h207l-484 -841v-599h-180z" />
    <glyph glyph-name="Thorn" unicode="&#xde;" horiz-adv-x="1213" 
d="M140 0v1440h180v-266h376q77 0 150 -26q56 -18 105.5 -51.5t85.5 -79.5q55 -60 85.5 -138t30.5 -159q1 -78 -27.5 -152t-77.5 -134q-60 -76 -154 -121.5t-198 -45.5h-376v-267h-180zM320 436h375q58 0 115.5 28.5t96.5 77.5q30 38 47.5 84t15.5 94q-1 55 -21 106.5
t-58 89.5q-36 39 -89 63.5t-107 24.5h-375v-568z" />
    <glyph glyph-name="germandbls" unicode="&#xdf;" horiz-adv-x="1221" 
d="M646 -29q-55 0 -99.5 6.5t-84.5 22.5v175q37 -13 76.5 -20.5t87.5 -7.5q132 0 213 69.5t81 200.5q0 130 -99.5 198.5t-261.5 70.5v160q67 7 121 34t85 75.5t31 120.5q0 107 -67 166t-170 59q-70 0 -128.5 -30t-85.5 -99q-12 -31 -17.5 -72.5t-5.5 -85.5v-1014h-183v1062
q0 47 5.5 87t17.5 73q30 85 87.5 140t136.5 81.5t172 26.5q121 0 216 -48t149.5 -136t54.5 -208q0 -95 -39 -171.5t-117 -115.5q49 -12 98.5 -42.5t90 -78.5t65.5 -112t25 -143q0 -203 -116.5 -323.5t-338.5 -120.5z" />
    <glyph glyph-name="agrave" unicode="&#xe0;" horiz-adv-x="1125" 
d="M505 1245l-131 330h145l131 -330h-145zM447 -30q-121 0 -202.5 44.5t-123 117.5t-41.5 160q0 85 32.5 147.5t91.5 104t141 65.5q77 21 172.5 36.5t193.5 28.5t183 25l-64 -37q3 144 -57.5 213t-208.5 69q-98 0 -171.5 -44.5t-103.5 -144.5l-169 51q39 142 151 223t295 81
q147 0 252.5 -52.5t151.5 -158.5q23 -50 29 -108.5t6 -122.5v-668h-158v259l37 -24q-61 -131 -170.5 -198t-266.5 -67zM474 119q96 0 166.5 34.5t113.5 91t56 123.5q15 50 16.5 111.5t1.5 94.5l62 -27q-87 -12 -171 -23t-159 -23.5t-135 -29.5q-44 -14 -82.5 -36t-62 -56.5
t-23.5 -85.5q0 -44 22.5 -84t70 -65t124.5 -25z" />
    <glyph glyph-name="aacute" unicode="&#xe1;" horiz-adv-x="1125" 
d="M649 1245h-145l131 330h145zM447 -30q-121 0 -202.5 44.5t-123 117.5t-41.5 160q0 85 32.5 147.5t91.5 104t141 65.5q77 21 172.5 36.5t193.5 28.5t183 25l-64 -37q3 144 -57.5 213t-208.5 69q-98 0 -171.5 -44.5t-103.5 -144.5l-169 51q39 142 151 223t295 81
q147 0 252.5 -52.5t151.5 -158.5q23 -50 29 -108.5t6 -122.5v-668h-158v259l37 -24q-61 -131 -170.5 -198t-266.5 -67zM474 119q96 0 166.5 34.5t113.5 91t56 123.5q15 50 16.5 111.5t1.5 94.5l62 -27q-87 -12 -171 -23t-159 -23.5t-135 -29.5q-44 -14 -82.5 -36t-62 -56.5
t-23.5 -85.5q0 -44 22.5 -84t70 -65t124.5 -25z" />
    <glyph glyph-name="acircumflex" unicode="&#xe2;" horiz-adv-x="1125" 
d="M254 1245l244 285h158l244 -285h-175l-148 175l-148 -175h-175zM447 -30q-121 0 -202.5 44.5t-123 117.5t-41.5 160q0 85 32.5 147.5t91.5 104t141 65.5q77 21 172.5 36.5t193.5 28.5t183 25l-64 -37q3 144 -57.5 213t-208.5 69q-98 0 -171.5 -44.5t-103.5 -144.5
l-169 51q39 142 151 223t295 81q147 0 252.5 -52.5t151.5 -158.5q23 -50 29 -108.5t6 -122.5v-668h-158v259l37 -24q-61 -131 -170.5 -198t-266.5 -67zM474 119q96 0 166.5 34.5t113.5 91t56 123.5q15 50 16.5 111.5t1.5 94.5l62 -27q-87 -12 -171 -23t-159 -23.5
t-135 -29.5q-44 -14 -82.5 -36t-62 -56.5t-23.5 -85.5q0 -44 22.5 -84t70 -65t124.5 -25z" />
    <glyph glyph-name="atilde" unicode="&#xe3;" horiz-adv-x="1125" 
d="M746 1248q-44 0 -85 18.5t-79 42.5t-72 42.5t-64 18.5q-36 0 -47 -31.5t0 -70.5h-120q-24 100 17 169.5t138 69.5q45 0 86 -18.5t79.5 -42.5t72.5 -42.5t63 -18.5q34 0 47 31t0 73h120q25 -98 -16 -169.5t-140 -71.5zM447 -30q-121 0 -202.5 44.5t-123 117.5t-41.5 160
q0 85 32.5 147.5t91.5 104t141 65.5q77 21 172.5 36.5t193.5 28.5t183 25l-64 -37q3 144 -57.5 213t-208.5 69q-98 0 -171.5 -44.5t-103.5 -144.5l-169 51q39 142 151 223t295 81q147 0 252.5 -52.5t151.5 -158.5q23 -50 29 -108.5t6 -122.5v-668h-158v259l37 -24
q-61 -131 -170.5 -198t-266.5 -67zM474 119q96 0 166.5 34.5t113.5 91t56 123.5q15 50 16.5 111.5t1.5 94.5l62 -27q-87 -12 -171 -23t-159 -23.5t-135 -29.5q-44 -14 -82.5 -36t-62 -56.5t-23.5 -85.5q0 -44 22.5 -84t70 -65t124.5 -25z" />
    <glyph glyph-name="adieresis" unicode="&#xe4;" horiz-adv-x="1125" 
d="M690 1276v180h180v-180h-180zM298 1276v180h180v-180h-180zM447 -30q-121 0 -202.5 44.5t-123 117.5t-41.5 160q0 85 32.5 147.5t91.5 104t141 65.5q77 21 172.5 36.5t193.5 28.5t183 25l-64 -37q3 144 -57.5 213t-208.5 69q-98 0 -171.5 -44.5t-103.5 -144.5l-169 51
q39 142 151 223t295 81q147 0 252.5 -52.5t151.5 -158.5q23 -50 29 -108.5t6 -122.5v-668h-158v259l37 -24q-61 -131 -170.5 -198t-266.5 -67zM474 119q96 0 166.5 34.5t113.5 91t56 123.5q15 50 16.5 111.5t1.5 94.5l62 -27q-87 -12 -171 -23t-159 -23.5t-135 -29.5
q-44 -14 -82.5 -36t-62 -56.5t-23.5 -85.5q0 -44 22.5 -84t70 -65t124.5 -25z" />
    <glyph glyph-name="aring" unicode="&#xe5;" horiz-adv-x="1125" 
d="M577 1195q-64 0 -116.5 31.5t-84 84t-31.5 116.5t31.5 116.5t84 84t116.5 31.5t116.5 -31.5t84 -84t31.5 -116.5t-31.5 -116.5t-84 -84t-116.5 -31.5zM577 1317q46 0 78 32.5t32 77.5q0 46 -32 78t-78 32q-45 0 -77.5 -32t-32.5 -78q0 -45 32.5 -77.5t77.5 -32.5z
M447 -30q-121 0 -202.5 44.5t-123 117.5t-41.5 160q0 85 32.5 147.5t91.5 104t141 65.5q77 21 172.5 36.5t193.5 28.5t183 25l-64 -37q3 144 -57.5 213t-208.5 69q-98 0 -171.5 -44.5t-103.5 -144.5l-169 51q39 142 151 223t295 81q147 0 252.5 -52.5t151.5 -158.5
q23 -50 29 -108.5t6 -122.5v-668h-158v259l37 -24q-61 -131 -170.5 -198t-266.5 -67zM474 119q96 0 166.5 34.5t113.5 91t56 123.5q15 50 16.5 111.5t1.5 94.5l62 -27q-87 -12 -171 -23t-159 -23.5t-135 -29.5q-44 -14 -82.5 -36t-62 -56.5t-23.5 -85.5q0 -44 22.5 -84
t70 -65t124.5 -25z" />
    <glyph glyph-name="ae" unicode="&#xe6;" horiz-adv-x="1880" 
d="M1335 -30q-156 0 -268 73t-172 200t-60 291q0 172 59.5 302t170.5 202t264 72q161 0 267.5 -78.5t157.5 -218.5t44 -323h-170v64q-3 185 -70.5 290.5t-230.5 105.5q-110 0 -179.5 -52.5t-102 -145t-32.5 -212.5q0 -182 79.5 -291.5t234.5 -109.5q97 0 173 47.5t119 142.5
l161 -59q-39 -96 -106.5 -163t-154.5 -102t-184 -35zM474 118q108 0 192 50t120 122q22 43 31.5 92.5t11 93.5t0.5 70l51 -37l-289 -14q-43 -2 -100 -8.5t-110 -26t-88.5 -59t-35.5 -106.5q0 -83 58 -130t159 -47zM458 -30q-179 0 -278.5 88.5t-99.5 232.5q0 89 34.5 148.5
t90.5 95t121 54t127.5 26t109.5 10.5l297 16l-33 -32q9 115 -19 189t-89 110t-152 36q-96 0 -173 -42t-108 -140l-166 51q29 91 92.5 157.5t155 103t202.5 36.5q170 0 274 -72t140 -201q15 -48 18 -94.5t3 -82.5l-82 -404q-46 -107 -118 -169.5t-161 -89.5t-186 -27z
M956 490v147h755v-147h-755z" />
    <glyph glyph-name="ccedilla" unicode="&#xe7;" horiz-adv-x="1122" 
d="M551 -481q-37 0 -69.5 9.5t-61.5 23.5l43 115q45 -16 73 -16q36 0 55.5 22t19.5 48q0 44 -40 63.5t-92 34.5l73 205l121 1l-47 -132q55 -25 88 -68.5t33 -108.5q0 -85 -58 -141t-138 -56zM595 -30q-164 0 -278.5 73.5t-174.5 202.5t-62 294q2 169 63.5 297.5t176.5 200.5
t277 72q171 0 294.5 -84t165.5 -230l-176 -53q-34 94 -110.5 146t-175.5 52q-111 0 -183 -51.5t-107 -142t-36 -207.5q2 -180 83.5 -290.5t242.5 -110.5q106 0 176 48.5t106 140.5l180 -47q-56 -151 -175 -231t-287 -80z" />
    <glyph glyph-name="egrave" unicode="&#xe8;" horiz-adv-x="1181" 
d="M538 1245l-131 330h145l131 -330h-145zM608 -30q-159 0 -277.5 70.5t-184.5 197t-66 295.5q0 177 65 306.5t181.5 200t273.5 70.5q163 0 277.5 -75t172 -214t49.5 -331h-180v64q-3 199 -81 297.5t-232 98.5q-165 0 -251 -106t-86 -304q0 -191 86 -296t245 -105
q107 0 186 49t124 141l171 -59q-63 -143 -189.5 -221.5t-283.5 -78.5zM209 490v143h798v-143h-798z" />
    <glyph glyph-name="eacute" unicode="&#xe9;" horiz-adv-x="1181" 
d="M694 1245h-145l131 330h145zM608 -30q-159 0 -277.5 70.5t-184.5 197t-66 295.5q0 177 65 306.5t181.5 200t273.5 70.5q163 0 277.5 -75t172 -214t49.5 -331h-180v64q-3 199 -81 297.5t-232 98.5q-165 0 -251 -106t-86 -304q0 -191 86 -296t245 -105q107 0 186 49
t124 141l171 -59q-63 -143 -189.5 -221.5t-283.5 -78.5zM209 490v143h798v-143h-798z" />
    <glyph glyph-name="ecircumflex" unicode="&#xea;" horiz-adv-x="1181" 
d="M275 1245l244 285h158l244 -285h-175l-148 175l-148 -175h-175zM608 -30q-159 0 -277.5 70.5t-184.5 197t-66 295.5q0 177 65 306.5t181.5 200t273.5 70.5q163 0 277.5 -75t172 -214t49.5 -331h-180v64q-3 199 -81 297.5t-232 98.5q-165 0 -251 -106t-86 -304
q0 -191 86 -296t245 -105q107 0 186 49t124 141l171 -59q-63 -143 -189.5 -221.5t-283.5 -78.5zM209 490v143h798v-143h-798z" />
    <glyph glyph-name="edieresis" unicode="&#xeb;" horiz-adv-x="1181" 
d="M706 1276v180h180v-180h-180zM314 1276v180h180v-180h-180zM608 -30q-159 0 -277.5 70.5t-184.5 197t-66 295.5q0 177 65 306.5t181.5 200t273.5 70.5q163 0 277.5 -75t172 -214t49.5 -331h-180v64q-3 199 -81 297.5t-232 98.5q-165 0 -251 -106t-86 -304q0 -191 86 -296
t245 -105q107 0 186 49t124 141l171 -59q-63 -143 -189.5 -221.5t-283.5 -78.5zM209 490v143h798v-143h-798z" />
    <glyph glyph-name="igrave" unicode="&#xec;" 
d="M174 1245l-131 330h145l131 -330h-145zM160 0v1080h178v-1080h-178z" />
    <glyph glyph-name="iacute" unicode="&#xed;" 
d="M325 1245h-145l131 330h145zM160 0v1080h178v-1080h-178z" />
    <glyph glyph-name="icircumflex" unicode="&#xee;" 
d="M-66 1245l244 285h158l244 -285h-175l-148 175l-148 -175h-175zM160 0v1080h178v-1080h-178z" />
    <glyph glyph-name="idieresis" unicode="&#xef;" 
d="M355 1276v180h180v-180h-180zM-37 1276v180h180v-180h-180zM160 0v1080h178v-1080h-178z" />
    <glyph glyph-name="eth" unicode="&#xf0;" horiz-adv-x="1174" 
d="M588 -30q-155 -1 -268.5 66t-176 187.5t-63.5 279.5q1 161 64 281.5t176.5 187t267.5 65.5q92 1 175.5 -30.5t154.5 -98.5q-15 123 -81 219t-170.5 154.5t-235.5 67.5l26 144q165 -7 289.5 -75.5t201.5 -193.5q56 -81 88 -178t45 -227t13 -311q0 -164 -61.5 -285.5
t-175 -187.5t-269.5 -65zM588 132q158 0 241.5 100t83.5 273q0 174 -85.5 273t-239.5 97q-158 2 -242.5 -97.5t-84.5 -273.5q0 -176 85 -274t242 -98zM623 1108l-107 92l304 365l107 -92z" />
    <glyph glyph-name="ntilde" unicode="&#xf1;" horiz-adv-x="1209" 
d="M761 1248q-44 0 -85 18.5t-79 42.5t-72 42.5t-64 18.5q-36 0 -47 -31.5t0 -70.5h-120q-24 100 17 169.5t138 69.5q45 0 86 -18.5t79.5 -42.5t72.5 -42.5t63 -18.5q34 0 47 31t0 73h120q25 -98 -16 -169.5t-140 -71.5zM909 0v541q0 77 -13.5 148t-47 127.5t-90 89.5
t-142.5 33q-67 0 -121.5 -22.5t-93.5 -68.5t-60.5 -115.5t-21.5 -163.5l-117 36q0 157 56.5 269.5t159 173t241.5 60.5q105 0 179 -33t123 -87.5t77 -122t39.5 -137t11.5 -131.5v-597h-180zM139 0v1080h160v-289h20v-791h-180z" />
    <glyph glyph-name="ograve" unicode="&#xf2;" horiz-adv-x="1201" 
d="M518 1245l-131 330h145l131 -330h-145zM600 -30q-161 0 -277.5 73t-179.5 202t-63 296q0 170 64 298t181 199.5t275 71.5q162 0 279 -72.5t179.5 -201t62.5 -295.5q0 -169 -63 -297.5t-180 -201t-278 -72.5zM600 139q168 0 250 112t82 290q0 183 -83 291.5t-249 108.5
q-113 0 -186 -51t-109 -141t-36 -208q0 -182 84 -292t247 -110z" />
    <glyph glyph-name="oacute" unicode="&#xf3;" horiz-adv-x="1201" 
d="M673 1245h-145l131 330h145zM600 -30q-161 0 -277.5 73t-179.5 202t-63 296q0 170 64 298t181 199.5t275 71.5q162 0 279 -72.5t179.5 -201t62.5 -295.5q0 -169 -63 -297.5t-180 -201t-278 -72.5zM600 139q168 0 250 112t82 290q0 183 -83 291.5t-249 108.5
q-113 0 -186 -51t-109 -141t-36 -208q0 -182 84 -292t247 -110z" />
    <glyph glyph-name="ocircumflex" unicode="&#xf4;" horiz-adv-x="1201" 
d="M276 1245l244 285h158l244 -285h-175l-148 175l-148 -175h-175zM600 -30q-161 0 -277.5 73t-179.5 202t-63 296q0 170 64 298t181 199.5t275 71.5q162 0 279 -72.5t179.5 -201t62.5 -295.5q0 -169 -63 -297.5t-180 -201t-278 -72.5zM600 139q168 0 250 112t82 290
q0 183 -83 291.5t-249 108.5q-113 0 -186 -51t-109 -141t-36 -208q0 -182 84 -292t247 -110z" />
    <glyph glyph-name="otilde" unicode="&#xf5;" horiz-adv-x="1201" 
d="M757 1248q-44 0 -85 18.5t-79 42.5t-72 42.5t-64 18.5q-36 0 -47 -31.5t0 -70.5h-120q-24 100 17 169.5t138 69.5q45 0 86 -18.5t79.5 -42.5t72.5 -42.5t63 -18.5q34 0 47 31t0 73h120q25 -98 -16 -169.5t-140 -71.5zM600 -30q-161 0 -277.5 73t-179.5 202t-63 296
q0 170 64 298t181 199.5t275 71.5q162 0 279 -72.5t179.5 -201t62.5 -295.5q0 -169 -63 -297.5t-180 -201t-278 -72.5zM600 139q168 0 250 112t82 290q0 183 -83 291.5t-249 108.5q-113 0 -186 -51t-109 -141t-36 -208q0 -182 84 -292t247 -110z" />
    <glyph glyph-name="odieresis" unicode="&#xf6;" horiz-adv-x="1201" 
d="M707 1276v180h180v-180h-180zM315 1276v180h180v-180h-180zM600 -30q-161 0 -277.5 73t-179.5 201.5t-63 296.5q0 170 64 298t181 199.5t275 71.5q162 0 279 -72.5t179.5 -201t62.5 -295.5q0 -169 -63 -297.5t-180 -201t-278 -72.5zM600 139q168 0 250 112t82 290
q0 183 -83 291.5t-249 108.5q-113 0 -186 -51t-109 -141t-36 -208q0 -182 84 -292t247 -110z" />
    <glyph glyph-name="divide" unicode="&#xf7;" horiz-adv-x="1080" 
d="M120 647v147h840v-147h-840zM492 902v196h196v-196h-196zM492 418v196h196v-196h-196z" />
    <glyph glyph-name="oslash" unicode="&#xf8;" horiz-adv-x="1201" 
d="M164 -15l-120 120l173 173l52 31l594 592l23 44l151 150l120 -120l-167 -165l-44 -24l-582 -582l-36 -55zM600 -30q-161 0 -277.5 73t-179.5 202t-63 296q0 170 64 298t181 199.5t275 71.5q162 0 279 -72.5t179.5 -201t62.5 -295.5q0 -169 -63 -297.5t-180 -201
t-278 -72.5zM600 139q168 0 250 112t82 290q0 183 -83 291.5t-249 108.5q-113 0 -186 -51t-109 -141t-36 -208q0 -182 84 -292t247 -110z" />
    <glyph glyph-name="ugrave" unicode="&#xf9;" horiz-adv-x="1209" 
d="M535 1245l-131 330h145l131 -330h-145zM550 -28q-104 0 -178.5 33t-123.5 88t-77 122t-39.5 137t-11.5 131v597h180v-541q0 -76 14 -147t47.5 -128t90 -90t141.5 -33q67 0 122 23t94 68.5t60 115.5t21 163l117 -36q0 -156 -56.5 -269t-159 -173.5t-241.5 -60.5zM910 0
v289h-20v791h179v-1080h-159z" />
    <glyph glyph-name="uacute" unicode="&#xfa;" horiz-adv-x="1209" 
d="M660 1245h-145l131 330h145zM550 -28q-104 0 -178.5 33t-123.5 88t-77 122t-39.5 137t-11.5 131v597h180v-541q0 -76 14 -147t47.5 -128t90 -90t141.5 -33q67 0 122 23t94 68.5t60 115.5t21 163l117 -36q0 -156 -56.5 -269t-159 -173.5t-241.5 -60.5zM910 0v289h-20v791
h179v-1080h-159z" />
    <glyph glyph-name="ucircumflex" unicode="&#xfb;" horiz-adv-x="1209" 
d="M269 1245l244 285h158l244 -285h-175l-148 175l-148 -175h-175zM550 -28q-104 0 -178.5 33t-123.5 88t-77 122t-39.5 137t-11.5 131v597h180v-541q0 -76 14 -147t47.5 -128t90 -90t141.5 -33q67 0 122 23t94 68.5t60 115.5t21 163l117 -36q0 -156 -56.5 -269t-159 -173.5
t-241.5 -60.5zM910 0v289h-20v791h179v-1080h-159z" />
    <glyph glyph-name="udieresis" unicode="&#xfc;" horiz-adv-x="1209" 
d="M700 1276v180h180v-180h-180zM308 1276v180h180v-180h-180zM550 -28q-104 0 -178.5 33t-123.5 88t-77 122t-39.5 137t-11.5 131v597h180v-541q0 -76 14 -147t47.5 -128t90 -90t141.5 -33q67 0 122 23t94 68.5t60 115.5t21 163l117 -36q0 -156 -56.5 -269t-159 -173.5
t-241.5 -60.5zM910 0v289h-20v791h179v-1080h-159z" />
    <glyph glyph-name="yacute" unicode="&#xfd;" horiz-adv-x="1076" 
d="M615 1245h-145l131 330h145zM290 -480l209 568l3 -168l-472 1160h187l370 -933h-64l347 933h181l-588 -1560h-173z" />
    <glyph glyph-name="thorn" unicode="&#xfe;" horiz-adv-x="1200" 
d="M140 823v617h179v-617h-179zM636 -30q-152 0 -256 75.5t-157.5 205t-53.5 290.5q0 163 53.5 292t158 203t256.5 74q150 0 258.5 -74.5t166.5 -203.5t58 -291t-58 -291t-166.5 -204.5t-259.5 -75.5zM139 -480v1560h159v-795h20v-765h-179zM614 133q107 0 177 54t105 146.5
t35 207.5q0 114 -34.5 206t-106 146t-181.5 54q-105 0 -174 -51.5t-103 -143t-34 -211.5q0 -118 33.5 -210.5t103.5 -145t179 -52.5z" />
    <glyph glyph-name="ydieresis" unicode="&#xff;" horiz-adv-x="1076" 
d="M655 1276v180h180v-180h-180zM263 1276v180h180v-180h-180zM290 -480l209 568l3 -168l-472 1160h187l370 -933h-64l347 933h181l-588 -1560h-173z" />
    <glyph glyph-name="Amacron" unicode="&#x100;" horiz-adv-x="1292" 
d="M391 1680v146h512v-146h-512zM40 0l482 1440h248l482 -1440h-185l-451 1336h56l-447 -1336h-185zM272 337v167h748v-167h-748z" />
    <glyph glyph-name="amacron" unicode="&#x101;" horiz-adv-x="1125" 
d="M349 1320v146h512v-146h-512zM447 -30q-121 0 -202.5 44.5t-123 117.5t-41.5 160q0 85 32.5 147.5t91.5 104t141 65.5q77 21 172.5 36.5t193.5 28.5t183 25l-64 -37q3 144 -57.5 213t-208.5 69q-98 0 -171.5 -44.5t-103.5 -144.5l-169 51q39 142 151 223t295 81
q147 0 252.5 -52.5t151.5 -158.5q23 -50 29 -108.5t6 -122.5v-668h-158v259l37 -24q-61 -131 -170.5 -198t-266.5 -67zM474 119q96 0 166.5 34.5t113.5 91t56 123.5q15 50 16.5 111.5t1.5 94.5l62 -27q-87 -12 -171 -23t-159 -23.5t-135 -29.5q-44 -14 -82.5 -36t-62 -56.5
t-23.5 -85.5q0 -44 22.5 -84t70 -65t124.5 -25z" />
    <glyph glyph-name="Abreve" unicode="&#x102;" horiz-adv-x="1292" 
d="M647 1566q-75 0 -137 37t-99 99t-37 137h144q0 -53 38 -91t91 -38q54 0 91.5 38t37.5 91h144q0 -75 -36.5 -137t-98.5 -99t-138 -37zM40 0l482 1440h248l482 -1440h-185l-451 1336h56l-447 -1336h-185zM272 337v167h748v-167h-748z" />
    <glyph glyph-name="abreve" unicode="&#x103;" horiz-adv-x="1125" 
d="M576 1206q-75 0 -137 37t-99 99t-37 137h144q0 -53 38 -91t91 -38q54 0 91.5 38t37.5 91h144q0 -75 -36.5 -137t-98.5 -99t-138 -37zM447 -30q-121 0 -202.5 44.5t-123 117.5t-41.5 160q0 85 32.5 147.5t91.5 104t141 65.5q77 21 172.5 36.5t193.5 28.5t183 25l-64 -37
q3 144 -57.5 213t-208.5 69q-98 0 -171.5 -44.5t-103.5 -144.5l-169 51q39 142 151 223t295 81q147 0 252.5 -52.5t151.5 -158.5q23 -50 29 -108.5t6 -122.5v-668h-158v259l37 -24q-61 -131 -170.5 -198t-266.5 -67zM474 119q96 0 166.5 34.5t113.5 91t56 123.5
q15 50 16.5 111.5t1.5 94.5l62 -27q-87 -12 -171 -23t-159 -23.5t-135 -29.5q-44 -14 -82.5 -36t-62 -56.5t-23.5 -85.5q0 -44 22.5 -84t70 -65t124.5 -25z" />
    <glyph glyph-name="Aogonek" unicode="&#x104;" horiz-adv-x="1292" 
d="M1078 -481q-56 0 -101 28.5t-71.5 75t-26.5 99.5q0 67 38.5 136.5t103 132t143.5 108.5l88 -99q-61 -35 -112 -82t-82 -96t-31 -89q0 -33 21 -54t49 -21q21 0 43.5 12t42.5 32l72 -90q-34 -45 -81 -69t-96 -24zM40 0l482 1440h248l482 -1440h-185l-451 1336h56
l-447 -1336h-185zM272 337v167h748v-167h-748z" />
    <glyph glyph-name="aogonek" unicode="&#x105;" horiz-adv-x="1125" 
d="M831 -481q-56 0 -101 28.5t-71.5 75t-26.5 99.5q0 67 38.5 136.5t103 132t143.5 108.5l88 -99q-61 -35 -112 -82t-82 -96t-31 -89q0 -33 21 -54t49 -21q21 0 43.5 12t42.5 32l72 -90q-34 -45 -81 -69t-96 -24zM447 -30q-121 0 -202.5 44.5t-123 117.5t-41.5 160
q0 85 32.5 147.5t91.5 104t141 65.5q77 21 172.5 36.5t193.5 28.5t183 25l-64 -37q3 144 -57.5 213t-208.5 69q-98 0 -171.5 -44.5t-103.5 -144.5l-169 51q39 142 151 223t295 81q147 0 252.5 -52.5t151.5 -158.5q23 -50 29 -108.5t6 -122.5v-668h-158v259l37 -24
q-61 -131 -170.5 -198t-266.5 -67zM474 119q96 0 166.5 34.5t113.5 91t56 123.5q15 50 16.5 111.5t1.5 94.5l62 -27q-87 -12 -171 -23t-159 -23.5t-135 -29.5q-44 -14 -82.5 -36t-62 -56.5t-23.5 -85.5q0 -44 22.5 -84t70 -65t124.5 -25z" />
    <glyph glyph-name="Cacute" unicode="&#x106;" horiz-adv-x="1446" 
d="M821 1605h-145l131 330h145zM732 -30q-215 0 -365 95t-228.5 264t-78.5 391t78.5 391t228.5 264t365 95q250 0 411.5 -127t222.5 -342l-181 -48q-44 161 -157 254t-296 93q-161 0 -268 -73t-161 -203.5t-55 -303.5q-1 -172 53 -302.5t162 -204t269 -73.5q183 0 296 93.5
t157 253.5l181 -48q-61 -214 -222.5 -341.5t-411.5 -127.5z" />
    <glyph glyph-name="cacute" unicode="&#x107;" horiz-adv-x="1122" 
d="M679 1245h-145l131 330h145zM595 -30q-164 0 -278.5 73.5t-174.5 202.5t-62 294q2 169 63.5 297.5t176.5 200.5t277 72q171 0 294.5 -84t165.5 -230l-176 -53q-34 94 -110.5 146t-175.5 52q-111 0 -183 -51.5t-107 -142t-36 -207.5q2 -180 83.5 -290.5t242.5 -110.5
q106 0 176 48.5t106 140.5l180 -47q-56 -151 -175 -231t-287 -80z" />
    <glyph glyph-name="Ccircumflex" unicode="&#x108;" horiz-adv-x="1446" 
d="M408 1605l244 285h158l244 -285h-175l-148 175l-148 -175h-175zM732 -30q-215 0 -365 95t-228.5 264t-78.5 391t78.5 391t228.5 264t365 95q250 0 411.5 -127t222.5 -342l-181 -48q-44 161 -157 254t-296 93q-161 0 -268 -73t-161 -203.5t-55 -303.5q-1 -172 53 -302.5
t162 -204t269 -73.5q183 0 296 93.5t157 253.5l181 -48q-61 -214 -222.5 -341.5t-411.5 -127.5z" />
    <glyph glyph-name="ccircumflex" unicode="&#x109;" horiz-adv-x="1122" 
d="M276 1245l244 285h158l244 -285h-175l-148 175l-148 -175h-175zM595 -30q-164 0 -278.5 73.5t-174.5 202.5t-62 294q2 169 63.5 297.5t176.5 200.5t277 72q171 0 294.5 -84t165.5 -230l-176 -53q-34 94 -110.5 146t-175.5 52q-111 0 -183 -51.5t-107 -142t-36 -207.5
q2 -180 83.5 -290.5t242.5 -110.5q106 0 176 48.5t106 140.5l180 -47q-56 -151 -175 -231t-287 -80z" />
    <glyph glyph-name="Cdotaccent" unicode="&#x10a;" horiz-adv-x="1446" 
d="M648 1664v196h196v-196h-196zM732 -30q-215 0 -365 95t-228.5 264t-78.5 391t78.5 391t228.5 264t365 95q250 0 411.5 -127t222.5 -342l-181 -48q-44 161 -157 254t-296 93q-161 0 -268 -73t-161 -203.5t-55 -303.5q-1 -172 53 -302.5t162 -204t269 -73.5q183 0 296 93.5
t157 253.5l181 -48q-61 -214 -222.5 -341.5t-411.5 -127.5z" />
    <glyph glyph-name="cdotaccent" unicode="&#x10b;" horiz-adv-x="1122" 
d="M520 1304v196h196v-196h-196zM595 -30q-164 0 -278.5 73.5t-174.5 202.5t-62 294q2 169 63.5 297.5t176.5 200.5t277 72q171 0 294.5 -84t165.5 -230l-176 -53q-34 94 -110.5 146t-175.5 52q-111 0 -183 -51.5t-107 -142t-36 -207.5q2 -180 83.5 -290.5t242.5 -110.5
q106 0 176 48.5t106 140.5l180 -47q-56 -151 -175 -231t-287 -80z" />
    <glyph glyph-name="Ccaron" unicode="&#x10c;" horiz-adv-x="1446" 
d="M434 1890h175l148 -175l148 175h175l-244 -285h-158zM732 -30q-215 0 -365 95t-228.5 264t-78.5 391t78.5 391t228.5 264t365 95q250 0 411.5 -127t222.5 -342l-181 -48q-44 161 -157 254t-296 93q-161 0 -268 -73t-161 -203.5t-55 -303.5q-1 -172 53 -302.5t162 -204
t269 -73.5q183 0 296 93.5t157 253.5l181 -48q-61 -214 -222.5 -341.5t-411.5 -127.5z" />
    <glyph glyph-name="ccaron" unicode="&#x10d;" horiz-adv-x="1122" 
d="M272 1530h175l148 -175l148 175h175l-244 -285h-158zM595 -30q-164 0 -278.5 73.5t-174.5 202.5t-62 294q2 169 63.5 297.5t176.5 200.5t277 72q171 0 294.5 -84t165.5 -230l-176 -53q-34 94 -110.5 146t-175.5 52q-111 0 -183 -51.5t-107 -142t-36 -207.5
q2 -180 83.5 -290.5t242.5 -110.5q106 0 176 48.5t106 140.5l180 -47q-56 -151 -175 -231t-287 -80z" />
    <glyph glyph-name="Dcaron" unicode="&#x10e;" horiz-adv-x="1362" 
d="M277 1890h175l148 -175l148 175h175l-244 -285h-158zM140 0v1440h444q22 0 77 -1t105 -8q167 -22 279.5 -121.5t169.5 -252.5t57 -337t-57 -337t-169.5 -252.5t-279.5 -121.5q-50 -6 -105.5 -7.5t-76.5 -1.5h-444zM323 170h261q38 0 85 2.5t82 8.5q118 22 191 99t107 192
t34 248q0 136 -34.5 251t-107.5 191t-190 97q-35 7 -83 9t-84 2h-261v-1100z" />
    <glyph glyph-name="dcaron" unicode="&#x10f;" horiz-adv-x="1481" 
d="M564 -30q-151 0 -259 75.5t-166.5 204.5t-58.5 291t58.5 291t166.5 203.5t258 74.5q153 0 257 -74t157.5 -203t53.5 -292q0 -161 -53.5 -290.5t-157.5 -205t-256 -75.5zM586 133q109 0 179 52.5t103.5 145t33.5 210.5q0 120 -33.5 211.5t-102.5 143t-175 51.5
q-110 0 -181.5 -54t-106 -146t-34.5 -206q0 -115 35 -207.5t105.5 -146.5t176.5 -54zM902 0v795h-20v645h179v-1440h-159zM1250 1000l11 83q42 -3 63 16t27 52t2 73h-103v226h196v-256q0 -105 -51.5 -158t-144.5 -36z" />
    <glyph glyph-name="Dcroat" unicode="&#x110;" horiz-adv-x="1355" 
d="M20 647v147h645v-147h-645zM133 0v1440h444q22 0 77 -1t105 -8q167 -22 279.5 -121.5t169.5 -252.5t57 -337t-57 -337t-169.5 -252.5t-279.5 -121.5q-50 -6 -105.5 -7.5t-76.5 -1.5h-444zM316 170h261q38 0 85 2.5t82 8.5q118 22 191 99t107 192t34 248q0 136 -34.5 251
t-107.5 191t-190 97q-35 7 -83 9t-84 2h-261v-1100z" />
    <glyph glyph-name="dcroat" unicode="&#x111;" horiz-adv-x="1201" 
d="M685 1180v146h512v-146h-512zM564 -30q-151 0 -259 75.5t-166.5 204.5t-58.5 291t58.5 291t166.5 203.5t258 74.5q153 0 257 -74t157.5 -203t53.5 -292q0 -161 -53.5 -290.5t-157.5 -205t-256 -75.5zM586 133q109 0 179 52.5t103.5 145t33.5 210.5q0 120 -33.5 211.5
t-102.5 143t-175 51.5q-110 0 -181.5 -54t-106 -146t-34.5 -206q0 -115 35 -207.5t105.5 -146.5t176.5 -54zM902 0v795h-20v645h179v-1440h-159z" />
    <glyph glyph-name="Emacron" unicode="&#x112;" horiz-adv-x="1150" 
d="M344 1680v146h512v-146h-512zM140 0v1440h910v-169h-732v-451h612v-169h-612v-482h732v-169h-910z" />
    <glyph glyph-name="emacron" unicode="&#x113;" horiz-adv-x="1181" 
d="M364 1320v146h512v-146h-512zM608 -30q-159 0 -277.5 70.5t-184.5 197t-66 295.5q0 177 65 306.5t181.5 200t273.5 70.5q163 0 277.5 -75t172 -214t49.5 -331h-180v64q-3 199 -81 297.5t-232 98.5q-165 0 -251 -106t-86 -304q0 -191 86 -296t245 -105q107 0 186 49
t124 141l171 -59q-63 -143 -189.5 -221.5t-283.5 -78.5zM209 490v143h798v-143h-798z" />
    <glyph glyph-name="Edotaccent" unicode="&#x116;" horiz-adv-x="1150" 
d="M501 1664v196h196v-196h-196zM140 0v1440h910v-169h-732v-451h612v-169h-612v-482h732v-169h-910z" />
    <glyph glyph-name="edotaccent" unicode="&#x117;" horiz-adv-x="1181" 
d="M503 1304v196h196v-196h-196zM608 -30q-159 0 -277.5 70.5t-184.5 197t-66 295.5q0 177 65 306.5t181.5 200t273.5 70.5q163 0 277.5 -75t172 -214t49.5 -331h-180v64q-3 199 -81 297.5t-232 98.5q-165 0 -251 -106t-86 -304q0 -191 86 -296t245 -105q107 0 186 49
t124 141l171 -59q-63 -143 -189.5 -221.5t-283.5 -78.5zM209 490v143h798v-143h-798z" />
    <glyph glyph-name="Eogonek" unicode="&#x118;" horiz-adv-x="1150" 
d="M876 -481q-56 0 -101 28.5t-71.5 75t-26.5 99.5q0 67 38.5 136.5t103 132t143.5 108.5l88 -99q-61 -35 -112 -82t-82 -96t-31 -89q0 -33 21 -54t49 -21q21 0 43.5 12t42.5 32l72 -90q-34 -45 -81 -69t-96 -24zM140 0v1440h910v-169h-732v-451h612v-169h-612v-482h732
v-169h-910z" />
    <glyph glyph-name="eogonek" unicode="&#x119;" horiz-adv-x="1181" 
d="M915 -462q-62 -26 -126.5 -10.5t-105.5 62.5q-37 43 -46.5 103.5t12.5 121.5q16 45 42.5 89t51.5 80q17 25 51 66t71 89.5t64 94.5l127 -11q-22 -41 -50.5 -85t-57 -84.5t-52 -73.5t-36.5 -54q-26 -42 -46.5 -82.5t-30.5 -74.5q-5 -18 -5 -42.5t17 -42.5q30 -30 70 -18.5
t70 37.5l73 -91q-16 -22 -39.5 -41t-53.5 -33zM608 -30q-159 0 -277.5 70.5t-184.5 197t-66 295.5q0 177 65 306.5t181.5 200t273.5 70.5q163 0 277.5 -75t172 -214t49.5 -331h-180v64q-3 199 -81 297.5t-232 98.5q-165 0 -251 -106t-86 -304q0 -191 86 -296t245 -105
q107 0 186 49t124 141l171 -59q-63 -143 -189.5 -221.5t-283.5 -78.5zM209 490v143h798v-143h-798z" />
    <glyph glyph-name="Ecaron" unicode="&#x11a;" horiz-adv-x="1150" 
d="M278 1890h175l148 -175l148 175h175l-244 -285h-158zM140 0v1440h910v-169h-732v-451h612v-169h-612v-482h732v-169h-910z" />
    <glyph glyph-name="ecaron" unicode="&#x11b;" horiz-adv-x="1181" 
d="M275 1530h175l148 -175l148 175h175l-244 -285h-158zM608 -30q-159 0 -277.5 70.5t-184.5 197t-66 295.5q0 177 65 306.5t181.5 200t273.5 70.5q163 0 277.5 -75t172 -214t49.5 -331h-180v64q-3 199 -81 297.5t-232 98.5q-165 0 -251 -106t-86 -304q0 -191 86 -296
t245 -105q107 0 186 49t124 141l171 -59q-63 -143 -189.5 -221.5t-283.5 -78.5zM209 490v143h798v-143h-798z" />
    <glyph glyph-name="Gcircumflex" unicode="&#x11c;" horiz-adv-x="1428" 
d="M387 1605l244 285h158l244 -285h-175l-148 175l-148 -175h-175zM723 -30q-148 0 -270 52t-210 149.5t-135.5 236t-47.5 312.5q0 230 82 398t231 259.5t350 91.5q242 0 390 -112.5t204 -307.5l-180 -37q-45 131 -148 209t-257 78q-161 1 -267.5 -71.5t-160.5 -203.5
t-55 -304q-1 -172 53 -302t161.5 -203.5t268.5 -74.5q139 -1 234 53t147 156t63 245h-306v147h494q3 -20 3.5 -47.5t0.5 -37.5q0 -197 -73.5 -352.5t-217 -244.5t-354.5 -89z" />
    <glyph glyph-name="gcircumflex" unicode="&#x11d;" horiz-adv-x="1200" 
d="M268 1245l244 285h158l244 -285h-175l-148 175l-148 -175h-175zM577 -510q-85 0 -166 26t-148.5 78.5t-112.5 132.5l163 86q40 -79 113.5 -115t151.5 -36q103 0 171 37.5t100.5 111.5t31.5 184v295h21v790h158v-1087q0 -44 -2.5 -85t-10.5 -81q-21 -115 -83 -189.5
t-160 -111t-227 -36.5zM564 -30q-151 0 -259 75.5t-166.5 204.5t-58.5 291t58.5 291t166.5 203.5t258 74.5q153 0 257 -74t157.5 -203t53.5 -292q0 -161 -53.5 -290.5t-157.5 -205t-256 -75.5zM586 133q109 0 179 52.5t103.5 145t33.5 210.5q0 120 -33.5 211.5t-102.5 143
t-175 51.5q-110 0 -181.5 -54t-106 -146t-34.5 -206q0 -115 35 -207.5t105.5 -146.5t176.5 -54z" />
    <glyph glyph-name="Gbreve" unicode="&#x11e;" horiz-adv-x="1428" 
d="M729 1566q-76 0 -137.5 37t-98.5 99t-37 137h144q0 -53 38 -91t91 -38q54 0 91.5 38t37.5 91h144q0 -75 -37 -137t-99 -99t-137 -37zM723 -30q-148 0 -270 52t-210 149.5t-135.5 236t-47.5 312.5q0 230 82 398t231 259.5t350 91.5q242 0 390 -112.5t204 -307.5l-180 -37
q-45 131 -148 209t-257 78q-161 1 -267.5 -71.5t-160.5 -203.5t-55 -304q-1 -172 53 -302t161.5 -203.5t268.5 -74.5q139 -1 234 53t147 156t63 245h-306v147h494q3 -20 3.5 -47.5t0.5 -37.5q0 -197 -73.5 -352.5t-217 -244.5t-354.5 -89z" />
    <glyph glyph-name="gbreve" unicode="&#x11f;" horiz-adv-x="1200" 
d="M647 1206q-75 0 -137 37t-99 99t-37 137h144q0 -53 38 -91t91 -38q54 0 91.5 38t37.5 91h144q0 -75 -36.5 -137t-98.5 -99t-138 -37zM577 -510q-85 0 -166 26t-148.5 78.5t-112.5 132.5l163 86q40 -79 113.5 -115t151.5 -36q103 0 171 37.5t100.5 111.5t31.5 184v295h21
v790h158v-1087q0 -44 -2.5 -85t-10.5 -81q-21 -115 -83 -189.5t-160 -111t-227 -36.5zM564 -30q-151 0 -259 75.5t-166.5 204.5t-58.5 291t58.5 291t166.5 203.5t258 74.5q153 0 257 -74t157.5 -203t53.5 -292q0 -161 -53.5 -290.5t-157.5 -205t-256 -75.5zM586 133
q109 0 179 52.5t103.5 145t33.5 210.5q0 120 -33.5 211.5t-102.5 143t-175 51.5q-110 0 -181.5 -54t-106 -146t-34.5 -206q0 -115 35 -207.5t105.5 -146.5t176.5 -54z" />
    <glyph glyph-name="Gdotaccent" unicode="&#x120;" horiz-adv-x="1428" 
d="M646 1664v196h196v-196h-196zM723 -30q-148 0 -270 52t-210 149.5t-135.5 236t-47.5 312.5q0 230 82 398t231 259.5t350 91.5q242 0 390 -112.5t204 -307.5l-180 -37q-45 131 -148 209t-257 78q-161 1 -267.5 -71.5t-160.5 -203.5t-55 -304q-1 -172 53 -302t161.5 -203.5
t268.5 -74.5q139 -1 234 53t147 156t63 245h-306v147h494q3 -20 3.5 -47.5t0.5 -37.5q0 -197 -73.5 -352.5t-217 -244.5t-354.5 -89z" />
    <glyph glyph-name="gdotaccent" unicode="&#x121;" horiz-adv-x="1200" 
d="M541 1304v196h196v-196h-196zM577 -510q-85 0 -166 26t-148.5 78.5t-112.5 132.5l163 86q40 -79 113.5 -115t151.5 -36q103 0 171 37.5t100.5 111.5t31.5 184v295h21v790h158v-1087q0 -44 -2.5 -85t-10.5 -81q-21 -115 -83 -189.5t-160 -111t-227 -36.5zM564 -30
q-151 0 -259 75.5t-166.5 204.5t-58.5 291t58.5 291t166.5 203.5t258 74.5q153 0 257 -74t157.5 -203t53.5 -292q0 -161 -53.5 -290.5t-157.5 -205t-256 -75.5zM586 133q109 0 179 52.5t103.5 145t33.5 210.5q0 120 -33.5 211.5t-102.5 143t-175 51.5q-110 0 -181.5 -54
t-106 -146t-34.5 -206q0 -115 35 -207.5t105.5 -146.5t176.5 -54z" />
    <glyph glyph-name="uni0122" unicode="&#x122;" horiz-adv-x="1428" 
d="M650 -570v87q13 0 38 7t45.5 27.5t18.5 59.5h-102v188h188v-188q0 -87 -56.5 -134t-131.5 -47zM723 -30q-148 0 -270 52t-210 149.5t-135.5 236t-47.5 312.5q0 230 82 398t231 259.5t350 91.5q242 0 390 -112.5t204 -307.5l-180 -37q-45 131 -148 209t-257 78
q-161 1 -267.5 -71.5t-160.5 -203.5t-55 -304q-1 -172 53 -302t161.5 -203.5t268.5 -74.5q139 -1 234 53t147 156t63 245h-306v147h494q3 -20 3.5 -47.5t0.5 -37.5q0 -197 -73.5 -352.5t-217 -244.5t-354.5 -89z" />
    <glyph glyph-name="uni0123" unicode="&#x123;" horiz-adv-x="1200" 
d="M710 1673v-87q-13 0 -38 -7t-45 -27t-19 -60h102v-188h-188v188q0 88 56.5 134.5t131.5 46.5zM577 -510q-85 0 -166 26t-148.5 78.5t-112.5 132.5l163 86q40 -79 113.5 -115t151.5 -36q103 0 171 37.5t100.5 111.5t31.5 184v295h21v790h158v-1087q0 -44 -2.5 -85
t-10.5 -81q-21 -115 -83 -189.5t-160 -111t-227 -36.5zM564 -30q-151 0 -259 75.5t-166.5 204.5t-58.5 291t58.5 291t166.5 203.5t258 74.5q153 0 257 -74t157.5 -203t53.5 -292q0 -161 -53.5 -290.5t-157.5 -205t-256 -75.5zM586 133q109 0 179 52.5t103.5 145t33.5 210.5
q0 120 -33.5 211.5t-102.5 143t-175 51.5q-110 0 -181.5 -54t-106 -146t-34.5 -206q0 -115 35 -207.5t105.5 -146.5t176.5 -54z" />
    <glyph glyph-name="Hcircumflex" unicode="&#x124;" horiz-adv-x="1394" 
d="M372 1605l244 285h158l244 -285h-175l-148 175l-148 -175h-175zM140 0v1440h178v-635h758v635h178v-1440h-178v636h-758v-636h-178z" />
    <glyph glyph-name="hcircumflex" unicode="&#x125;" horiz-adv-x="1209" 
d="M-106 1605l244 285h158l244 -285h-175l-148 175l-148 -175h-175zM909 0v541q0 77 -13.5 148t-47 127.5t-90 89.5t-142.5 33q-67 0 -121.5 -22.5t-93.5 -68.5t-60.5 -115.5t-21.5 -163.5l-117 36q0 157 56.5 269.5t159 173t241.5 60.5q105 0 179 -33t123 -87.5t77 -122
t39.5 -137t11.5 -131.5v-597h-180zM139 0v1440h160v-795h20v-645h-180z" />
    <glyph glyph-name="Hbar" unicode="&#x126;" horiz-adv-x="1434" 
d="M160 0v1440h178v-635h758v635h178v-1440h-178v636h-758v-636h-178zM20 992v169h1394v-169h-1394z" />
    <glyph glyph-name="hbar" unicode="&#x127;" horiz-adv-x="1209" 
d="M18 1180v146h512v-146h-512zM909 0v541q0 77 -13.5 148t-47 127.5t-90 89.5t-142.5 33q-67 0 -121.5 -22.5t-93.5 -68.5t-60.5 -115.5t-21.5 -163.5l-117 36q0 157 56.5 269.5t159 173t241.5 60.5q105 0 179 -33t123 -87.5t77 -122t39.5 -137t11.5 -131.5v-597h-180z
M139 0v1440h160v-795h20v-645h-180z" />
    <glyph glyph-name="Itilde" unicode="&#x128;" 
d="M405 1608q-44 0 -85 18.5t-79.5 42.5t-72.5 42.5t-63 18.5q-37 0 -48 -31.5t1 -70.5h-120q-25 100 16 169.5t139 69.5q44 0 85.5 -18.5t79.5 -42.5t72 -42.5t64 -18.5q34 0 47 31t0 73h120q25 -98 -16 -169.5t-140 -71.5zM160 0v1440h178v-1440h-178z" />
    <glyph glyph-name="itilde" unicode="&#x129;" 
d="M405 1248q-44 0 -85 18.5t-79.5 42.5t-72.5 42.5t-63 18.5q-37 0 -48 -31.5t1 -70.5h-120q-25 100 16 169.5t139 69.5q44 0 85.5 -18.5t79.5 -42.5t72 -42.5t64 -18.5q34 0 47 31t0 73h120q25 -98 -16 -169.5t-140 -71.5zM160 0v1080h178v-1080h-178z" />
    <glyph glyph-name="Imacron" unicode="&#x12a;" 
d="M-7 1680v146h512v-146h-512zM160 0v1440h178v-1440h-178z" />
    <glyph glyph-name="imacron" unicode="&#x12b;" 
d="M-7 1320v146h512v-146h-512zM160 0v1080h178v-1080h-178z" />
    <glyph glyph-name="Iogonek" unicode="&#x12e;" 
d="M164 -481q-56 0 -101 28.5t-71.5 75t-26.5 99.5q0 67 38.5 136.5t103 132t143.5 108.5l88 -99q-61 -35 -112 -82t-82 -96t-31 -89q0 -33 21 -54t49 -21q21 0 43.5 12t42.5 32l72 -90q-34 -45 -81 -69t-96 -24zM160 0v1440h178v-1440h-178z" />
    <glyph glyph-name="iogonek" unicode="&#x12f;" 
d="M164 -481q-56 0 -101 28.5t-71.5 75t-26.5 99.5q0 67 38.5 136.5t103 132t143.5 108.5l88 -99q-61 -35 -112 -82t-82 -96t-31 -89q0 -33 21 -54t49 -21q21 0 43.5 12t42.5 32l72 -90q-34 -45 -81 -69t-96 -24zM160 1271v184h178v-184h-178zM160 0v1080h178v-1080h-178z
" />
    <glyph glyph-name="Idotaccent" unicode="&#x130;" 
d="M151 1664v196h196v-196h-196zM160 0v1440h178v-1440h-178z" />
    <glyph glyph-name="dotlessi" unicode="&#x131;" 
d="M160 0v1080h178v-1080h-178z" />
    <glyph glyph-name="Jcircumflex" unicode="&#x134;" horiz-adv-x="952" 
d="M376 1605l244 285h158l244 -285h-175l-148 175l-148 -175h-175zM400 -29q-151 0 -256 82t-144 220l177 42q16 -73 77.5 -124t141.5 -51q52 0 106 25.5t83 83.5q20 40 23 88.5t3 114.5v988h180v-988q0 -62 -0.5 -111t-10 -93.5t-36.5 -90.5q-54 -95 -144.5 -140.5
t-199.5 -45.5z" />
    <glyph glyph-name="jcircumflex" unicode="&#x135;" horiz-adv-x="526" 
d="M-20 -480v170h58q78 0 119 39t41 124v1227h178v-1288q0 -133 -68.5 -202.5t-202.5 -69.5h-125zM-38 1245l244 285h158l244 -285h-175l-148 175l-148 -175h-175z" />
    <glyph glyph-name="uni0136" unicode="&#x136;" horiz-adv-x="1223" 
d="M555 -570v87q13 0 38 7t45.5 27.5t18.5 59.5h-102v188h188v-188q0 -87 -56.5 -134t-131.5 -47zM140 0v1440h178v-676l630 676h224l-654 -699l705 -741h-230l-675 704v-704h-178z" />
    <glyph glyph-name="uni0137" unicode="&#x137;" horiz-adv-x="1020" 
d="M468 -570v87q13 0 38 7t45.5 27.5t18.5 59.5h-102v188h188v-188q0 -87 -56.5 -134t-131.5 -47zM139 0l1 1440h180v-880l453 520h231l-477 -540l533 -540h-249l-491 520v-520h-181z" />
    <glyph glyph-name="Lacute" unicode="&#x139;" horiz-adv-x="1036" 
d="M325 1605h-145l131 330h145zM160 0v1440h178v-1271h668v-169h-846z" />
    <glyph glyph-name="lacute" unicode="&#x13a;" 
d="M325 1605h-145l131 330h145zM160 0v1470h178v-1470h-178z" />
    <glyph glyph-name="uni013B" unicode="&#x13b;" horiz-adv-x="1036" 
d="M489 -570v87q13 0 38 7t45.5 27.5t18.5 59.5h-102v188h188v-188q0 -87 -56.5 -134t-131.5 -47zM160 0v1440h178v-1271h668v-169h-846z" />
    <glyph glyph-name="uni013C" unicode="&#x13c;" 
d="M155 -570v87q13 0 38 7t45.5 27.5t18.5 59.5h-102v188h188v-188q0 -87 -56.5 -134t-131.5 -47zM160 0v1470h178v-1470h-178z" />
    <glyph glyph-name="Lcaron" unicode="&#x13d;" horiz-adv-x="1036" 
d="M160 0v1440h178v-1271h668v-169h-846zM645 1000l11 83q42 -3 63 16t27 52t2 73h-103v226h196v-256q0 -105 -51.5 -158t-144.5 -36z" />
    <glyph glyph-name="lcaron" unicode="&#x13e;" horiz-adv-x="734" 
d="M160 0v1470h178v-1470h-178zM503 1000l11 83q42 -3 63 16t27 52t2 73h-103v226h196v-256q0 -105 -51.5 -158t-144.5 -36z" />
    <glyph glyph-name="Lslash" unicode="&#x141;" horiz-adv-x="1056" 
d="M77 386v197l623 357v-196zM180 0v1440h178v-1271h668v-169h-846z" />
    <glyph glyph-name="lslash" unicode="&#x142;" horiz-adv-x="767" 
d="M72 458v197l623 357v-196zM295 0v1470h178v-1470h-178z" />
    <glyph glyph-name="Nacute" unicode="&#x143;" horiz-adv-x="1391" 
d="M786 1605h-145l131 330h145zM140 0v1440h180l751 -1125v1125h180v-1440h-180l-751 1126v-1126h-180z" />
    <glyph glyph-name="nacute" unicode="&#x144;" horiz-adv-x="1209" 
d="M697 1245h-145l131 330h145zM909 0v541q0 77 -13.5 148t-47 127.5t-90 89.5t-142.5 33q-67 0 -121.5 -22.5t-93.5 -68.5t-60.5 -115.5t-21.5 -163.5l-117 36q0 157 56.5 269.5t159 173t241.5 60.5q105 0 179 -33t123 -87.5t77 -122t39.5 -137t11.5 -131.5v-597h-180z
M139 0v1080h160v-289h20v-791h-180z" />
    <glyph glyph-name="uni0145" unicode="&#x145;" horiz-adv-x="1391" 
d="M622 -570v87q13 0 38 7t45.5 27.5t18.5 59.5h-102v188h188v-188q0 -87 -56.5 -134t-131.5 -47zM140 0v1440h180l751 -1125v1125h180v-1440h-180l-751 1126v-1126h-180z" />
    <glyph glyph-name="uni0146" unicode="&#x146;" horiz-adv-x="1209" 
d="M524 -570v87q13 0 38 7t45.5 27.5t18.5 59.5h-102v188h188v-188q0 -87 -56.5 -134t-131.5 -47zM909 0v541q0 77 -13.5 148t-47 127.5t-90 89.5t-142.5 33q-67 0 -121.5 -22.5t-93.5 -68.5t-60.5 -115.5t-21.5 -163.5l-117 36q0 157 56.5 269.5t159 173t241.5 60.5
q105 0 179 -33t123 -87.5t77 -122t39.5 -137t11.5 -131.5v-597h-180zM139 0v1080h160v-289h20v-791h-180z" />
    <glyph glyph-name="Ncaron" unicode="&#x147;" horiz-adv-x="1391" 
d="M395 1890h175l148 -175l148 175h175l-244 -285h-158zM140 0v1440h180l751 -1125v1125h180v-1440h-180l-751 1126v-1126h-180z" />
    <glyph glyph-name="ncaron" unicode="&#x148;" horiz-adv-x="1209" 
d="M283 1530h175l148 -175l148 175h175l-244 -285h-158zM909 0v541q0 77 -13.5 148t-47 127.5t-90 89.5t-142.5 33q-67 0 -121.5 -22.5t-93.5 -68.5t-60.5 -115.5t-21.5 -163.5l-117 36q0 157 56.5 269.5t159 173t241.5 60.5q105 0 179 -33t123 -87.5t77 -122t39.5 -137
t11.5 -131.5v-597h-180zM139 0v1080h160v-289h20v-791h-180z" />
    <glyph glyph-name="Eng" unicode="&#x14a;" horiz-adv-x="1391" 
d="M1071 1440h180v-1623q0 -119 -55 -177t-171 -58q-29 0 -59 3.5t-62 11.5v141q28 -3 43 -4.5t28 -1.5q65 0 93.5 30t28.5 104q0 49 -17.5 97.5t-62.5 118.5l-697 1044v-1126h-180v1440h180l751 -1125v1125z" />
    <glyph glyph-name="eng" unicode="&#x14b;" horiz-adv-x="1209" 
d="M932 -412q-57 -9 -102.5 -5t-87.5 14v136q36 -4 66.5 -3t53 14.5t35 45.5t12.5 89v124h180v-186q0 -101 -42.5 -157.5t-114.5 -71.5zM909 0v541q0 77 -13.5 148t-47 127.5t-90 89.5t-142.5 33q-67 0 -121.5 -22.5t-93.5 -68.5t-60.5 -115.5t-21.5 -163.5l-117 36
q0 157 56.5 269.5t159 173t241.5 60.5q105 0 179 -33t123 -87.5t77 -122t39.5 -137t11.5 -131.5v-597h-180zM139 0v1080h160v-289h20v-791h-180z" />
    <glyph glyph-name="Omacron" unicode="&#x14c;" horiz-adv-x="1464" 
d="M476 1680v146h512v-146h-512zM732 -30q-215 0 -365 95t-228.5 264t-78.5 391t78.5 391t228.5 264t365 95q216 0 366 -95t228 -264t78 -391t-78 -391t-228 -264t-366 -95zM732 140q161 -1 268.5 72.5t161 204.5t53.5 303q0 173 -53.5 303t-161 203t-268.5 74t-267.5 -72
t-160.5 -204t-55 -304q-1 -172 53 -302t161.5 -203.5t268.5 -74.5z" />
    <glyph glyph-name="omacron" unicode="&#x14d;" horiz-adv-x="1201" 
d="M345 1320v146h512v-146h-512zM600 -30q-161 0 -277.5 73t-179.5 202t-63 296q0 170 64 298t181 199.5t275 71.5q162 0 279 -72.5t179.5 -201t62.5 -295.5q0 -169 -63 -297.5t-180 -201t-278 -72.5zM600 139q168 0 250 112t82 290q0 183 -83 291.5t-249 108.5
q-113 0 -186 -51t-109 -141t-36 -208q0 -182 84 -292t247 -110z" />
    <glyph glyph-name="Ohungarumlaut" unicode="&#x150;" horiz-adv-x="1464" 
d="M990 1605h-145l131 330h145zM603 1605h-145l131 330h145zM732 -30q-215 0 -365 95t-228.5 264t-78.5 391t78.5 391t228.5 264t365 95q216 0 366 -95t228 -264t78 -391t-78 -391t-228 -264t-366 -95zM732 140q161 -1 268.5 72.5t161 204.5t53.5 303q0 173 -53.5 303
t-161 203t-268.5 74t-267.5 -72t-160.5 -204t-55 -304q-1 -172 53 -302t161.5 -203.5t268.5 -74.5z" />
    <glyph glyph-name="ohungarumlaut" unicode="&#x151;" horiz-adv-x="1201" 
d="M858 1245h-145l131 330h145zM471 1245h-145l131 330h145zM600 -30q-161 0 -277.5 73t-179.5 202t-63 296q0 170 64 298t181 199.5t275 71.5q162 0 279 -72.5t179.5 -201t62.5 -295.5q0 -169 -63 -297.5t-180 -201t-278 -72.5zM600 139q168 0 250 112t82 290
q0 183 -83 291.5t-249 108.5q-113 0 -186 -51t-109 -141t-36 -208q0 -182 84 -292t247 -110z" />
    <glyph glyph-name="OE" unicode="&#x152;" horiz-adv-x="2235" 
d="M732 -30q-215 0 -365 95t-228.5 264t-78.5 391t78.5 391t228.5 264t365 95q216 0 366 -95t228 -264t78 -391t-78 -391t-228 -264t-366 -95zM732 140q161 -1 268.5 72.5t161 204.5t53.5 303q0 173 -53.5 303t-161 203t-268.5 74t-267.5 -72t-160.5 -204t-55 -304
q-1 -172 53 -302t161.5 -203.5t268.5 -74.5zM1225 0v1440h910v-169h-732v-451h612v-169h-612v-482h732v-169h-910z" />
    <glyph glyph-name="oe" unicode="&#x153;" horiz-adv-x="2034" 
d="M1461 -30q-159 0 -277.5 70.5t-184.5 197t-66 295.5q0 177 65 306.5t181.5 200t273.5 70.5q163 0 277.5 -75t172 -214t49.5 -331h-180v64q-3 199 -81 297.5t-232 98.5q-165 0 -251 -106t-86 -304q0 -191 86 -296t245 -105q107 0 186 49t124 141l171 -59
q-63 -143 -189.5 -221.5t-283.5 -78.5zM1062 490v143h798v-143h-798zM600 -30q-161 0 -277.5 73t-179.5 202t-63 296q0 170 64 298t181 199.5t275 71.5q162 0 279 -72.5t179.5 -201t62.5 -295.5q0 -169 -63 -297.5t-180 -201t-278 -72.5zM600 139q168 0 250 112t82 290
q0 183 -83 291.5t-249 108.5q-113 0 -186 -51t-109 -141t-36 -208q0 -182 84 -292t247 -110z" />
    <glyph glyph-name="Racute" unicode="&#x154;" horiz-adv-x="1281" 
d="M670 1605h-145l131 330h145zM140 0v1440h569q21 0 50 -1.5t56 -6.5q117 -18 196.5 -80t119.5 -156.5t40 -209.5q0 -167 -87 -289.5t-255 -153.5l-68 -11h-443v-532h-178zM997 0l-284 586l176 54l312 -640h-204zM318 701h385q19 0 43.5 2t46.5 7q69 16 112.5 58.5
t63.5 100t20 117.5t-20 117.5t-63.5 100.5t-112.5 58q-22 6 -46.5 7.5t-43.5 1.5h-385v-570z" />
    <glyph glyph-name="racute" unicode="&#x155;" horiz-adv-x="747" 
d="M425 1245h-145l131 330h145zM140 0v1080h159v-261l-26 34q19 50 49.5 92t68.5 69q42 34 95 52t108 21.5t103 -7.5v-167q-56 15 -123 8t-124 -49q-52 -37 -80.5 -90t-39.5 -114.5t-11 -125.5v-542h-179z" />
    <glyph glyph-name="uni0156" unicode="&#x156;" horiz-adv-x="1281" 
d="M536 -570v87q13 0 38 7t45.5 27.5t18.5 59.5h-102v188h188v-188q0 -87 -56.5 -134t-131.5 -47zM140 0v1440h569q21 0 50 -1.5t56 -6.5q117 -18 196.5 -80t119.5 -156.5t40 -209.5q0 -167 -87 -289.5t-255 -153.5l-68 -11h-443v-532h-178zM997 0l-284 586l176 54l312 -640
h-204zM318 701h385q19 0 43.5 2t46.5 7q69 16 112.5 58.5t63.5 100t20 117.5t-20 117.5t-63.5 100.5t-112.5 58q-22 6 -46.5 7.5t-43.5 1.5h-385v-570z" />
    <glyph glyph-name="uni0157" unicode="&#x157;" horiz-adv-x="747" 
d="M136 -570v87q13 0 38 7t45.5 27.5t18.5 59.5h-102v188h188v-188q0 -87 -56.5 -134t-131.5 -47zM140 0v1080h159v-261l-26 34q19 50 49.5 92t68.5 69q42 34 95 52t108 21.5t103 -7.5v-167q-56 15 -123 8t-124 -49q-52 -37 -80.5 -90t-39.5 -114.5t-11 -125.5v-542h-179z
" />
    <glyph glyph-name="Rcaron" unicode="&#x158;" horiz-adv-x="1281" 
d="M264 1890h175l148 -175l148 175h175l-244 -285h-158zM140 0v1440h569q21 0 50 -1.5t56 -6.5q117 -18 196.5 -80t119.5 -156.5t40 -209.5q0 -167 -87 -289.5t-255 -153.5l-68 -11h-443v-532h-178zM997 0l-284 586l176 54l312 -640h-204zM318 701h385q19 0 43.5 2t46.5 7
q69 16 112.5 58.5t63.5 100t20 117.5t-20 117.5t-63.5 100.5t-112.5 58q-22 6 -46.5 7.5t-43.5 1.5h-385v-570z" />
    <glyph glyph-name="rcaron" unicode="&#x159;" horiz-adv-x="747" 
d="M94 1530h175l148 -175l148 175h175l-244 -285h-158zM140 0v1080h159v-261l-26 34q19 50 49.5 92t68.5 69q42 34 95 52t108 21.5t103 -7.5v-167q-56 15 -123 8t-124 -49q-52 -37 -80.5 -90t-39.5 -114.5t-11 -125.5v-542h-179z" />
    <glyph glyph-name="Sacute" unicode="&#x15a;" horiz-adv-x="1260" 
d="M713 1605h-145l131 330h145zM651 -30q-153 0 -275.5 52t-202 148.5t-103.5 228.5l184 29q35 -136 145.5 -212.5t260.5 -76.5q97 0 175.5 30.5t124.5 87.5t46 135q0 48 -16.5 82.5t-45 59t-64.5 41.5t-75 28l-367 109q-60 18 -116 45.5t-100 69t-70 100t-26 138.5
q0 128 66.5 218.5t180.5 138.5t257 47q145 -1 259.5 -51.5t190 -144.5t101.5 -225l-189 -33q-15 88 -66.5 151.5t-128.5 98t-169 35.5q-88 1 -159 -28t-113 -80.5t-42 -118.5q0 -66 38 -106.5t93.5 -64t108.5 -38.5l274 -79q47 -13 108.5 -36t119.5 -64.5t96 -110t38 -172.5
t-41.5 -185t-115.5 -135.5t-172 -83t-210 -28.5z" />
    <glyph glyph-name="sacute" unicode="&#x15b;" horiz-adv-x="1061" 
d="M606 1245h-145l131 330h145zM548 -29q-193 0 -316.5 84.5t-151.5 236.5l182 29q22 -88 101 -139.5t196 -51.5q111 0 174 46t63 125q0 46 -21 74.5t-86.5 53.5t-197.5 60q-143 38 -225 79t-117 95t-35 131q0 95 52 166.5t145.5 110.5t217.5 39q123 0 220 -39t156.5 -110.5
t70.5 -166.5l-182 -33q-13 87 -83.5 137t-181.5 53q-105 4 -170.5 -37t-65.5 -111q0 -39 24.5 -67t91 -53t193.5 -57q143 -36 225.5 -78.5t117.5 -100t35 -141.5q0 -156 -115 -245.5t-317 -89.5z" />
    <glyph glyph-name="Scircumflex" unicode="&#x15c;" horiz-adv-x="1260" 
d="M323 1605l244 285h158l244 -285h-175l-148 175l-148 -175h-175zM651 -30q-153 0 -275.5 52t-202 148.5t-103.5 228.5l184 29q35 -136 145.5 -212.5t260.5 -76.5q97 0 175.5 30.5t124.5 87.5t46 135q0 48 -16.5 82.5t-45 59t-64.5 41.5t-75 28l-367 109q-60 18 -116 45.5
t-100 69t-70 100t-26 138.5q0 128 66.5 218.5t180.5 138.5t257 47q145 -1 259.5 -51.5t190 -144.5t101.5 -225l-189 -33q-15 88 -66.5 151.5t-128.5 98t-169 35.5q-88 1 -159 -28t-113 -80.5t-42 -118.5q0 -66 38 -106.5t93.5 -64t108.5 -38.5l274 -79q47 -13 108.5 -36
t119.5 -64.5t96 -110t38 -172.5t-41.5 -185t-115.5 -135.5t-172 -83t-210 -28.5z" />
    <glyph glyph-name="scircumflex" unicode="&#x15d;" horiz-adv-x="1061" 
d="M226 1245l244 285h158l244 -285h-175l-148 175l-148 -175h-175zM548 -29q-193 0 -316.5 84.5t-151.5 236.5l182 29q22 -88 101 -139.5t196 -51.5q111 0 174 46t63 125q0 46 -21 74.5t-86.5 53.5t-197.5 60q-143 38 -225 79t-117 95t-35 131q0 95 52 166.5t145.5 110.5
t217.5 39q123 0 220 -39t156.5 -110.5t70.5 -166.5l-182 -33q-13 87 -83.5 137t-181.5 53q-105 4 -170.5 -37t-65.5 -111q0 -39 24.5 -67t91 -53t193.5 -57q143 -36 225.5 -78.5t117.5 -100t35 -141.5q0 -156 -115 -245.5t-317 -89.5z" />
    <glyph glyph-name="Scedilla" unicode="&#x15e;" horiz-adv-x="1260" 
d="M632 -481q-37 0 -69.5 9.5t-61.5 23.5l43 115q45 -16 73 -16q36 0 55.5 22t19.5 48q0 44 -40 63.5t-92 34.5l73 205l121 1l-47 -132q55 -25 88 -68.5t33 -108.5q0 -85 -58 -141t-138 -56zM651 -30q-153 0 -275.5 52t-202 148.5t-103.5 228.5l184 29q35 -136 145.5 -212.5
t260.5 -76.5q97 0 175.5 30.5t124.5 87.5t46 135q0 48 -16.5 82.5t-45 59t-64.5 41.5t-75 28l-367 109q-60 18 -116 45.5t-100 69t-70 100t-26 138.5q0 128 66.5 218.5t180.5 138.5t257 47q145 -1 259.5 -51.5t190 -144.5t101.5 -225l-189 -33q-15 88 -66.5 151.5t-128.5 98
t-169 35.5q-88 1 -159 -28t-113 -80.5t-42 -118.5q0 -66 38 -106.5t93.5 -64t108.5 -38.5l274 -79q47 -13 108.5 -36t119.5 -64.5t96 -110t38 -172.5t-41.5 -185t-115.5 -135.5t-172 -83t-210 -28.5z" />
    <glyph glyph-name="scedilla" unicode="&#x15f;" horiz-adv-x="1061" 
d="M517 -481q-37 0 -69.5 9.5t-61.5 23.5l43 115q45 -16 73 -16q36 0 55.5 22t19.5 48q0 44 -40 63.5t-92 34.5l73 205l121 1l-47 -132q55 -25 88 -68.5t33 -108.5q0 -85 -58 -141t-138 -56zM548 -29q-193 0 -316.5 84.5t-151.5 236.5l182 29q22 -88 101 -139.5t196 -51.5
q111 0 174 46t63 125q0 46 -21 74.5t-86.5 53.5t-197.5 60q-143 38 -225 79t-117 95t-35 131q0 95 52 166.5t145.5 110.5t217.5 39q123 0 220 -39t156.5 -110.5t70.5 -166.5l-182 -33q-13 87 -83.5 137t-181.5 53q-105 4 -170.5 -37t-65.5 -111q0 -39 24.5 -67t91 -53
t193.5 -57q143 -36 225.5 -78.5t117.5 -100t35 -141.5q0 -156 -115 -245.5t-317 -89.5z" />
    <glyph glyph-name="Scaron" unicode="&#x160;" horiz-adv-x="1260" 
d="M332 1890h175l148 -175l148 175h175l-244 -285h-158zM651 -30q-153 0 -275.5 52t-202 148.5t-103.5 228.5l184 29q35 -136 145.5 -212.5t260.5 -76.5q97 0 175.5 30.5t124.5 87.5t46 135q0 48 -16.5 82.5t-45 59t-64.5 41.5t-75 28l-367 109q-60 18 -116 45.5t-100 69
t-70 100t-26 138.5q0 128 66.5 218.5t180.5 138.5t257 47q145 -1 259.5 -51.5t190 -144.5t101.5 -225l-189 -33q-15 88 -66.5 151.5t-128.5 98t-169 35.5q-88 1 -159 -28t-113 -80.5t-42 -118.5q0 -66 38 -106.5t93.5 -64t108.5 -38.5l274 -79q47 -13 108.5 -36t119.5 -64.5
t96 -110t38 -172.5t-41.5 -185t-115.5 -135.5t-172 -83t-210 -28.5z" />
    <glyph glyph-name="scaron" unicode="&#x161;" horiz-adv-x="1061" 
d="M226 1530h175l148 -175l148 175h175l-244 -285h-158zM548 -29q-193 0 -316.5 84.5t-151.5 236.5l182 29q22 -88 101 -139.5t196 -51.5q111 0 174 46t63 125q0 46 -21 74.5t-86.5 53.5t-197.5 60q-143 38 -225 79t-117 95t-35 131q0 95 52 166.5t145.5 110.5t217.5 39
q123 0 220 -39t156.5 -110.5t70.5 -166.5l-182 -33q-13 87 -83.5 137t-181.5 53q-105 4 -170.5 -37t-65.5 -111q0 -39 24.5 -67t91 -53t193.5 -57q143 -36 225.5 -78.5t117.5 -100t35 -141.5q0 -156 -115 -245.5t-317 -89.5z" />
    <glyph glyph-name="uni0162" unicode="&#x162;" horiz-adv-x="1200" 
d="M511 0v1271h-491v169h1160v-169h-491v-1271h-178zM542 -488q-37 0 -69.5 9.5t-61.5 23.5l43 115q45 -16 73 -16q36 0 55.5 22t19.5 48q0 44 -40 63.5t-92 34.5l73 205l121 1l-47 -132q55 -25 88 -68.5t33 -108.5q0 -85 -58 -141t-138 -56z" />
    <glyph glyph-name="uni0163" unicode="&#x163;" horiz-adv-x="823" 
d="M439 -481q-37 0 -69.5 9.5t-61.5 23.5l43 115q45 -16 73 -16q36 0 55.5 22t19.5 48q0 44 -40 63.5t-92 34.5l73 205l121 1l-47 -132q55 -25 88 -68.5t33 -108.5q0 -85 -58 -141t-138 -56zM743 0q-96 -19 -189.5 -15.5t-166.5 38t-111 107.5q-32 64 -34.5 129.5
t-2.5 148.5v972h178v-964q0 -66 1.5 -113t20.5 -81q36 -64 114.5 -75t189.5 6v-153zM20 933v147h723v-147h-723z" />
    <glyph glyph-name="Tcaron" unicode="&#x164;" horiz-adv-x="1200" 
d="M275 1890h175l148 -175l148 175h175l-244 -285h-158zM511 0v1271h-491v169h1160v-169h-491v-1271h-178z" />
    <glyph glyph-name="tcaron" unicode="&#x165;" horiz-adv-x="823" 
d="M743 0q-96 -19 -189.5 -15.5t-166.5 38t-111 107.5q-32 64 -34.5 129.5t-2.5 148.5v972h178v-964q0 -66 1.5 -113t20.5 -81q36 -64 114.5 -75t189.5 6v-153zM20 933v147h723v-147h-723zM639 1221l11 83q42 -3 63 16t27 52t2 73h-103v226h196v-256q0 -105 -51.5 -158
t-144.5 -36z" />
    <glyph glyph-name="Tbar" unicode="&#x166;" horiz-adv-x="1200" 
d="M150 631v178h900v-178h-900zM511 0v1271h-491v169h1160v-169h-491v-1271h-178z" />
    <glyph glyph-name="tbar" unicode="&#x167;" horiz-adv-x="863" 
d="M20 477v147h743v-147h-743zM743 0q-96 -19 -189.5 -15.5t-166.5 38t-111 107.5q-32 64 -34.5 129.5t-2.5 148.5v972h178v-964q0 -66 1.5 -113t20.5 -81q36 -64 114.5 -75t189.5 6v-153zM20 933v147h723v-147h-723z" />
    <glyph glyph-name="Utilde" unicode="&#x168;" horiz-adv-x="1416" 
d="M708 -30q-167 0 -295 69t-200.5 193.5t-72.5 292.5v914l180 1v-900q0 -102 34.5 -177.5t91.5 -125.5t125.5 -74.5t136.5 -24.5q69 0 138 25t125.5 74.5t90.5 125.5t34 177v900h180v-915q0 -167 -72.5 -292t-200.5 -194t-295 -69zM876 1608q-44 0 -85 18.5t-79 42.5
t-72 42.5t-64 18.5q-36 0 -47 -31.5t0 -70.5h-120q-24 100 17 169.5t138 69.5q45 0 86 -18.5t79.5 -42.5t72.5 -42.5t63 -18.5q34 0 47 31t0 73h120q25 -98 -16 -169.5t-140 -71.5z" />
    <glyph glyph-name="utilde" unicode="&#x169;" horiz-adv-x="1209" 
d="M550 -28q-104 0 -178.5 33t-123.5 88t-77 122t-39.5 137t-11.5 131v597h180v-541q0 -76 14 -147t47.5 -128t90 -90t141.5 -33q67 0 122 23t94 68.5t60 115.5t21 163l117 -36q0 -156 -56.5 -269t-159 -173.5t-241.5 -60.5zM910 0v289h-20v791h179v-1080h-159zM772 1248
q-44 0 -85 18.5t-79 42.5t-72 42.5t-64 18.5q-36 0 -47 -31.5t0 -70.5h-120q-24 100 17 169.5t138 69.5q45 0 86 -18.5t79.5 -42.5t72.5 -42.5t63 -18.5q34 0 47 31t0 73h120q25 -98 -16 -169.5t-140 -71.5z" />
    <glyph glyph-name="Umacron" unicode="&#x16a;" horiz-adv-x="1416" 
d="M452 1680v146h512v-146h-512zM708 -30q-167 0 -295 69t-200.5 193.5t-72.5 292.5v914l180 1v-900q0 -102 34.5 -177.5t91.5 -125.5t125.5 -74.5t136.5 -24.5q69 0 138 25t125.5 74.5t90.5 125.5t34 177v900h180v-915q0 -167 -72.5 -292t-200.5 -194t-295 -69z" />
    <glyph glyph-name="umacron" unicode="&#x16b;" horiz-adv-x="1209" 
d="M338 1320v146h512v-146h-512zM550 -28q-104 0 -178.5 33t-123.5 88t-77 122t-39.5 137t-11.5 131v597h180v-541q0 -76 14 -147t47.5 -128t90 -90t141.5 -33q67 0 122 23t94 68.5t60 115.5t21 163l117 -36q0 -156 -56.5 -269t-159 -173.5t-241.5 -60.5zM910 0v289h-20v791
h179v-1080h-159z" />
    <glyph glyph-name="Ubreve" unicode="&#x16c;" horiz-adv-x="1416" 
d="M708 1566q-75 0 -137 37t-99 99t-37 137h144q0 -53 38 -91t91 -38q54 0 91.5 38t37.5 91h144q0 -75 -36.5 -137t-98.5 -99t-138 -37zM708 -30q-167 0 -295 69t-200.5 193.5t-72.5 292.5v914l180 1v-900q0 -102 34.5 -177.5t91.5 -125.5t125.5 -74.5t136.5 -24.5
q69 0 138 25t125.5 74.5t90.5 125.5t34 177v900h180v-915q0 -167 -72.5 -292t-200.5 -194t-295 -69z" />
    <glyph glyph-name="ubreve" unicode="&#x16d;" horiz-adv-x="1209" 
d="M595 1206q-76 0 -138 37t-98.5 99t-36.5 137h144q0 -53 38 -91t91 -38q54 0 91.5 38t37.5 91h144q0 -75 -37 -137t-99 -99t-137 -37zM550 -28q-104 0 -178.5 33t-123.5 88t-77 122t-39.5 137t-11.5 131v597h180v-541q0 -76 14 -147t47.5 -128t90 -90t141.5 -33
q67 0 122 23t94 68.5t60 115.5t21 163l117 -36q0 -156 -56.5 -269t-159 -173.5t-241.5 -60.5zM910 0v289h-20v791h179v-1080h-159z" />
    <glyph glyph-name="Uring" unicode="&#x16e;" horiz-adv-x="1416" 
d="M712 1555q-63 0 -116 31.5t-84.5 84t-31.5 116.5t31.5 116.5t84.5 84t116 31.5q65 0 117.5 -31.5t83.5 -84t31 -116.5t-31 -116.5t-83.5 -84t-117.5 -31.5zM712 1677q47 0 78.5 32.5t31.5 77.5q0 46 -31.5 78t-78.5 32q-45 0 -77.5 -32t-32.5 -78q0 -45 32.5 -77.5
t77.5 -32.5zM708 -30q-167 0 -295 69t-200.5 193.5t-72.5 292.5v914l180 1v-900q0 -102 34.5 -177.5t91.5 -125.5t125.5 -74.5t136.5 -24.5q69 0 138 25t125.5 74.5t90.5 125.5t34 177v900h180v-915q0 -167 -72.5 -292t-200.5 -194t-295 -69z" />
    <glyph glyph-name="uring" unicode="&#x16f;" horiz-adv-x="1209" 
d="M595 1195q-63 0 -116 31.5t-84.5 84t-31.5 116.5t31.5 116.5t84.5 84t116 31.5q65 0 117.5 -31.5t83.5 -84t31 -116.5t-31 -116.5t-83.5 -84t-117.5 -31.5zM595 1317q47 0 78.5 32.5t31.5 77.5q0 46 -31.5 78t-78.5 32q-45 0 -77.5 -32t-32.5 -78q0 -45 32.5 -77.5
t77.5 -32.5zM550 -28q-104 0 -178.5 33t-123.5 88t-77 122t-39.5 137t-11.5 131v597h180v-541q0 -76 14 -147t47.5 -128t90 -90t141.5 -33q67 0 122 23t94 68.5t60 115.5t21 163l117 -36q0 -156 -56.5 -269t-159 -173.5t-241.5 -60.5zM910 0v289h-20v791h179v-1080h-159z
" />
    <glyph glyph-name="Uhungarumlaut" unicode="&#x170;" horiz-adv-x="1416" 
d="M956 1605h-145l131 330h145zM569 1605h-145l131 330h145zM708 -30q-167 0 -295 69t-200.5 193.5t-72.5 292.5v914l180 1v-900q0 -102 34.5 -177.5t91.5 -125.5t125.5 -74.5t136.5 -24.5q69 0 138 25t125.5 74.5t90.5 125.5t34 177v900h180v-915q0 -167 -72.5 -292
t-200.5 -194t-295 -69z" />
    <glyph glyph-name="uhungarumlaut" unicode="&#x171;" horiz-adv-x="1209" 
d="M850 1245h-145l131 330h145zM463 1245h-145l131 330h145zM550 -28q-104 0 -178.5 33t-123.5 88t-77 122t-39.5 137t-11.5 131v597h180v-541q0 -76 14 -147t47.5 -128t90 -90t141.5 -33q67 0 122 23t94 68.5t60 115.5t21 163l117 -36q0 -156 -56.5 -269t-159 -173.5
t-241.5 -60.5zM910 0v289h-20v791h179v-1080h-159z" />
    <glyph glyph-name="Uogonek" unicode="&#x172;" horiz-adv-x="1416" 
d="M708 -30q-167 0 -295 69t-200.5 193.5t-72.5 292.5v914l180 1v-900q0 -102 34.5 -177.5t91.5 -125.5t125.5 -74.5t136.5 -24.5q69 0 138 25t125.5 74.5t90.5 125.5t34 177v900h180v-915q0 -167 -72.5 -292t-200.5 -194t-295 -69zM872 -415q-56 0 -101 28.5t-71.5 75
t-26.5 99.5q0 67 38.5 136.5t103 132t143.5 108.5l88 -99q-61 -35 -112 -82t-82 -96t-31 -89q0 -33 21 -54t49 -21q21 0 43.5 12t42.5 32l72 -90q-34 -45 -81 -69t-96 -24z" />
    <glyph glyph-name="uogonek" unicode="&#x173;" horiz-adv-x="1209" 
d="M895 -481q-56 0 -101 28.5t-71.5 75t-26.5 99.5q0 67 38.5 136.5t103 132t143.5 108.5l88 -99q-61 -35 -112 -82t-82 -96t-31 -89q0 -33 21 -54t49 -21q21 0 43.5 12t42.5 32l72 -90q-34 -45 -81 -69t-96 -24zM550 -28q-104 0 -178.5 33t-123.5 88t-77 122t-39.5 137
t-11.5 131v597h180v-541q0 -76 14 -147t47.5 -128t90 -90t141.5 -33q67 0 122 23t94 68.5t60 115.5t21 163l117 -36q0 -156 -56.5 -269t-159 -173.5t-241.5 -60.5zM910 0v289h-20v791h179v-1080h-159z" />
    <glyph glyph-name="Wcircumflex" unicode="&#x174;" horiz-adv-x="1898" 
d="M625 1605l244 285h158l244 -285h-175l-148 175l-148 -175h-175zM447 0l-417 1440h186l320 -1139l319 1138l187 1l320 -1139l319 1139h187l-417 -1440h-178l-324 1129l-324 -1129h-178z" />
    <glyph glyph-name="wcircumflex" unicode="&#x175;" horiz-adv-x="1558" 
d="M454 1245l244 285h158l244 -285h-175l-148 175l-148 -175h-175zM370 0l-330 1081l177 -1l241 -790l243 790h157l242 -790l242 790h176l-330 -1080h-148l-261 821l-261 -821h-148z" />
    <glyph glyph-name="Ycircumflex" unicode="&#x176;" horiz-adv-x="1149" 
d="M250 1605l244 285h158l244 -285h-175l-148 175l-148 -175h-175zM485 0v599l-485 841h207l368 -637l367 637h207l-484 -841v-599h-180z" />
    <glyph glyph-name="ycircumflex" unicode="&#x177;" horiz-adv-x="1076" 
d="M229 1245l244 285h158l244 -285h-175l-148 175l-148 -175h-175zM290 -480l209 568l3 -168l-472 1160h187l370 -933h-64l347 933h181l-588 -1560h-173z" />
    <glyph glyph-name="Ydieresis" unicode="&#x178;" horiz-adv-x="1149" 
d="M681 1636v180h180v-180h-180zM289 1636v180h180v-180h-180zM485 0v599l-485 841h207l368 -637l367 637h207l-484 -841v-599h-180z" />
    <glyph glyph-name="Zacute" unicode="&#x179;" horiz-adv-x="1261" 
d="M701 1605h-145l131 330h145zM100 0v32l761 1239h-731v169h1031v-34l-757 -1237h747v-169h-1051z" />
    <glyph glyph-name="zacute" unicode="&#x17a;" horiz-adv-x="1062" 
d="M631 1245h-145l131 330h145zM40 0v32l655 886h-601v162h888v-34l-654 -884h620v-162h-908z" />
    <glyph glyph-name="Zdotaccent" unicode="&#x17b;" horiz-adv-x="1261" 
d="M574 1664v196h196v-196h-196zM100 0v32l761 1239h-731v169h1031v-34l-757 -1237h747v-169h-1051z" />
    <glyph glyph-name="zdotaccent" unicode="&#x17c;" horiz-adv-x="1062" 
d="M448 1304v196h196v-196h-196zM40 0v32l655 886h-601v162h888v-34l-654 -884h620v-162h-908z" />
    <glyph glyph-name="Zcaron" unicode="&#x17d;" horiz-adv-x="1261" 
d="M336 1890h175l148 -175l148 175h175l-244 -285h-158zM100 0v32l761 1239h-731v169h1031v-34l-757 -1237h747v-169h-1051z" />
    <glyph glyph-name="zcaron" unicode="&#x17e;" horiz-adv-x="1062" 
d="M228 1530h175l148 -175l148 175h175l-244 -285h-158zM40 0v32l655 886h-601v162h888v-34l-654 -884h620v-162h-908z" />
    <glyph glyph-name="florin" unicode="&#x192;" horiz-adv-x="1430" 
d="M329 -30q-54 0 -105 11t-91.5 25.5t-62.5 23.5l75 152q10 -5 37.5 -15t63 -18.5t72.5 -8.5q41 0 78.5 16t69.5 49.5t54.5 84.5t33.5 121l106 654q11 67 36 127.5t64 111.5t89.5 88t112.5 57.5t133 20.5q59 0 112 -10.5t93 -25t60 -26.5l-83 -148q2 0 -21 10t-62 20
t-87 10q-33 0 -73 -8.5t-78.5 -31.5t-67 -64t-39.5 -106l-116 -705q-19 -116 -60 -195.5t-96.5 -128t-119 -70t-128.5 -21.5zM261 647v147h956v-147h-956z" />
    <glyph glyph-name="Ohorn" unicode="&#x1a0;" horiz-adv-x="1464" 
d="M1126 1621l143 1q13 -91 -5.5 -158t-79.5 -103q-52 -30 -128.5 -31.5t-140.5 37.5v83q48 -13 81.5 -15t62.5 12q53 26 62 73.5t5 100.5zM732 -30q-215 0 -365 95t-228.5 264t-78.5 391t78.5 391t228.5 264t365 95q216 0 366 -95t228 -264t78 -391t-78 -391t-228 -264
t-366 -95zM732 140q161 -1 268.5 72.5t161 204.5t53.5 303q0 173 -53.5 303t-161 203t-268.5 74t-267.5 -72t-160.5 -204t-55 -304q-1 -172 53 -302t161.5 -203.5t268.5 -74.5z" />
    <glyph glyph-name="ohorn" unicode="&#x1a1;" horiz-adv-x="1201" 
d="M972 1260h143q13 -91 -5.5 -157.5t-79.5 -103.5q-52 -29 -128.5 -31t-140.5 38v82q48 -13 81.5 -14.5t62.5 12.5q53 25 62 72.5t5 101.5zM600 -30q-161 0 -277.5 73t-179.5 202t-63 296q0 170 64 298t181 199.5t275 71.5q162 0 279 -72.5t179.5 -201t62.5 -295.5
q0 -169 -63 -297.5t-180 -201t-278 -72.5zM600 139q168 0 250 112t82 290q0 183 -83 291.5t-249 108.5q-113 0 -186 -51t-109 -141t-36 -208q0 -182 84 -292t247 -110z" />
    <glyph glyph-name="Uhorn" unicode="&#x1af;" horiz-adv-x="1416" 
d="M1345 1620h143q13 -91 -6.5 -156t-77.5 -103q-51 -32 -115.5 -34t-125.5 6v107q22 1 44 1t44 5q71 14 84 65.5t10 108.5zM708 -30q-167 0 -295 69t-200.5 193.5t-72.5 292.5v914l180 1v-900q0 -102 34.5 -177.5t91.5 -125.5t125.5 -74.5t136.5 -24.5q69 0 138 25
t125.5 74.5t90.5 125.5t34 177v900h180v-915q0 -167 -72.5 -292t-200.5 -194t-295 -69z" />
    <glyph glyph-name="uhorn" unicode="&#x1b0;" horiz-adv-x="1209" 
d="M1108 1260h143q13 -91 -6.5 -156t-77.5 -103q-51 -32 -115.5 -34t-125.5 6v107q22 1 44 1t44 5q71 14 84 65.5t10 108.5zM550 -28q-104 0 -178.5 33t-123.5 88t-77 122t-39.5 137t-11.5 131v597h180v-541q0 -76 14 -147t47.5 -128t90 -90t141.5 -33q67 0 122 23t94 68.5
t60 115.5t21 163l117 -36q0 -156 -56.5 -269t-159 -173.5t-241.5 -60.5zM910 0v289h-20v791h179v-1080h-159z" />
    <glyph glyph-name="uni0218" unicode="&#x218;" horiz-adv-x="1260" 
d="M584 -570v87q13 0 38 7t45.5 27.5t18.5 59.5h-102v188h188v-188q0 -87 -56.5 -134t-131.5 -47zM651 -30q-153 0 -275.5 52t-202 148.5t-103.5 228.5l184 29q35 -136 145.5 -212.5t260.5 -76.5q97 0 175.5 30.5t124.5 87.5t46 135q0 48 -16.5 82.5t-45 59t-64.5 41.5
t-75 28l-367 109q-60 18 -116 45.5t-100 69t-70 100t-26 138.5q0 128 66.5 218.5t180.5 138.5t257 47q145 -1 259.5 -51.5t190 -144.5t101.5 -225l-189 -33q-15 88 -66.5 151.5t-128.5 98t-169 35.5q-88 1 -159 -28t-113 -80.5t-42 -118.5q0 -66 38 -106.5t93.5 -64
t108.5 -38.5l274 -79q47 -13 108.5 -36t119.5 -64.5t96 -110t38 -172.5t-41.5 -185t-115.5 -135.5t-172 -83t-210 -28.5z" />
    <glyph glyph-name="uni0219" unicode="&#x219;" horiz-adv-x="1061" 
d="M447 -570v87q13 0 38 7t45.5 27.5t18.5 59.5h-102v188h188v-188q0 -87 -56.5 -134t-131.5 -47zM548 -29q-193 0 -316.5 84.5t-151.5 236.5l182 29q22 -88 101 -139.5t196 -51.5q111 0 174 46t63 125q0 46 -21 74.5t-86.5 53.5t-197.5 60q-143 38 -225 79t-117 95t-35 131
q0 95 52 166.5t145.5 110.5t217.5 39q123 0 220 -39t156.5 -110.5t70.5 -166.5l-182 -33q-13 87 -83.5 137t-181.5 53q-105 4 -170.5 -37t-65.5 -111q0 -39 24.5 -67t91 -53t193.5 -57q143 -36 225.5 -78.5t117.5 -100t35 -141.5q0 -156 -115 -245.5t-317 -89.5z" />
    <glyph glyph-name="uni021A" unicode="&#x21a;" horiz-adv-x="1200" 
d="M506 -570v87q13 0 38 7t45.5 27.5t18.5 59.5h-102v188h188v-188q0 -87 -56.5 -134t-131.5 -47zM511 0v1271h-491v169h1160v-169h-491v-1271h-178z" />
    <glyph glyph-name="uni021B" unicode="&#x21b;" horiz-adv-x="823" 
d="M344 -570v87q13 0 38 7t45.5 27.5t18.5 59.5h-102v188h188v-188q0 -87 -56.5 -134t-131.5 -47zM743 0q-96 -19 -189.5 -15.5t-166.5 38t-111 107.5q-32 64 -34.5 129.5t-2.5 148.5v972h178v-964q0 -66 1.5 -113t20.5 -81q36 -64 114.5 -75t189.5 6v-153zM20 933v147h723
v-147h-723z" />
    <glyph glyph-name="uni0259" unicode="&#x259;" horiz-adv-x="1181" 
d="M573 1110q160 0 278.5 -70t184 -197t65.5 -296q0 -177 -64.5 -306t-181.5 -200t-274 -71q-162 0 -276.5 75t-172 214t-49.5 331h179v-64q3 -198 81.5 -297t231.5 -99q166 0 251.5 106t85.5 304q0 192 -85.5 296.5t-245.5 104.5q-106 0 -185.5 -48.5t-124.5 -141.5
l-171 59q64 144 190.5 222t282.5 78zM972 590v-143h-798v143h798z" />
    <glyph glyph-name="circumflex" unicode="&#x2c6;" horiz-adv-x="1086" 
d="M218 1605l244 285h158l244 -285h-175l-148 175l-148 -175h-175z" />
    <glyph glyph-name="caron" unicode="&#x2c7;" horiz-adv-x="1074" 
d="M218 1890h175l148 -175l148 175h175l-244 -285h-158z" />
    <glyph glyph-name="breve" unicode="&#x2d8;" horiz-adv-x="1026" 
d="M513 1566q-75 0 -137 37t-99 98.5t-37 137.5h144q0 -53 38 -91t91 -38q54 0 91.5 38t37.5 91h144q0 -76 -36.5 -137.5t-99 -98.5t-137.5 -37z" />
    <glyph glyph-name="dotaccent" unicode="&#x2d9;" horiz-adv-x="676" 
d="M240 1664v196h196v-196h-196z" />
    <glyph glyph-name="ring" unicode="&#x2da;" horiz-adv-x="1008" 
d="M504 1555q-63 0 -116 31.5t-84.5 84t-31.5 116.5t31.5 116.5t84 84t116.5 31.5q65 0 117.5 -31.5t83.5 -84t31 -116.5t-31 -116.5t-84 -84t-117 -31.5zM504 1677q47 0 78.5 32.5t31.5 77.5q0 46 -31.5 78t-78.5 32q-45 0 -77.5 -32t-32.5 -78q0 -45 32.5 -77.5
t77.5 -32.5z" />
    <glyph glyph-name="ogonek" unicode="&#x2db;" horiz-adv-x="857" 
d="M438 -481q-56 0 -101 28.5t-71.5 75t-26.5 99.5q0 67 38.5 136.5t103 132t143.5 108.5l88 -99q-61 -35 -112 -82t-82 -96t-31 -89q0 -33 21 -54t49 -21q21 0 43.5 12t42.5 32l72 -90q-34 -45 -81 -69t-96 -24z" />
    <glyph glyph-name="tilde" unicode="&#x2dc;" horiz-adv-x="1105" 
d="M708 1608q-44 0 -85 18.5t-79 42.5t-72 42.5t-64 18.5q-36 0 -47 -31.5t0 -70.5h-120q-24 100 17 169.5t138 69.5q45 0 86 -18.5t79.5 -42.5t72.5 -42.5t63 -18.5q34 0 47 31t0 73h120q25 -98 -16 -169.5t-140 -71.5z" />
    <glyph glyph-name="hungarumlaut" unicode="&#x2dd;" horiz-adv-x="1095" 
d="M744 1605h-145l131 330h145zM357 1605h-145l131 330h145z" />
    <glyph glyph-name="uni0374" unicode="&#x374;" horiz-adv-x="556" 
d="M266 1110h-145l131 330h145z" />
    <glyph glyph-name="uni0375" unicode="&#x375;" horiz-adv-x="556" 
d="M266 -447h-145l131 330h145z" />
    <glyph glyph-name="uni037E" unicode="&#x37e;" horiz-adv-x="636" 
d="M220 -224l11 83q42 -3 63 16t27 52t2 73h-103v226h196v-256q0 -105 -51.5 -158t-144.5 -36zM220 884v196h196v-196h-196z" />
    <glyph glyph-name="tonos" unicode="&#x384;" horiz-adv-x="1200" 
d="M597 1110h-145l131 330h145z" />
    <glyph glyph-name="dieresistonos" unicode="&#x385;" horiz-adv-x="1200" 
d="M796 1275v180h165v-180h-165zM240 1275v180h165v-180h-165zM627 1245h-145l131 330h145z" />
    <glyph glyph-name="Alphatonos" unicode="&#x386;" horiz-adv-x="1309" 
d="M57 0l482 1440h248l482 -1440h-185l-451 1336h56l-447 -1336h-185zM289 337v167h748v-167h-748zM235 1110h-145l131 330h145z" />
    <glyph glyph-name="anoteleia" unicode="&#x387;" horiz-adv-x="1200" 
d="M243 510q-51 0 -87 34.5t-36 85.5q0 52 36 86t87 34q48 0 82.5 -34t34.5 -86q0 -51 -34.5 -85.5t-82.5 -34.5z" />
    <glyph glyph-name="Epsilontonos" unicode="&#x388;" horiz-adv-x="1444" 
d="M434 0v1440h910v-169h-732v-451h612v-169h-612v-482h732v-169h-910zM182 1110h-145l131 330h145z" />
    <glyph glyph-name="Etatonos" unicode="&#x389;" horiz-adv-x="1675" 
d="M421 0v1440h178v-635h758v635h178v-1440h-178v636h-758v-636h-178zM171 1110h-145l131 330h145z" />
    <glyph glyph-name="Iotatonos" unicode="&#x38a;" horiz-adv-x="737" 
d="M419 0v1440h178v-1440h-178zM171 1110h-145l131 330h145z" />
    <glyph glyph-name="Omicrontonos" unicode="&#x38c;" horiz-adv-x="1667" 
d="M935 -30q-215 0 -365 95t-228.5 264t-78.5 391t78.5 391t228.5 264t365 95q216 0 366 -95t228 -264t78 -391t-78 -391t-228 -264t-366 -95zM935 140q161 -1 268.5 72.5t161 204.5t53.5 303q0 173 -53.5 303t-161 203t-268.5 74t-267.5 -72t-160.5 -204t-55 -304
q-1 -172 53 -302t161.5 -203.5t268.5 -74.5zM187 1110h-145l131 330h145z" />
    <glyph glyph-name="Upsilontonos" unicode="&#x38e;" horiz-adv-x="1548" 
d="M884 0v599l-485 841h207l368 -637l367 637h207l-484 -841v-599h-180zM202 1110h-145l131 330h145z" />
    <glyph glyph-name="Omegatonos" unicode="&#x38f;" horiz-adv-x="1694" 
d="M280 0v169h250q-119 99 -189.5 249t-70.5 339q0 151 46.5 280.5t134.5 226.5t212 151t279 54q156 0 280 -54t211.5 -151t134 -226.5t46.5 -280.5q0 -189 -69.5 -339t-190.5 -249h249v-169h-482l1 169q70 36 139 112t115.5 187.5t48.5 254.5q2 118 -30 222t-95 183.5
t-153.5 125t-204.5 45.5q-113 0 -202.5 -45t-152 -124t-95.5 -182t-33 -219q0 -112 28 -203.5t74 -162t100 -119t105 -75.5v-169h-486zM196 1110h-145l131 330h145z" />
    <glyph glyph-name="iotadieresistonos" unicode="&#x390;" horiz-adv-x="843" 
d="M511 -9q-64 10 -119 40t-93 96q-35 62 -37 127t-2 154v672h178v-664q0 -68 1 -113t21 -82q21 -37 53.5 -54t72.5 -22q42 -3 89 -1t89 9v-153q-37 -9 -83 -13t-91 -2.5t-79 6.5zM575 1275v180h165v-180h-165zM19 1275v180h165v-180h-165zM406 1245h-145l131 330h145z" />
    <glyph glyph-name="Alpha" unicode="&#x391;" horiz-adv-x="1292" 
d="M40 0l482 1440h248l482 -1440h-185l-451 1336h56l-447 -1336h-185zM272 337v167h748v-167h-748z" />
    <glyph glyph-name="Beta" unicode="&#x392;" horiz-adv-x="1238" 
d="M140 0v1440h561q129 0 220.5 -53t140 -139.5t48.5 -186.5q0 -117 -60 -205t-162 -121l-2 49q139 -37 216 -136t77 -236q0 -126 -51.5 -218t-148 -143t-228.5 -51h-611zM320 170h397q80 0 143 29.5t99.5 83.5t36.5 130q0 73 -32.5 131t-91 92.5t-135.5 34.5h-417v-501z
M320 839h379q64 0 115.5 27.5t82 77.5t30.5 117q0 93 -63 152t-165 59h-379v-433z" />
    <glyph glyph-name="Gamma" unicode="&#x393;" horiz-adv-x="1070" 
d="M140 0v1440h910v-169h-732v-1271h-178z" />
    <glyph glyph-name="uni0394" unicode="&#x394;" horiz-adv-x="1292" 
d="M170 0v169h954v-169h-954zM522 1440h248l482 -1440h-185l-423 1251l-419 -1251h-185z" />
    <glyph glyph-name="Epsilon" unicode="&#x395;" horiz-adv-x="1150" 
d="M140 0v1440h910v-169h-732v-451h612v-169h-612v-482h732v-169h-910z" />
    <glyph glyph-name="Zeta" unicode="&#x396;" horiz-adv-x="1261" 
d="M100 0v32l761 1239h-731v169h1031v-34l-757 -1237h747v-169h-1051z" />
    <glyph glyph-name="Eta" unicode="&#x397;" horiz-adv-x="1394" 
d="M140 0v1440h178v-635h758v635h178v-1440h-178v636h-758v-636h-178z" />
    <glyph glyph-name="Theta" unicode="&#x398;" horiz-adv-x="1464" 
d="M476 647v146h512v-146h-512zM732 -30q-215 0 -365 95t-228.5 264t-78.5 391t78.5 391t228.5 264t365 95q216 0 366 -95t228 -264t78 -391t-78 -391t-228 -264t-366 -95zM732 140q161 -1 268.5 72.5t161 204.5t53.5 303q0 173 -53.5 303t-161 203t-268.5 74t-267.5 -72
t-160.5 -204t-55 -304q-1 -172 53 -302t161.5 -203.5t268.5 -74.5z" />
    <glyph glyph-name="Iota" unicode="&#x399;" 
d="M160 0v1440h178v-1440h-178z" />
    <glyph glyph-name="Kappa" unicode="&#x39a;" horiz-adv-x="1223" 
d="M140 0v1440h178v-676l630 676h224l-654 -699l705 -741h-230l-675 704v-704h-178z" />
    <glyph glyph-name="Lambda" unicode="&#x39b;" horiz-adv-x="1232" 
d="M492 1440h248l482 -1440h-185l-423 1251l-419 -1251h-185z" />
    <glyph glyph-name="Mu" unicode="&#x39c;" horiz-adv-x="1691" 
d="M140 0v1440h162l544 -1147l541 1147h164v-1439h-169v1048l-489 -1049h-95l-489 1049v-1049h-169z" />
    <glyph glyph-name="Nu" unicode="&#x39d;" horiz-adv-x="1391" 
d="M140 0v1440h180l751 -1125v1125h180v-1440h-180l-751 1126v-1126h-180z" />
    <glyph glyph-name="Xi" unicode="&#x39e;" horiz-adv-x="1404" 
d="M140 1271v169h1124v-169h-1124zM140 0v169h1124v-169h-1124zM240 636v169h924v-169h-924z" />
    <glyph glyph-name="Omicron" unicode="&#x39f;" horiz-adv-x="1464" 
d="M732 -30q-215 0 -365 95t-228.5 264t-78.5 391t78.5 391t228.5 264t365 95q216 0 366 -95t228 -264t78 -391t-78 -391t-228 -264t-366 -95zM732 140q161 -1 268.5 72.5t161 204.5t53.5 303q0 173 -53.5 303t-161 203t-268.5 74t-267.5 -72t-160.5 -204t-55 -304
q-1 -172 53 -302t161.5 -203.5t268.5 -74.5z" />
    <glyph glyph-name="Pi" unicode="&#x3a0;" horiz-adv-x="1404" 
d="M140 0v1440h1124v-1440h-178v1271h-768v-1271h-178z" />
    <glyph glyph-name="Rho" unicode="&#x3a1;" horiz-adv-x="1231" 
d="M140 0v1440h569q21 0 50 -1.5t56 -6.5q117 -18 196.5 -80t119.5 -156.5t40 -209.5q0 -114 -40.5 -208.5t-120 -157t-195.5 -80.5q-27 -4 -56 -6t-50 -2h-391v-532h-178zM318 701h385q19 0 43.5 2t46.5 7q69 16 112.5 58.5t63.5 100t20 117.5t-20 117.5t-63.5 100.5
t-112.5 58q-22 6 -46.5 7.5t-43.5 1.5h-385v-570z" />
    <glyph glyph-name="Sigma" unicode="&#x3a3;" horiz-adv-x="1290" 
d="M140 0v162l549 558l-549 556v164h1010v-169h-771l527 -534v-34l-527 -534h752v-169h-991z" />
    <glyph glyph-name="Tau" unicode="&#x3a4;" horiz-adv-x="1200" 
d="M511 0v1271h-491v169h1160v-169h-491v-1271h-178z" />
    <glyph glyph-name="Upsilon" unicode="&#x3a5;" horiz-adv-x="1149" 
d="M485 0v599l-485 841h207l368 -637l367 637h207l-484 -841v-599h-180z" />
    <glyph glyph-name="Phi" unicode="&#x3a6;" horiz-adv-x="1440" 
d="M631 0v196q-111 -19 -213.5 10t-183 101.5t-127.5 187.5t-47 268q0 154 47 269.5t127.5 189t183 103t213.5 10.5v105h177v-105q111 19 214 -10.5t183.5 -103t127.5 -189t47 -269.5q0 -153 -47 -268t-127.5 -187.5t-183.5 -101.5t-214 -10v-196h-177zM631 363v808
q-92 14 -164.5 -12.5t-122 -84t-75.5 -137.5t-26 -174q0 -93 26 -172t75.5 -135t122 -81t164.5 -12zM808 363q93 -13 165 12.5t122 80.5t76 133.5t26 169.5q0 92 -26 172.5t-76 139t-122 86.5t-165 14v-808z" />
    <glyph glyph-name="Chi" unicode="&#x3a7;" horiz-adv-x="1245" 
d="M20 0l495 729l-482 711h217l373 -561l372 561h218l-482 -711l494 -729h-217l-385 578l-385 -578h-218z" />
    <glyph glyph-name="Psi" unicode="&#x3a8;" horiz-adv-x="1456" 
d="M639 0v338q-117 4 -212.5 42.5t-162.5 111.5t-98 180q-17 54 -21.5 101.5t-4.5 76.5v590h169v-525q0 -26 2 -71t14 -94q31 -120 113.5 -182t200.5 -64v936h178v-936q121 2 205.5 68t110.5 186q11 47 12.5 90.5t1.5 66.5v525h169v-590q0 -33 -3.5 -77.5t-22.5 -98.5
q-32 -108 -99.5 -181t-162.5 -112t-211 -43v-338h-178z" />
    <glyph glyph-name="uni03A9" unicode="&#x3a9;" horiz-adv-x="1464" 
d="M70 0v169h250q-119 99 -189.5 249t-70.5 339q0 151 46.5 280.5t134.5 226.5t212 151t279 54q156 0 280 -54t211.5 -151t134 -226.5t46.5 -280.5q0 -189 -69.5 -339t-190.5 -249h249v-169h-482l1 169q70 36 139 112t115.5 187.5t48.5 254.5q2 118 -30 222t-95 183.5
t-153.5 125t-204.5 45.5q-113 0 -202.5 -45t-152 -124t-95.5 -182t-33 -219q0 -112 28 -203.5t74 -162t100 -119t105 -75.5v-169h-486z" />
    <glyph glyph-name="Iotadieresis" unicode="&#x3aa;" 
d="M355 1636v180h180v-180h-180zM-37 1636v180h180v-180h-180zM160 0v1440h178v-1440h-178z" />
    <glyph glyph-name="Upsilondieresis" unicode="&#x3ab;" horiz-adv-x="1149" 
d="M681 1636v180h180v-180h-180zM289 1636v180h180v-180h-180zM485 0v599l-485 841h207l368 -637l367 637h207l-484 -841v-599h-180z" />
    <glyph glyph-name="alphatonos" unicode="&#x3ac;" horiz-adv-x="1231" 
d="M674 1245h-145l131 330h145zM567 -30q-153 0 -262 75.5t-167 204.5t-58 290q0 163 58.5 291.5t168.5 203.5t265 75q145 0 246.5 -72.5t143.5 -200.5l-30 -52v295h159v-1080h-159v298l30 -52q-42 -129 -146.5 -202.5t-248.5 -73.5zM589 133q107 0 176.5 52.5t103 145
t33.5 210.5q0 120 -33.5 211.5t-102.5 143t-175 51.5q-105 0 -177 -51.5t-108.5 -143t-36.5 -212.5q0 -114 35 -206t106 -146.5t179 -54.5z" />
    <glyph glyph-name="epsilontonos" unicode="&#x3ad;" horiz-adv-x="1022" 
d="M551 1245h-145l131 330h145zM495 -30q-115 0 -209 40.5t-150 116t-56 181.5q0 63 21.5 121t65 100.5t108.5 58.5l-7 -63q-77 50 -117.5 117t-40.5 153q0 101 51.5 171.5t138 107t190.5 36.5q130 0 239.5 -46.5t192.5 -132.5l-108 -121q-58 57 -140.5 94.5t-172.5 37.5
q-84 0 -146 -38.5t-62 -122.5q0 -82 66 -116t171 -34h111v-147h-112q-83 0 -143 -13t-92 -47t-32 -98q0 -86 65.5 -136.5t174.5 -50.5q105 0 187.5 47.5t140.5 136.5l142 -92q-70 -122 -193 -191.5t-284 -69.5z" />
    <glyph glyph-name="etatonos" unicode="&#x3ae;" horiz-adv-x="1209" 
d="M697 1245h-145l131 330h145zM909 0v541q0 77 -13.5 148t-47 127.5t-90 89.5t-142.5 33q-67 0 -121.5 -22.5t-93.5 -68.5t-60.5 -115.5t-21.5 -163.5l-117 36q0 157 56.5 269.5t159 173t241.5 60.5q105 0 179 -33t123 -87.5t77 -122t39.5 -137t11.5 -131.5v-597h-180z
M139 0v1080h160v-289h20v-791h-180z" />
    <glyph glyph-name="iotatonos" unicode="&#x3af;" horiz-adv-x="745" 
d="M325 1245h-145l131 330h145zM412 -9q-64 10 -119 40t-93 96q-35 62 -37 127t-2 154v672h178v-664q0 -68 1 -113t21 -82q21 -37 53.5 -54t72.5 -22q42 -3 89 -1t89 9v-153q-37 -9 -83 -13t-91 -2.5t-79 6.5z" />
    <glyph glyph-name="upsilondieresistonos" unicode="&#x3b0;" horiz-adv-x="1186" 
d="M120 493v587h180v-541q0 -76 14 -147t47.5 -128t90 -90t141.5 -33q86 0 142.5 33t90 90t47 128t13.5 147v541h180v-587q0 -74 -12 -149t-42.5 -141.5t-84 -118.5t-135.5 -82t-199 -30q-116 0 -198 30t-136 82t-84 118.5t-42.5 141.5t-12.5 149zM789 1275v180h165v-180
h-165zM233 1275v180h165v-180h-165zM620 1245h-145l131 330h145z" />
    <glyph glyph-name="alpha" unicode="&#x3b1;" horiz-adv-x="1231" 
d="M567 -30q-153 0 -262 75.5t-167 204.5t-58 290q0 163 58.5 291.5t168.5 203.5t265 75q145 0 246.5 -72.5t143.5 -200.5l-30 -52v295h159v-1080h-159v298l30 -52q-42 -129 -146.5 -202.5t-248.5 -73.5zM589 133q107 0 176.5 52.5t103 145t33.5 210.5q0 120 -33.5 211.5
t-102.5 143t-175 51.5q-105 0 -177 -51.5t-108.5 -143t-36.5 -212.5q0 -114 35 -206t106 -146.5t179 -54.5z" />
    <glyph glyph-name="beta" unicode="&#x3b2;" horiz-adv-x="1159" 
d="M139 -480v1560q0 37 5.5 73t16.5 69q27 81 84 136.5t136 83.5t172 28q125 0 220.5 -48.5t149.5 -136.5t54 -207q0 -96 -38.5 -172t-117.5 -115q53 -13 102.5 -44t89.5 -79t63.5 -114t23.5 -149q0 -131 -59 -228.5t-168.5 -152t-262.5 -54.5q-92 0 -165.5 24.5
t-127.5 66.5v-541h-178zM618 139q89 0 157 34.5t106 96t38 143.5q0 133 -98 201.5t-263 71.5v160q69 7 122.5 34t84 76t30.5 120q0 107 -67 166t-171 59q-66 0 -125.5 -29.5t-87.5 -99.5q-15 -39 -19 -82.5t-4 -75.5v-585q0 -29 3.5 -65.5t11.5 -64.5q25 -77 107 -118.5
t175 -41.5z" />
    <glyph glyph-name="gamma" unicode="&#x3b3;" horiz-adv-x="1046" 
d="M432 -360v360l-392 1080h181l302 -853l303 853h180l-392 -1080v-360h-182z" />
    <glyph glyph-name="delta" unicode="&#x3b4;" horiz-adv-x="1201" 
d="M597 -29q-159 0 -275 64t-179 179.5t-63 268.5q0 152 62 268t178.5 175t279.5 37v58q162 0 279 -66.5t179.5 -185t62.5 -272.5q0 -155 -63 -273.5t-180.5 -185.5t-280.5 -67zM601 140q160 0 239.5 98.5t79.5 260.5q0 164 -80.5 259t-238.5 95q-160 0 -239.5 -97
t-79.5 -259q0 -166 82 -261.5t237 -95.5zM746 863q-72 22 -160 46t-167.5 61t-131 97t-51.5 153q0 52 20.5 103t67 88.5t125.5 50.5q30 6 59.5 7t62.5 1h356v-148h-316q-30 0 -56 -1.5t-48 -7.5q-41 -10 -67.5 -34.5t-26.5 -65.5t31.5 -71.5t86.5 -55t127.5 -48.5t154.5 -54
z" />
    <glyph glyph-name="epsilon" unicode="&#x3b5;" horiz-adv-x="1022" 
d="M495 -30q-115 0 -209 40.5t-150 116t-56 181.5q0 63 21.5 121t65 100.5t108.5 58.5l-7 -63q-77 50 -117.5 117t-40.5 153q0 101 51.5 171.5t138 107t190.5 36.5q130 0 239.5 -46.5t192.5 -132.5l-108 -121q-58 57 -140.5 94.5t-172.5 37.5q-84 0 -146 -38.5t-62 -122.5
q0 -82 66 -116t171 -34h111v-147h-112q-83 0 -143 -13t-92 -47t-32 -98q0 -86 65.5 -136.5t174.5 -50.5q105 0 187.5 47.5t140.5 136.5l142 -92q-70 -122 -193 -191.5t-284 -69.5z" />
    <glyph glyph-name="zeta" unicode="&#x3b6;" horiz-adv-x="1023" 
d="M836 -240q4 88 -15 137t-58 71t-96.5 27t-132.5 5q-93 0 -175.5 16t-145 57t-98 114.5t-35.5 188.5q0 78 23 156t85.5 171.5t181.5 217.5q42 43 98 98.5t122.5 121t141.5 137.5h-592v162h863v-140q-34 -33 -68 -67.5t-73 -73t-85 -84t-103.5 -100.5t-130.5 -123
q-106 -105 -166 -184.5t-84.5 -145.5t-24.5 -130q0 -95 43 -143t122.5 -65t189.5 -17q22 0 54 -1.5t67 -6t64 -12.5q68 -19 116 -66.5t68 -127t3 -193.5h-159z" />
    <glyph glyph-name="eta" unicode="&#x3b7;" horiz-adv-x="1209" 
d="M909 0v541q0 77 -13.5 148t-47 127.5t-90 89.5t-142.5 33q-67 0 -121.5 -22.5t-93.5 -68.5t-60.5 -115.5t-21.5 -163.5l-117 36q0 157 56.5 269.5t159 173t241.5 60.5q105 0 179 -33t123 -87.5t77 -122t39.5 -137t11.5 -131.5v-597h-180zM139 0v1080h160v-289h20v-791
h-180z" />
    <glyph glyph-name="theta" unicode="&#x3b8;" horiz-adv-x="1334" 
d="M219 647v146h903v-146h-903zM667 -30q-143 0 -253 57t-184 159t-112 239t-38 295q0 160 38 296t112 238t184 158.5t253 56.5q144 0 253.5 -56.5t183.5 -158.5t112 -238t38 -296q0 -162 -38 -299t-112 -238.5t-183.5 -157t-253.5 -55.5zM667 140q100 0 174.5 45t124 124.5
t74.5 185t25 225.5q1 121 -23.5 226t-74 184.5t-125 124t-175.5 44.5t-174.5 -44.5t-123.5 -124t-74 -184.5t-26 -226q0 -120 24.5 -225.5t74 -185t124.5 -124.5t175 -45z" />
    <glyph glyph-name="iota" unicode="&#x3b9;" horiz-adv-x="745" 
d="M412 -9q-64 10 -119 40t-93 96q-35 62 -37 127t-2 154v672h178v-664q0 -68 1 -113t21 -82q21 -37 53.5 -54t72.5 -22q42 -3 89 -1t89 9v-153q-37 -9 -83 -13t-91 -2.5t-79 6.5z" />
    <glyph glyph-name="kappa" unicode="&#x3ba;" horiz-adv-x="1020" 
d="M139 0l1 1080h180v-520l453 520h231l-477 -540l533 -540h-249l-491 520v-520h-181z" />
    <glyph glyph-name="lambda" unicode="&#x3bb;" horiz-adv-x="1086" 
d="M80 0l392 1080q-31 80 -59 131.5t-71 76.5t-118 25h-51v157h69q19 0 58.5 -1.5t74.5 -10.5q80 -18 130 -74t84 -136t65 -168l392 -1080h-181l-302 853l-303 -853h-180z" />
    <glyph glyph-name="uni03BC" unicode="&#x3bc;" horiz-adv-x="1228" 
d="M139 -480v1560h180v-541q0 -76 14 -147t47.5 -128t90 -90t141.5 -33q67 0 122 23t94 68.5t60 115.5t21 163v569h179v-1080h-159v143q-59 -84 -151.5 -127.5t-208.5 -43.5q-87 0 -155.5 29t-115.5 83v-564h-159z" />
    <glyph glyph-name="nu" unicode="&#x3bd;" horiz-adv-x="1046" 
d="M432 0l-392 1080h180l303 -853l302 853h181l-392 -1080h-182z" />
    <glyph glyph-name="xi" unicode="&#x3be;" horiz-adv-x="1116" 
d="M946 -240q9 114 -22 164.5t-103 63t-187 12.5q-198 0 -320 53.5t-178 149t-56 220.5q0 130 56.5 219t166.5 125q-76 51 -123 132.5t-47 189.5q0 100 39 172.5t106 118.5t151 68t174 22q172 0 294.5 -71t195.5 -185l-137 -117q-54 93 -137.5 148.5t-215.5 55.5
q-121 0 -201 -52.5t-80 -164.5q0 -108 79.5 -165.5t212.5 -64.5q20 -1 52 -1.5t60.5 -0.5h37.5v-170h-19t-41 -1t-103 -4q-99 -4 -173.5 -25t-116.5 -72t-42 -142q0 -100 52 -159t148 -85t228 -27q28 0 65 -1.5t75.5 -5.5t71.5 -13q68 -18 121 -64.5t75 -126t0 -196.5h-159z
" />
    <glyph glyph-name="omicron" unicode="&#x3bf;" horiz-adv-x="1201" 
d="M600 -30q-161 0 -277.5 73t-179.5 202t-63 296q0 170 64 298t181 199.5t275 71.5q162 0 279 -72.5t179.5 -201t62.5 -295.5q0 -169 -63 -297.5t-180 -201t-278 -72.5zM600 139q168 0 250 112t82 290q0 183 -83 291.5t-249 108.5q-113 0 -186 -51t-109 -141t-36 -208
q0 -182 84 -292t247 -110z" />
    <glyph glyph-name="pi" unicode="&#x3c0;" horiz-adv-x="1322" 
d="M260 0v918h-200v162h1202v-162h-200v-918h-178v918h-446v-918h-178z" />
    <glyph glyph-name="rho" unicode="&#x3c1;" horiz-adv-x="1220" 
d="M139 -480v951q0 54 2 101t7 85q17 133 79.5 235t166.5 160t246 58q162 0 273.5 -74.5t169 -203t57.5 -289.5q0 -163 -58 -293t-166.5 -205t-259.5 -75q-111 0 -199 43.5t-139 113.5v-607h-179zM635 133q108 0 180 53t108 145.5t36 210.5q0 119 -35.5 210.5t-107.5 143
t-181 51.5t-179.5 -51t-104.5 -142.5t-34 -211.5t35 -212.5t105.5 -144.5t177.5 -52z" />
    <glyph glyph-name="uni03C2" unicode="&#x3c2;" horiz-adv-x="1122" 
d="M856 -240q5 116 -29.5 165t-105.5 60t-177 15q-102 4 -179 33.5t-131.5 79t-88 113.5t-49.5 138t-16 152q0 186 62 319t176.5 204t274.5 71q174 0 297 -83t167 -231l-176 -53q-35 94 -110.5 146t-181.5 52q-107 0 -175 -52.5t-101 -144t-34 -207.5q0 -61 12 -126t45 -120
t96.5 -89t166.5 -35q24 0 64 -0.5t84 -4.5t80 -15q70 -19 118 -68t67.5 -128.5t2.5 -190.5h-159z" />
    <glyph glyph-name="sigma" unicode="&#x3c3;" horiz-adv-x="1231" 
d="M600 -30q-157 0 -274 73t-181.5 198.5t-64.5 284.5q0 141 49.5 254.5t140.5 188.5t216 99q46 10 105.5 11t128.5 1h461v-162h-308l51 50q89 -64 143 -180.5t54 -261.5q0 -159 -64.5 -285t-182 -198.5t-274.5 -72.5zM600 139q165 0 248.5 109t83.5 278q0 168 -84 276.5
t-248 108.5q-111 1 -184.5 -50.5t-110 -139t-36.5 -195.5q0 -173 86 -280t245 -107z" />
    <glyph glyph-name="tau" unicode="&#x3c4;" horiz-adv-x="1060" 
d="M677 -9q-63 10 -118.5 40t-93.5 96q-34 62 -36.5 127t-2.5 154v510h-376v162h930v-162h-376v-502q0 -68 1 -113t21 -82q22 -37 54.5 -54t71.5 -22q42 -3 89.5 -1t88.5 9v-153q-37 -9 -82.5 -13t-90.5 -2.5t-80 6.5z" />
    <glyph glyph-name="upsilon" unicode="&#x3c5;" horiz-adv-x="1186" 
d="M120 493v587h180v-541q0 -76 14 -147t47.5 -128t90 -90t141.5 -33q86 0 142.5 33t90 90t47 128t13.5 147v541h180v-587q0 -74 -12 -149t-42.5 -141.5t-84 -118.5t-135.5 -82t-199 -30q-116 0 -198 30t-136 82t-84 118.5t-42.5 141.5t-12.5 149z" />
    <glyph glyph-name="phi" unicode="&#x3c6;" horiz-adv-x="1482" 
d="M650 -450v430q-158 -25 -287.5 34.5t-206 193t-76.5 331.5q0 199 76.5 333t206 193.5t287.5 34.5v329h162v-329q158 25 287.5 -34.5t206 -193.5t76.5 -333q0 -198 -76.5 -331.5t-206 -193t-287.5 -34.5v-430h-162zM650 143v793q-81 14 -151 -4.5t-123 -68.5t-83 -131
t-30 -193q0 -111 30.5 -192t84 -130.5t123.5 -68t149 -5.5zM812 143q79 -13 149 5t124 67.5t84 130.5t30 193q0 113 -29.5 194t-82.5 131t-123.5 68t-151.5 4v-793z" />
    <glyph glyph-name="chi" unicode="&#x3c7;" horiz-adv-x="1072" 
d="M20 0l413 546l-404 534h212l296 -396l293 396h212l-404 -534l414 -546h-213l-302 408l-304 -408h-213z" />
    <glyph glyph-name="psi" unicode="&#x3c8;" horiz-adv-x="1416" 
d="M622 -450v406q-115 4 -211.5 42.5t-165 111.5t-99.5 180q-17 54 -21.5 102t-4.5 76v612h169v-547q0 -24 2 -70t14 -95q20 -81 66.5 -135t111.5 -82t139 -29v958h172v-958q76 1 142 31t112.5 86t64.5 137q11 46 12.5 90.5t1.5 66.5v547h169v-612q0 -32 -3.5 -77t-22.5 -99
q-31 -105 -98.5 -178.5t-164 -113.5t-213.5 -44v-406h-172z" />
    <glyph glyph-name="omega" unicode="&#x3c9;" horiz-adv-x="1567" 
d="M491 -31q-136 0 -227.5 69.5t-137.5 188.5t-46 267q0 205 83.5 362.5t251.5 253.5l116 -146q-139 -88 -200.5 -196.5t-61.5 -264.5q0 -103 27 -185.5t81 -130.5t134 -48q85 0 125.5 50t52 132.5t11.5 181.5v183h167v-183q0 -99 12 -181.5t52 -132.5t125 -50
q83 0 136.5 49.5t79.5 132t26 182.5q0 160 -62.5 267.5t-199.5 193.5l116 146q172 -98 253.5 -256.5t81.5 -360.5q0 -150 -46.5 -268.5t-138 -187t-225.5 -68.5q-107 0 -193.5 56t-117.5 185h35q-29 -129 -115.5 -185t-194.5 -56z" />
    <glyph glyph-name="iotadieresis" unicode="&#x3ca;" horiz-adv-x="725" 
d="M355 1276v180h180v-180h-180zM-37 1276v180h180v-180h-180zM412 -9q-64 10 -119 40t-93 96q-35 62 -37 127t-2 154v672h178v-664q0 -68 1 -113t21 -82q21 -37 53.5 -54t72.5 -22q42 -3 89 -1t89 9v-153q-37 -9 -83 -13t-91 -2.5t-79 6.5z" />
    <glyph glyph-name="upsilondieresis" unicode="&#x3cb;" horiz-adv-x="1186" 
d="M699 1276v180h180v-180h-180zM307 1276v180h180v-180h-180zM120 493v587h180v-541q0 -76 14 -147t47.5 -128t90 -90t141.5 -33q86 0 142.5 33t90 90t47 128t13.5 147v541h180v-587q0 -74 -12 -149t-42.5 -141.5t-84 -118.5t-135.5 -82t-199 -30q-116 0 -198 30t-136 82
t-84 118.5t-42.5 141.5t-12.5 149z" />
    <glyph glyph-name="omicrontonos" unicode="&#x3cc;" horiz-adv-x="1201" 
d="M673 1245h-145l131 330h145zM600 -30q-161 0 -277.5 73t-179.5 202t-63 296q0 170 64 298t181 199.5t275 71.5q162 0 279 -72.5t179.5 -201t62.5 -295.5q0 -169 -63 -297.5t-180 -201t-278 -72.5zM600 139q168 0 250 112t82 290q0 183 -83 291.5t-249 108.5
q-113 0 -186 -51t-109 -141t-36 -208q0 -182 84 -292t247 -110z" />
    <glyph glyph-name="upsilontonos" unicode="&#x3cd;" horiz-adv-x="1186" 
d="M638 1245h-145l131 330h145zM120 493v587h180v-541q0 -76 14 -147t47.5 -128t90 -90t141.5 -33q86 0 142.5 33t90 90t47 128t13.5 147v541h180v-587q0 -74 -12 -149t-42.5 -141.5t-84 -118.5t-135.5 -82t-199 -30q-116 0 -198 30t-136 82t-84 118.5t-42.5 141.5
t-12.5 149z" />
    <glyph glyph-name="omegatonos" unicode="&#x3ce;" horiz-adv-x="1567" 
d="M820 1245h-145l131 330h145zM491 -31q-136 0 -227.5 69.5t-137.5 188.5t-46 267q0 205 83.5 362.5t251.5 253.5l116 -146q-139 -88 -200.5 -196.5t-61.5 -264.5q0 -103 27 -185.5t81 -130.5t134 -48q85 0 125.5 50t52 132.5t11.5 181.5v183h167v-183q0 -99 12 -181.5
t52 -132.5t125 -50q83 0 136.5 49.5t79.5 132t26 182.5q0 160 -62.5 267.5t-199.5 193.5l116 146q172 -98 253.5 -256.5t81.5 -360.5q0 -150 -46.5 -268.5t-138 -187t-225.5 -68.5q-107 0 -193.5 56t-117.5 185h35q-29 -129 -115.5 -185t-194.5 -56z" />
    <glyph glyph-name="uni0400" unicode="&#x400;" horiz-adv-x="1150" 
d="M550 1605l-131 330h145l131 -330h-145zM140 0v1440h910v-169h-732v-451h612v-169h-612v-482h732v-169h-910z" />
    <glyph glyph-name="uni0401" unicode="&#x401;" horiz-adv-x="1150" 
d="M685 1636v180h180v-180h-180zM293 1636v180h180v-180h-180zM140 0v1440h910v-169h-732v-451h612v-169h-612v-482h732v-169h-910z" />
    <glyph glyph-name="uni0402" unicode="&#x402;" horiz-adv-x="1312" 
d="M150 0v1278h-150v162h630v-162h-321v-335q66 85 170.5 126t237.5 41q247 0 381 -137t134 -410q0 -169 -55 -296t-169.5 -197t-291.5 -70v180q116 0 190.5 48.5t110 136t35.5 204.5q0 132 -42.5 213t-122 118t-190.5 37q-138 0 -225.5 -54.5t-119.5 -161.5
q-14 -51 -18.5 -110t-4.5 -114v-497h-179z" />
    <glyph glyph-name="uni0403" unicode="&#x403;" horiz-adv-x="1070" 
d="M544 1605h-145l131 330h145zM140 0v1440h910v-169h-732v-1271h-178z" />
    <glyph glyph-name="uni0404" unicode="&#x404;" horiz-adv-x="1437" 
d="M743 -30q-213 0 -362 100t-226 270t-75 380q3 224 81 393t225.5 263t356.5 94q247 0 413.5 -129.5t220.5 -366.5l-180 -26q-39 162 -155.5 255.5t-289.5 95.5q-145 2 -248 -60.5t-161 -174.5t-71 -259h523v-169h-522q6 -87 30 -169.5t80 -157.5q64 -86 161 -126.5
t208 -42.5q162 -2 279 89t161 244l175 -45q-40 -148 -127 -250t-213 -155t-284 -53z" />
    <glyph glyph-name="uni0405" unicode="&#x405;" horiz-adv-x="1260" 
d="M651 -30q-153 0 -275.5 52t-202 148.5t-103.5 228.5l184 29q35 -136 145.5 -212.5t260.5 -76.5q97 0 175.5 30.5t124.5 87.5t46 135q0 48 -16.5 82.5t-45 59t-64.5 41.5t-75 28l-367 109q-60 18 -116 45.5t-100 69t-70 100t-26 138.5q0 128 66.5 218.5t180.5 138.5
t257 47q145 -1 259.5 -51.5t190 -144.5t101.5 -225l-189 -33q-15 88 -66.5 151.5t-128.5 98t-169 35.5q-88 1 -159 -28t-113 -80.5t-42 -118.5q0 -66 38 -106.5t93.5 -64t108.5 -38.5l274 -79q47 -13 108.5 -36t119.5 -64.5t96 -110t38 -172.5t-41.5 -185t-115.5 -135.5
t-172 -83t-210 -28.5z" />
    <glyph glyph-name="uni0406" unicode="&#x406;" 
d="M160 0v1440h178v-1440h-178z" />
    <glyph glyph-name="uni0407" unicode="&#x407;" 
d="M355 1636v180h180v-180h-180zM-37 1636v180h180v-180h-180zM160 0v1440h178v-1440h-178z" />
    <glyph glyph-name="uni0408" unicode="&#x408;" horiz-adv-x="952" 
d="M400 -29q-151 0 -256 82t-144 220l177 42q16 -73 77.5 -124t141.5 -51q52 0 106 25.5t83 83.5q20 40 23 88.5t3 114.5v988h180v-988q0 -62 -0.5 -111t-10 -93.5t-36.5 -90.5q-54 -95 -144.5 -140.5t-199.5 -45.5z" />
    <glyph glyph-name="uni0409" unicode="&#x409;" horiz-adv-x="2186" 
d="M1075 0v1440h178v-532h391q21 0 50 -1.5t56 -6.5q116 -18 195.5 -80t120 -156.5t40.5 -209.5q0 -114 -40 -208.5t-119.5 -157t-196.5 -80.5q-27 -4 -56 -6t-50 -2h-569zM1253 169h385q19 0 43.5 2t46.5 7q69 16 112.5 58.5t63.5 100t20 117.5t-20 117.5t-63.5 100.5
t-112.5 58q-22 6 -46.5 7.5t-43.5 1.5h-385v-570zM20 0v155q53 -5 88 5t57.5 43t39.5 96.5t33 165.5q21 120 35 242.5t24.5 246t17.5 246t12 240.5h927v-1440h-178v1271h-580q-6 -91 -12.5 -194.5t-16.5 -215.5t-24 -231t-35 -242q-17 -99 -40.5 -181t-65 -137t-109 -75
t-173.5 5z" />
    <glyph glyph-name="uni040A" unicode="&#x40a;" horiz-adv-x="2146" 
d="M140 0v1440h178v-533h808v-169h-808v-738h-178zM1035 0v1440h178v-532h391q21 0 50 -1.5t56 -6.5q116 -18 195.5 -80t120 -156.5t40.5 -209.5q0 -114 -40 -208.5t-119.5 -157t-196.5 -80.5q-27 -4 -56 -6t-50 -2h-569zM1213 169h385q19 0 43.5 2t46.5 7q69 16 112.5 58.5
t63.5 100t20 117.5t-20 117.5t-63.5 100.5t-112.5 58q-22 6 -46.5 7.5t-43.5 1.5h-385v-570z" />
    <glyph glyph-name="uni040B" unicode="&#x40b;" horiz-adv-x="1313" 
d="M0 1278v162h630v-162h-630zM319 1440v-664l-40 63q66 50 166.5 79t221.5 29q186 0 297 -69.5t160 -192.5t49 -282v-403h-180v344q0 92 -15.5 170.5t-54.5 137t-107.5 91t-175.5 32.5q-127 0 -218 -39.5t-134 -86.5l31 119v-768h-179v1440h179z" />
    <glyph glyph-name="uni040C" unicode="&#x40c;" horiz-adv-x="1223" 
d="M140 0v1440h178v-676l630 676h224l-654 -699l705 -741h-230l-675 704v-704h-178zM704 1605h-145l131 330h145z" />
    <glyph glyph-name="uni040D" unicode="&#x40d;" horiz-adv-x="1391" 
d="M140 0v1440h180v-1125l751 1125h180v-1440h-180v1126l-751 -1126h-180zM646 1605l-131 330h145l131 -330h-145z" />
    <glyph glyph-name="uni040E" unicode="&#x40e;" horiz-adv-x="1255" 
d="M631 1566q-75 0 -137 37t-99 99t-37 137h144q0 -53 38 -91t91 -38q54 0 91.5 38t37.5 91h144q0 -75 -36.5 -137t-98.5 -99t-138 -37zM365 0l172 357l-507 1083h199l401 -893l410 893h190l-672 -1440h-193z" />
    <glyph glyph-name="uni040F" unicode="&#x40f;" horiz-adv-x="1490" 
d="M656 -240v240h-516v1440h178v-1271h854v1271h178v-1440h-516v-240h-178z" />
    <glyph glyph-name="uni0410" unicode="&#x410;" horiz-adv-x="1292" 
d="M40 0l482 1440h248l482 -1440h-185l-451 1336h56l-447 -1336h-185zM272 337v167h748v-167h-748z" />
    <glyph glyph-name="uni0411" unicode="&#x411;" horiz-adv-x="1231" 
d="M140 0v1440h914v-169h-736v-383h391q21 0 50 -1.5t56 -5.5q114 -14 193.5 -75.5t121 -155.5t41.5 -206q0 -111 -41 -205t-120.5 -155.5t-194.5 -76.5q-27 -3 -56 -5t-50 -2h-569zM318 169h385q19 0 43.5 2t46.5 6q104 21 150 99.5t46 167.5q0 91 -46 168.5t-150 98.5
q-22 5 -46.5 6.5t-43.5 1.5h-385v-550z" />
    <glyph glyph-name="uni0412" unicode="&#x412;" horiz-adv-x="1238" 
d="M140 0v1440h561q129 0 220.5 -53t140 -139.5t48.5 -186.5q0 -117 -60 -205t-162 -121l-2 49q139 -37 216 -136t77 -236q0 -126 -51.5 -218t-148 -143t-228.5 -51h-611zM320 170h397q80 0 143 29.5t99.5 83.5t36.5 130q0 73 -32.5 131t-91 92.5t-135.5 34.5h-417v-501z
M320 839h379q64 0 115.5 27.5t82 77.5t30.5 117q0 93 -63 152t-165 59h-379v-433z" />
    <glyph glyph-name="uni0413" unicode="&#x413;" horiz-adv-x="1070" 
d="M140 0v1440h910v-169h-732v-1271h-178z" />
    <glyph glyph-name="uni0414" unicode="&#x414;" horiz-adv-x="1485" 
d="M70 -240v409q79 0 128.5 40t77.5 108.5t42.5 154.5t23.5 178q13 130 21.5 252t15.5 253t16 286l905 -1v-1271h105v-409h-178v240h-979v-240h-178zM382 169h740v1102l-562 1q-6 -116 -11.5 -222.5t-13.5 -214.5t-20 -229q-11 -112 -24.5 -193.5t-38.5 -140t-70 -103.5z
" />
    <glyph glyph-name="uni0415" unicode="&#x415;" horiz-adv-x="1150" 
d="M140 0v1440h910v-169h-732v-451h612v-169h-612v-482h732v-169h-910z" />
    <glyph glyph-name="uni0416" unicode="&#x416;" horiz-adv-x="1798" 
d="M20 0l606 741l-555 699h219l520 -666v666h178v-666l520 666h219l-555 -699l606 -741h-225l-565 694v-694h-178v694l-565 -694h-225z" />
    <glyph glyph-name="uni0417" unicode="&#x417;" horiz-adv-x="1228" 
d="M617 -30q-148 0 -257.5 43.5t-181 114t-108.5 151.5l158 98q24 -63 74.5 -117t130 -87t191.5 -33q114 0 191 35.5t115.5 97t38.5 141.5q0 91 -45 140.5t-120.5 70t-166.5 23.5q-71 3 -102 4t-41.5 1h-19.5v170h38t61 0.5t51 1.5q134 7 213 68.5t79 169.5q0 112 -80.5 175
t-209.5 63q-122 0 -207.5 -57t-136.5 -147l-137 117q70 111 194.5 183.5t291.5 72.5q92 0 177.5 -24.5t152 -74t105.5 -125t39 -178.5q0 -111 -47 -197t-123 -133q105 -35 164 -116t59 -210q0 -135 -68.5 -234t-190.5 -153.5t-282 -54.5z" />
    <glyph glyph-name="uni0418" unicode="&#x418;" horiz-adv-x="1391" 
d="M1251 0h-180v1126l-751 -1126h-180v1440h180v-1125l751 1125h180v-1440z" />
    <glyph glyph-name="uni0419" unicode="&#x419;" horiz-adv-x="1391" 
d="M140 0v1440h180v-1125l751 1125h180v-1440h-180v1126l-751 -1126h-180zM703 1566q-76 0 -137.5 37t-98.5 98.5t-37 137.5h144q0 -53 38 -91t91 -38q54 0 91.5 38t37.5 91h144q0 -76 -36.5 -137.5t-99 -98.5t-137.5 -37z" />
    <glyph glyph-name="uni041A" unicode="&#x41a;" horiz-adv-x="1223" 
d="M140 0v1440h178v-676l630 676h224l-654 -699l705 -741h-230l-675 704v-704h-178z" />
    <glyph glyph-name="uni041B" unicode="&#x41b;" horiz-adv-x="1414" 
d="M40 0v155q53 -5 88 5t57.5 43t39.5 96.5t33 165.5q21 120 35 242.5t24.5 246t17.5 246t12 240.5h927v-1440h-178v1271h-580q-6 -91 -12.5 -194.5t-16.5 -215.5t-24 -231t-35 -242q-17 -99 -40.5 -181t-65 -137t-109 -75t-173.5 5z" />
    <glyph glyph-name="uni041C" unicode="&#x41c;" horiz-adv-x="1691" 
d="M140 0v1440h162l544 -1147l541 1147h164v-1439h-169v1048l-489 -1049h-95l-489 1049v-1049h-169z" />
    <glyph glyph-name="uni041D" unicode="&#x41d;" horiz-adv-x="1394" 
d="M140 0v1440h178v-635h758v635h178v-1440h-178v636h-758v-636h-178z" />
    <glyph glyph-name="uni041E" unicode="&#x41e;" horiz-adv-x="1464" 
d="M732 -30q-215 0 -365 95t-228.5 264t-78.5 391t78.5 391t228.5 264t365 95q216 0 366 -95t228 -264t78 -391t-78 -391t-228 -264t-366 -95zM732 140q161 -1 268.5 72.5t161 204.5t53.5 303q0 173 -53.5 303t-161 203t-268.5 74t-267.5 -72t-160.5 -204t-55 -304
q-1 -172 53 -302t161.5 -203.5t268.5 -74.5z" />
    <glyph glyph-name="uni041F" unicode="&#x41f;" horiz-adv-x="1404" 
d="M140 0v1440h1124v-1440h-178v1271h-768v-1271h-178z" />
    <glyph glyph-name="uni0420" unicode="&#x420;" horiz-adv-x="1231" 
d="M140 0v1440h569q21 0 50 -1.5t56 -6.5q117 -18 196.5 -80t119.5 -156.5t40 -209.5q0 -114 -40.5 -208.5t-120 -157t-195.5 -80.5q-27 -4 -56 -6t-50 -2h-391v-532h-178zM318 701h385q19 0 43.5 2t46.5 7q69 16 112.5 58.5t63.5 100t20 117.5t-20 117.5t-63.5 100.5
t-112.5 58q-22 6 -46.5 7.5t-43.5 1.5h-385v-570z" />
    <glyph glyph-name="uni0421" unicode="&#x421;" horiz-adv-x="1446" 
d="M732 -30q-215 0 -365 95t-228.5 264t-78.5 391t78.5 391t228.5 264t365 95q250 0 411.5 -127t222.5 -342l-181 -48q-44 161 -157 254t-296 93q-161 0 -268 -73t-161 -203.5t-55 -303.5q-1 -172 53 -302.5t162 -204t269 -73.5q183 0 296 93.5t157 253.5l181 -48
q-61 -214 -222.5 -341.5t-411.5 -127.5z" />
    <glyph glyph-name="uni0422" unicode="&#x422;" horiz-adv-x="1200" 
d="M511 0v1271h-491v169h1160v-169h-491v-1271h-178z" />
    <glyph glyph-name="uni0423" unicode="&#x423;" horiz-adv-x="1255" 
d="M365 0l172 357l-507 1083h199l401 -893l410 893h190l-672 -1440h-193z" />
    <glyph glyph-name="uni0424" unicode="&#x424;" horiz-adv-x="1440" 
d="M631 0v196q-111 -19 -213.5 10t-183 101.5t-127.5 187.5t-47 268q0 154 47 269.5t127.5 189t183 103t213.5 10.5v105h177v-105q111 19 214 -10.5t183.5 -103t127.5 -189t47 -269.5q0 -153 -47 -268t-127.5 -187.5t-183.5 -101.5t-214 -10v-196h-177zM631 363v808
q-92 14 -164.5 -12.5t-122 -84t-75.5 -137.5t-26 -174q0 -93 26 -172t75.5 -135t122 -81t164.5 -12zM808 363q93 -13 165 12.5t122 80.5t76 133.5t26 169.5q0 92 -26 172.5t-76 139t-122 86.5t-165 14v-808z" />
    <glyph glyph-name="uni0425" unicode="&#x425;" horiz-adv-x="1245" 
d="M20 0l495 729l-482 711h217l373 -561l372 561h218l-482 -711l494 -729h-217l-385 578l-385 -578h-218z" />
    <glyph glyph-name="uni0426" unicode="&#x426;" horiz-adv-x="1455" 
d="M1257 -200v200h-1117v1440h178v-1278h784v1258h178v-1258h155v-362h-178z" />
    <glyph glyph-name="uni0427" unicode="&#x427;" horiz-adv-x="1313" 
d="M994 0v664l40 -63q-65 -49 -165.5 -78.5t-222.5 -29.5q-185 0 -296 70t-160.5 192.5t-49.5 281.5v403h180v-344q0 -91 15.5 -169.5t54.5 -137.5t108 -91.5t175 -32.5q128 0 219.5 40t132.5 86l-31 -119v768h179v-1440h-179z" />
    <glyph glyph-name="uni0428" unicode="&#x428;" horiz-adv-x="1840" 
d="M140 0v1440h178v-1271h513v1271h178v-1271h513v1271h178v-1440h-1560z" />
    <glyph glyph-name="uni0429" unicode="&#x429;" horiz-adv-x="1875" 
d="M1677 -200v200h-140v162h318v-362h-178zM140 0v1440h178v-1271h513v1271h178v-1271h513v1271h178v-1440h-1560z" />
    <glyph glyph-name="uni042A" unicode="&#x42a;" horiz-adv-x="1263" 
d="M180 0v1293h-190v147h368v-532h391q21 0 50 -1.5t56 -6.5q116 -18 195.5 -80t120 -156.5t40.5 -209.5q0 -114 -40 -208.5t-119.5 -157t-196.5 -80.5q-27 -4 -56 -6t-50 -2h-569zM358 169h385q19 0 43.5 2t46.5 7q69 16 112.5 58.5t63.5 100t20 117.5t-20 117.5
t-63.5 100.5t-112.5 58q-22 6 -46.5 7.5t-43.5 1.5h-385v-570z" />
    <glyph glyph-name="uni042B" unicode="&#x42b;" horiz-adv-x="1630" 
d="M139 0v1440h178v-532h391q21 0 50 -1.5t56 -6.5q116 -18 195.5 -80t120 -156.5t40.5 -209.5q0 -114 -40 -208.5t-119.5 -157t-196.5 -80.5q-27 -4 -56 -6t-50 -2h-569zM317 169h385q19 0 43.5 2t46.5 7q69 16 112.5 58.5t63.5 100t20 117.5t-20 117.5t-63.5 100.5
t-112.5 58q-22 6 -46.5 7.5t-43.5 1.5h-385v-570zM1312 0v1440h178v-1440h-178z" />
    <glyph glyph-name="uni042C" unicode="&#x42c;" horiz-adv-x="1250" 
d="M139 0v1440h178v-532h391q21 0 50 -1.5t56 -6.5q116 -18 195.5 -80t120 -156.5t40.5 -209.5q0 -114 -40 -208.5t-119.5 -157t-196.5 -80.5q-27 -4 -56 -6t-50 -2h-569zM317 169h385q19 0 43.5 2t46.5 7q69 16 112.5 58.5t63.5 100t20 117.5t-20 117.5t-63.5 100.5
t-112.5 58q-22 6 -46.5 7.5t-43.5 1.5h-385v-570z" />
    <glyph glyph-name="uni042D" unicode="&#x42d;" horiz-adv-x="1417" 
d="M694 -30q-157 0 -283.5 53t-213.5 155t-127 250l175 45q46 -153 162 -244t278 -89q111 2 208.5 42.5t160.5 126.5q58 75 81 157.5t29 169.5h-522v169h523q-12 147 -70.5 259t-161 174.5t-248.5 60.5q-172 -2 -289 -95.5t-156 -255.5l-180 26q54 237 221 366.5t413 129.5
q210 0 357 -94t225.5 -263t80.5 -393q3 -210 -74 -380t-226.5 -270t-362.5 -100z" />
    <glyph glyph-name="uni042E" unicode="&#x42e;" horiz-adv-x="1854" 
d="M140 0v1440h178v-631h354v-178h-354v-631h-178zM1207 -30q-143 0 -253 57t-184 159t-112 239t-38 295q0 160 38 296t112 238t184 158.5t253 56.5q144 0 253.5 -56.5t183.5 -158.5t112 -238t38 -296q0 -162 -38 -299t-112 -238.5t-183.5 -157t-253.5 -55.5zM1207 140
q100 0 174.5 45t124 124.5t74.5 185t25 225.5q1 121 -23.5 226t-74 184.5t-125 124t-175.5 44.5t-174.5 -44.5t-123.5 -124t-74 -184.5t-26 -226q0 -120 24.5 -225.5t74 -185t124.5 -124.5t175 -45z" />
    <glyph glyph-name="uni042F" unicode="&#x42f;" horiz-adv-x="1281" 
d="M1141 0h-178v532h-443l-68 11q-168 31 -255 153.5t-87 289.5q0 115 40.5 209.5t120 156.5t195.5 80q28 5 56.5 6.5t49.5 1.5h569v-1440zM284 0h-204l312 640l176 -54zM963 701v570h-385q-18 0 -42.5 -1.5t-47.5 -7.5q-69 -15 -112 -58t-63.5 -100.5t-20.5 -117.5
t20.5 -117.5t63.5 -100t112 -58.5q23 -5 47.5 -7t42.5 -2h385z" />
    <glyph glyph-name="uni0430" unicode="&#x430;" horiz-adv-x="1125" 
d="M447 -30q-121 0 -202.5 44.5t-123 117.5t-41.5 160q0 85 32.5 147.5t91.5 104t141 65.5q77 21 172.5 36.5t193.5 28.5t183 25l-64 -37q3 144 -57.5 213t-208.5 69q-98 0 -171.5 -44.5t-103.5 -144.5l-169 51q39 142 151 223t295 81q147 0 252.5 -52.5t151.5 -158.5
q23 -50 29 -108.5t6 -122.5v-668h-158v259l37 -24q-61 -131 -170.5 -198t-266.5 -67zM474 119q96 0 166.5 34.5t113.5 91t56 123.5q15 50 16.5 111.5t1.5 94.5l62 -27q-87 -12 -171 -23t-159 -23.5t-135 -29.5q-44 -14 -82.5 -36t-62 -56.5t-23.5 -85.5q0 -44 22.5 -84
t70 -65t124.5 -25z" />
    <glyph glyph-name="uni0431" unicode="&#x431;" horiz-adv-x="1177" 
d="M579 -31q-153 1 -261 66.5t-168 192.5t-67 311q-4 85 2.5 187t22 196t39.5 155q27 73 76.5 135.5t111.5 103.5q63 43 141 67t163.5 37.5t171.5 24t164 25.5l18 -160q-55 -12 -130 -20.5t-155.5 -19.5t-154 -30.5t-126.5 -53.5q-78 -47 -119.5 -140.5t-50.5 -209.5
q62 96 161 141t211 45q145 0 250 -67.5t161.5 -185.5t56.5 -269q0 -160 -64 -280t-180.5 -186t-273.5 -65zM590 138q157 0 238 97.5t81 259.5q0 166 -84 261.5t-236 95.5q-154 0 -235.5 -95.5t-81.5 -261.5q0 -167 82 -262t236 -95z" />
    <glyph glyph-name="uni0432" unicode="&#x432;" horiz-adv-x="1087" 
d="M139 0v1080h460q41 0 88.5 -4.5t86.5 -15.5q87 -23 143.5 -94.5t56.5 -180.5q0 -61 -18.5 -106t-52.5 -78q-15 -15 -33 -27t-36 -19q35 -6 71 -27q57 -31 89.5 -87t32.5 -143q0 -110 -53 -181.5t-146 -98.5q-39 -11 -86 -14.5t-91 -3.5h-512zM319 145h322q21 0 50.5 4
t52.5 10q52 15 75.5 56t23.5 89q0 64 -35.5 104t-93.5 50q-21 6 -45.5 7t-43.5 1h-306v-321zM319 613h268q28 0 59 3.5t54 12.5q46 17 67.5 56.5t21.5 86.5q0 52 -23.5 91.5t-71.5 54.5q-32 12 -71.5 13.5t-50.5 1.5h-253v-320z" />
    <glyph glyph-name="uni0433" unicode="&#x433;" horiz-adv-x="940" 
d="M140 0v1080h750v-169h-572v-911h-178z" />
    <glyph glyph-name="uni0434" unicode="&#x434;" horiz-adv-x="1220" 
d="M60 -240v387q91 0 130 59.5t63 196.5q16 86 26 184t17.5 218.5t14.5 274.5h744v-933h105v-387h-170v240h-760v-240h-170zM334 147h543v786h-405q-3 -71 -8 -148.5t-11.5 -154.5t-15 -145.5t-19.5 -122.5q-13 -75 -30 -127t-54 -88z" />
    <glyph glyph-name="uni0435" unicode="&#x435;" horiz-adv-x="1181" 
d="M608 -30q-159 0 -277.5 70.5t-184.5 197t-66 295.5q0 177 65 306.5t181.5 200t273.5 70.5q163 0 277.5 -75t172 -214t49.5 -331h-180v64q-3 199 -81 297.5t-232 98.5q-165 0 -251 -106t-86 -304q0 -191 86 -296t245 -105q107 0 186 49t124 141l171 -59
q-63 -143 -189.5 -221.5t-283.5 -78.5zM209 490v143h798v-143h-798z" />
    <glyph glyph-name="uni0436" unicode="&#x436;" horiz-adv-x="1442" 
d="M20 0l436 540l-415 540h198l401 -530v530h162v-530l401 530h198l-415 -540l436 -540h-207l-413 530v-530h-162v530l-413 -530h-207z" />
    <glyph glyph-name="uni0437" unicode="&#x437;" horiz-adv-x="1022" 
d="M527 -30q-160 0 -283 69.5t-194 191.5l142 92q59 -89 141 -136.5t187 -47.5q110 0 175 50.5t65 136.5q0 64 -32 98t-92 47t-143 13h-112v147h111q105 0 171 34t66 116q0 84 -61.5 122.5t-146.5 38.5q-90 0 -172 -37.5t-141 -94.5l-108 121q84 86 193.5 132.5t238.5 46.5
q104 0 190.5 -36.5t138 -107t51.5 -171.5q0 -86 -40 -153t-118 -117l-7 63q66 -16 109.5 -58.5t64.5 -100.5t21 -121q0 -106 -55.5 -181.5t-149.5 -116t-210 -40.5z" />
    <glyph glyph-name="uni0438" unicode="&#x438;" horiz-adv-x="1164" 
d="M1024 1080v-1080h-172v796l-566 -796h-147v1080h172v-785l567 785h146z" />
    <glyph glyph-name="uni0439" unicode="&#x439;" horiz-adv-x="1164" 
d="M605 1206q-75 0 -137 37t-99 98.5t-37 137.5h144q0 -53 38 -91t91 -38q54 0 91.5 38t37.5 91h144q0 -76 -36.5 -137.5t-99 -98.5t-137.5 -37zM1024 1080v-1080h-172v796l-566 -796h-147v1080h172v-785l567 785h146z" />
    <glyph glyph-name="uni043A" unicode="&#x43a;" horiz-adv-x="1020" 
d="M139 0l1 1080h180v-520l453 520h231l-477 -540l533 -540h-249l-491 520v-520h-181z" />
    <glyph glyph-name="uni043B" unicode="&#x43b;" horiz-adv-x="1171" 
d="M40 0v153q60 -11 91.5 4.5t47 55t25.5 99.5q17 95 29.5 212t23 256.5t19.5 299.5h755v-1080h-178v911h-415q-6 -92 -14.5 -189t-17.5 -188.5t-19.5 -170t-22.5 -135.5q-19 -98 -53 -156.5t-98 -76t-173 4.5z" />
    <glyph glyph-name="uni043C" unicode="&#x43c;" horiz-adv-x="1405" 
d="M139 0v1080h153l410 -838l410 838h153v-1080h-172v709l-344 -709h-94l-344 709v-709h-172z" />
    <glyph glyph-name="uni043D" unicode="&#x43d;" horiz-adv-x="1203" 
d="M139 0v1080h178v-455h568v455h178v-1080h-178v456h-568v-456h-178z" />
    <glyph glyph-name="uni043E" unicode="&#x43e;" horiz-adv-x="1201" 
d="M600 -30q-161 0 -277.5 73t-179.5 202t-63 296q0 170 64 298t181 199.5t275 71.5q162 0 279 -72.5t179.5 -201t62.5 -295.5q0 -169 -63 -297.5t-180 -201t-278 -72.5zM600 139q168 0 250 112t82 290q0 183 -83 291.5t-249 108.5q-113 0 -186 -51t-109 -141t-36 -208
q0 -182 84 -292t247 -110z" />
    <glyph glyph-name="uni043F" unicode="&#x43f;" horiz-adv-x="1164" 
d="M139 0v1080h885v-1080h-178v911h-529v-911h-178z" />
    <glyph glyph-name="uni0440" unicode="&#x440;" horiz-adv-x="1200" 
d="M636 -30q-152 0 -256 75.5t-157.5 205t-53.5 290.5q0 163 53.5 292t158 203t256.5 74q150 0 258.5 -74.5t166.5 -203.5t58 -291t-58 -291t-166.5 -204.5t-259.5 -75.5zM139 -480v1560h159v-795h20v-765h-179zM614 133q107 0 177 54t105 146.5t35 207.5q0 114 -34.5 206
t-106 146t-181.5 54q-105 0 -174 -51.5t-103 -143t-34 -211.5q0 -118 33.5 -210.5t103.5 -145t179 -52.5z" />
    <glyph glyph-name="uni0441" unicode="&#x441;" horiz-adv-x="1122" 
d="M595 -30q-164 0 -278.5 73.5t-174.5 202.5t-62 294q2 169 63.5 297.5t176.5 200.5t277 72q171 0 294.5 -84t165.5 -230l-176 -53q-34 94 -110.5 146t-175.5 52q-111 0 -183 -51.5t-107 -142t-36 -207.5q2 -180 83.5 -290.5t242.5 -110.5q106 0 176 48.5t106 140.5
l180 -47q-56 -151 -175 -231t-287 -80z" />
    <glyph glyph-name="uni0442" unicode="&#x442;" horiz-adv-x="1030" 
d="M426 0v918h-376v162h930v-162h-376v-918h-178z" />
    <glyph glyph-name="uni0443" unicode="&#x443;" horiz-adv-x="1076" 
d="M290 -480l209 568l3 -168l-472 1160h187l370 -933h-64l347 933h181l-588 -1560h-173z" />
    <glyph glyph-name="uni0444" unicode="&#x444;" horiz-adv-x="1462" 
d="M650 -450v430q-158 -25 -287.5 34.5t-206 193t-76.5 331.5q0 199 76.5 333t206 193.5t287.5 34.5v329h162v-329q158 25 287.5 -34.5t206 -193.5t76.5 -333q0 -198 -76.5 -331.5t-206 -193t-287.5 -34.5v-430h-162zM650 143v793q-81 14 -151 -4.5t-123 -68.5t-83 -131
t-30 -193q0 -111 30.5 -192t84 -130.5t123.5 -68t149 -5.5zM812 143q79 -13 149 5t124 67.5t84 130.5t30 193q0 113 -29.5 194t-82.5 131t-123.5 68t-151.5 4v-793z" />
    <glyph glyph-name="uni0445" unicode="&#x445;" horiz-adv-x="1072" 
d="M20 0l413 546l-404 534h212l296 -396l293 396h212l-404 -534l414 -546h-213l-302 408l-304 -408h-213z" />
    <glyph glyph-name="uni0446" unicode="&#x446;" horiz-adv-x="1258" 
d="M1060 -200v200h-921v1080h178v-911h529v911h178v-918h214v-362h-178z" />
    <glyph glyph-name="uni0447" unicode="&#x447;" horiz-adv-x="1109" 
d="M790 0v389q-54 -27 -130.5 -46t-163.5 -19q-165 0 -266 74t-132 213q-9 42 -12.5 87t-4.5 82t-1 54v246h180v-246q0 -29 2 -71.5t10 -82.5q20 -99 83.5 -149t179.5 -50q78 0 144 20t111 53v526h179v-1080h-179z" />
    <glyph glyph-name="uni0448" unicode="&#x448;" horiz-adv-x="1538" 
d="M139 0v1080h172v-918h372v918h172v-918h371v918h172v-1080h-1259z" />
    <glyph glyph-name="uni0449" unicode="&#x449;" horiz-adv-x="1546" 
d="M1348 -200v200h-1209v1080h172v-918h372v918h172v-918h371v918h172v-918h128v-362h-178z" />
    <glyph glyph-name="uni044A" unicode="&#x44a;" horiz-adv-x="1143" 
d="M191 0l-1 933h-150v147h329v-391h233q47 0 96 -2t85 -9q84 -16 147 -56t98 -108.5t35 -169.5q0 -140 -72.5 -221.5t-189.5 -108.5q-40 -9 -91.5 -11.5t-97.5 -2.5h-421zM369 147h246q30 0 67 2t66 10q51 15 91.5 59t40.5 126q0 83 -39.5 128t-103.5 59q-29 7 -61 9t-61 2
h-246v-395z" />
    <glyph glyph-name="uni044B" unicode="&#x44b;" horiz-adv-x="1386" 
d="M140 0l-1 1080h179v-391h165q47 0 96 -2t85 -9q84 -17 147 -57t98 -108t35 -169q0 -140 -72.5 -221.5t-189.5 -108.5q-40 -9 -91.5 -11.5t-97.5 -2.5h-353zM318 147h178q30 0 67 2t66 10q51 15 91.5 59t40.5 126q0 83 -39.5 128t-103.5 59q-29 7 -61 9t-61 2h-178v-395z
M1068 0v1080h178v-1080h-178z" />
    <glyph glyph-name="uni044C" unicode="&#x44c;" horiz-adv-x="1092" 
d="M140 0l-1 1080h179v-391h233q47 0 96 -2t85 -9q84 -16 147 -56t98 -108.5t35 -169.5q0 -140 -72.5 -221.5t-189.5 -108.5q-40 -9 -91.5 -11.5t-97.5 -2.5h-421zM318 147h246q30 0 67 2t66 10q51 15 91.5 59t40.5 126q0 83 -39.5 128t-103.5 59q-29 7 -61 9t-61 2h-246
v-395z" />
    <glyph glyph-name="uni044D" unicode="&#x44d;" horiz-adv-x="1123" 
d="M529 -30q-167 0 -286 80t-177 231l180 47q37 -92 107.5 -140.5t174.5 -48.5q145 0 225 89.5t95 238.5h-442v147h442q-14 145 -92 236t-224 91q-101 0 -177.5 -51t-112.5 -147l-176 53q43 146 167 230t297 84q160 0 275 -72t176.5 -201t61.5 -298q0 -168 -61 -296
t-176 -200.5t-277 -72.5z" />
    <glyph glyph-name="uni044E" unicode="&#x44e;" horiz-adv-x="1622" 
d="M1021 -30q-138 0 -243.5 59t-169.5 167t-80 255h-211v-451h-178v1080h178v-451h210q16 150 81 258t171 165.5t244 57.5q161 0 277.5 -73t179 -201t62.5 -294q0 -169 -63.5 -298t-180 -201.5t-277.5 -72.5zM1018 139q170 0 252.5 111.5t82.5 290.5q0 184 -83.5 292
t-250.5 108q-161 0 -245 -107t-84 -292q0 -183 83.5 -293t244.5 -110z" />
    <glyph glyph-name="uni044F" unicode="&#x44f;" horiz-adv-x="1126" 
d="M807 0v391h-233q-41 0 -90.5 3.5t-92.5 10.5q-117 22 -197.5 103t-80.5 224q0 139 75.5 223.5t186.5 109.5q50 12 101.5 13.5t87.5 1.5h421l1 -1080h-179zM80 0l287 440h192l-287 -440h-192zM561 538h246v395h-246q-23 0 -60.5 -2t-71.5 -12q-32 -9 -62.5 -33t-50.5 -62
t-20 -90q0 -75 42 -121.5t102 -62.5q33 -8 65.5 -10t55.5 -2z" />
    <glyph glyph-name="uni0450" unicode="&#x450;" horiz-adv-x="1181" 
d="M538 1245l-131 330h145l131 -330h-145zM608 -30q-159 0 -277.5 70.5t-184.5 197t-66 295.5q0 177 65 306.5t181.5 200t273.5 70.5q163 0 277.5 -75t172 -214t49.5 -331h-180v64q-3 199 -81 297.5t-232 98.5q-165 0 -251 -106t-86 -304q0 -191 86 -296t245 -105
q107 0 186 49t124 141l171 -59q-63 -143 -189.5 -221.5t-283.5 -78.5zM209 490v143h798v-143h-798z" />
    <glyph glyph-name="uni0451" unicode="&#x451;" horiz-adv-x="1181" 
d="M706 1276v180h180v-180h-180zM314 1276v180h180v-180h-180zM608 -30q-159 0 -277.5 70.5t-184.5 197t-66 295.5q0 177 65 306.5t181.5 200t273.5 70.5q163 0 277.5 -75t172 -214t49.5 -331h-180v64q-3 199 -81 297.5t-232 98.5q-165 0 -251 -106t-86 -304q0 -191 86 -296
t245 -105q107 0 186 49t124 141l171 -59q-63 -143 -189.5 -221.5t-283.5 -78.5zM209 490v143h798v-143h-798z" />
    <glyph glyph-name="uni0452" unicode="&#x452;" horiz-adv-x="1209" 
d="M931 -412q-48 -10 -101.5 -4.5t-87.5 13.5v136q36 -4 66.5 -3t53 14.5t35 45.5t12.5 89v662q0 77 -13.5 148t-47 127.5t-90 89.5t-142.5 33q-67 0 -121.5 -22.5t-93.5 -68.5t-60.5 -115.5t-21.5 -163.5v-569h-179v1180h-122v146h122v114h159v-114h231v-146h-231v-243
q60 85 152.5 128t207.5 43q105 0 179 -33t123 -87.5t77 -122t39.5 -137t11.5 -131.5v-780q0 -100 -41 -156.5t-117 -72.5z" />
    <glyph glyph-name="uni0453" unicode="&#x453;" horiz-adv-x="940" 
d="M524 1245h-145l131 330h145zM140 0v1080h750v-169h-572v-911h-178z" />
    <glyph glyph-name="uni0454" unicode="&#x454;" horiz-adv-x="1123" 
d="M594 -30q-161 0 -276 72.5t-176.5 200.5t-61.5 296q0 169 62 298t176.5 201t274.5 72q175 0 298.5 -84t165.5 -230l-176 -53q-35 96 -111.5 147t-178.5 51q-145 0 -223 -91t-93 -236h442v-147h-442q16 -149 96 -238.5t224 -89.5q106 0 176 48.5t106 140.5l180 -47
q-56 -151 -175 -231t-288 -80z" />
    <glyph glyph-name="uni0455" unicode="&#x455;" horiz-adv-x="1061" 
d="M548 -29q-193 0 -316.5 84.5t-151.5 236.5l182 29q22 -88 101 -139.5t196 -51.5q111 0 174 46t63 125q0 46 -21 74.5t-86.5 53.5t-197.5 60q-143 38 -225 79t-117 95t-35 131q0 95 52 166.5t145.5 110.5t217.5 39q123 0 220 -39t156.5 -110.5t70.5 -166.5l-182 -33
q-13 87 -83.5 137t-181.5 53q-105 4 -170.5 -37t-65.5 -111q0 -39 24.5 -67t91 -53t193.5 -57q143 -36 225.5 -78.5t117.5 -100t35 -141.5q0 -156 -115 -245.5t-317 -89.5z" />
    <glyph glyph-name="uni0456" unicode="&#x456;" 
d="M160 1271v184h178v-184h-178zM160 0v1080h178v-1080h-178z" />
    <glyph glyph-name="uni0457" unicode="&#x457;" 
d="M355 1276v180h180v-180h-180zM-37 1276v180h180v-180h-180zM160 0v1080h178v-1080h-178z" />
    <glyph glyph-name="uni0458" unicode="&#x458;" horiz-adv-x="526" 
d="M-20 -480v170h58q78 0 119 39t41 124v1227h178v-1288q0 -133 -68.5 -202.5t-202.5 -69.5h-125zM198 1271v184h178v-184h-178z" />
    <glyph glyph-name="uni0459" unicode="&#x459;" horiz-adv-x="1687" 
d="M40 0v153q60 -11 91.5 4.5t46.5 54.5t26 100q17 95 30 212t23 256.5t19 299.5h705v-391h165q45 0 91 -1t90 -10q77 -14 141 -53t101.5 -107.5t37.5 -170.5q0 -145 -75 -227t-187 -106q-50 -10 -103.5 -12t-85.5 -2h-353l-1 911h-364q-6 -92 -14.5 -189t-17.5 -188.5
t-19.5 -170t-22.5 -135.5q-19 -98 -53 -156.5t-98 -76t-173 4.5zM981 147h178q33 0 67.5 2t65.5 10q33 9 63 31.5t49.5 61t19.5 95.5q0 81 -40 125.5t-103 58.5q-33 8 -67.5 9.5t-54.5 1.5h-178v-395z" />
    <glyph glyph-name="uni045A" unicode="&#x45a;" horiz-adv-x="1629" 
d="M139 0v1080h178v-391h427v391h179v-391h165q45 0 91 -1t90 -10q77 -14 141 -53t101.5 -107.5t37.5 -170.5q0 -145 -75 -227t-187 -106q-50 -10 -103.5 -12t-85.5 -2h-353l-1 542h-427v-542h-178zM923 147h178q33 0 67.5 2t65.5 10q33 9 63 31.5t49.5 61t19.5 95.5
q0 81 -40 125.5t-103 58.5q-33 8 -67.5 9.5t-54.5 1.5h-178v-395z" />
    <glyph glyph-name="uni045B" unicode="&#x45b;" horiz-adv-x="1209" 
d="M18 1180v146h512v-146h-512zM909 0v541q0 77 -13.5 148t-47 127.5t-90 89.5t-142.5 33q-67 0 -121.5 -22.5t-93.5 -68.5t-60.5 -115.5t-21.5 -163.5l-117 36q0 157 56.5 269.5t159 173t241.5 60.5q105 0 179 -33t123 -87.5t77 -122t39.5 -137t11.5 -131.5v-597h-180z
M139 0v1440h160v-795h20v-645h-180z" />
    <glyph glyph-name="uni045C" unicode="&#x45c;" horiz-adv-x="1020" 
d="M557 1245h-145l131 330h145zM139 0l1 1080h180v-520l453 520h231l-477 -540l533 -540h-249l-491 520v-520h-181z" />
    <glyph glyph-name="uni045D" unicode="&#x45d;" horiz-adv-x="1164" 
d="M590 1245l-131 330h145l131 -330h-145zM1024 1080v-1080h-172v796l-566 -796h-147v1080h172v-785l567 785h146z" />
    <glyph glyph-name="uni045E" unicode="&#x45e;" horiz-adv-x="1076" 
d="M573 1206q-75 0 -137 37t-99 99t-37 137h144q0 -53 38 -91t91 -38q54 0 91.5 38t37.5 91h144q0 -75 -36.5 -137t-98.5 -99t-138 -37zM290 -480l209 568l3 -168l-472 1160h187l370 -933h-64l347 933h181l-588 -1560h-173z" />
    <glyph glyph-name="uni045F" unicode="&#x45f;" horiz-adv-x="1164" 
d="M512 -240v240h-373v1080h178v-911h529v911h178v-1080h-334v-240h-178z" />
    <glyph glyph-name="uni0490" unicode="&#x490;" horiz-adv-x="1090" 
d="M140 0v1440h752v200h178v-369h-752v-1271h-178z" />
    <glyph glyph-name="uni0491" unicode="&#x491;" horiz-adv-x="940" 
d="M140 0v1080h572v200h178v-369h-572v-911h-178z" />
    <glyph glyph-name="Ustraitcy" unicode="&#x4ae;" horiz-adv-x="1149" 
d="M485 0v599l-485 841h207l368 -637l367 637h207l-484 -841v-599h-180z" />
    <glyph glyph-name="ustraitcy" unicode="&#x4af;" horiz-adv-x="1046" 
d="M432 -360v360l-392 1080h181l302 -853l303 853h180l-392 -1080v-360h-182z" />
    <glyph glyph-name="uni04BA" unicode="&#x4ba;" horiz-adv-x="1313" 
d="M319 1440v-664l-40 63q66 50 166.5 79t221.5 29q186 0 297 -69.5t160 -192.5t49 -282v-403h-180v344q0 92 -15.5 170.5t-54.5 137t-107.5 91t-175.5 32.5q-127 0 -218 -39.5t-134 -86.5l31 119v-768h-179v1440h179z" />
    <glyph glyph-name="uni04BB" unicode="&#x4bb;" horiz-adv-x="1129" 
d="M339 1080v-389q55 28 131.5 46.5t162.5 18.5q165 0 267 -73.5t131 -213.5q9 -41 13 -86t4.5 -82.5t0.5 -54.5v-246h-180v246q0 31 -1.5 73t-10.5 81q-19 100 -82.5 149.5t-180.5 49.5q-77 0 -143 -20t-112 -53v-526h-179v1080h179z" />
    <glyph glyph-name="uni04E8" unicode="&#x4e8;" horiz-adv-x="1504" 
d="M210 631v178h1070v-178h-1070zM732 -30q-215 0 -365 95t-228.5 264t-78.5 391t78.5 391t228.5 264t365 95q216 0 366 -95t228 -264t78 -391t-78 -391t-228 -264t-366 -95zM732 140q161 -1 268.5 72.5t161 204.5t53.5 303q0 173 -53.5 303t-161 203t-268.5 74t-267.5 -72
t-160.5 -204t-55 -304q-1 -172 53 -302t161.5 -203.5t268.5 -74.5z" />
    <glyph glyph-name="uni04E9" unicode="&#x4e9;" horiz-adv-x="1201" 
d="M179 467v147h852v-147h-852zM600 -30q-161 0 -277.5 73t-179.5 202t-63 296q0 170 64 298t181 199.5t275 71.5q162 0 279 -72.5t179.5 -201t62.5 -295.5q0 -169 -63 -297.5t-180 -201t-278 -72.5zM600 139q168 0 250 112t82 290q0 183 -83 291.5t-249 108.5
q-113 0 -186 -51t-109 -141t-36 -208q0 -182 84 -292t247 -110z" />
    <glyph glyph-name="uni2011" unicode="&#x2011;" horiz-adv-x="840" 
d="M120 557v147h600v-147h-600z" />
    <glyph glyph-name="endash" unicode="&#x2013;" horiz-adv-x="1080" 
d="M120 557v147h840v-147h-840z" />
    <glyph glyph-name="emdash" unicode="&#x2014;" horiz-adv-x="1560" 
d="M120 557v147h1320v-147h-1320z" />
    <glyph glyph-name="quoteleft" unicode="&#x2018;" horiz-adv-x="485" 
d="M335 990q-93 -17 -144.5 36t-51.5 158v256h196v-226h-103q-3 -40 3 -73t27 -52t62 -16z" />
    <glyph glyph-name="quoteright" unicode="&#x2019;" horiz-adv-x="485" 
d="M150 990l11 83q42 -3 63 16t27 52t2 73h-103v226h196v-256q0 -105 -51.5 -158t-144.5 -36z" />
    <glyph glyph-name="quotesinglbase" unicode="&#x201a;" horiz-adv-x="556" 
d="M120 -224l11 83q42 -3 63 16t27 52t2 73h-103v226h196v-256q0 -105 -51.5 -158t-144.5 -36z" />
    <glyph glyph-name="quotedblleft" unicode="&#x201c;" horiz-adv-x="797" 
d="M637 1448l-11 -83q-41 3 -62 -16t-27 -52t-3 -73h103v-226h-196v256q0 105 51.5 158.5t144.5 35.5zM356 1448l-11 -83q-41 3 -62 -16t-27 -52t-3 -73h103v-226h-196v256q0 105 51.5 158.5t144.5 35.5z" />
    <glyph glyph-name="quotedblright" unicode="&#x201d;" horiz-adv-x="797" 
d="M160 1000l11 83q42 -3 63 16t27 52t2 73h-103v226h196v-256q0 -105 -51.5 -158t-144.5 -36zM441 1000l11 83q42 -3 63 16t27 52t2 73h-103v226h196v-256q0 -105 -51.5 -158t-144.5 -36z" />
    <glyph glyph-name="quotedblbase" unicode="&#x201e;" horiz-adv-x="797" 
d="M160 -224l11 83q42 -3 63 16t27 52t2 73h-103v226h196v-256q0 -105 -51.5 -158t-144.5 -36zM441 -224l11 83q42 -3 63 16t27 52t2 73h-103v226h196v-256q0 -105 -51.5 -158t-144.5 -36z" />
    <glyph glyph-name="uni201F" unicode="&#x201f;" horiz-adv-x="797" 
d="M637 1000q-93 -17 -144.5 36t-51.5 158v256h196v-226h-103q-3 -40 3 -73t27 -52t62 -16zM356 1000q-93 -17 -144.5 36t-51.5 158v256h196v-226h-103q-3 -40 3 -73t27 -52t62 -16z" />
    <glyph glyph-name="dagger" unicode="&#x2020;" horiz-adv-x="1080" 
d="M451 0v1440h178v-1440h-178zM120 933v147h840v-147h-840z" />
    <glyph glyph-name="daggerdbl" unicode="&#x2021;" horiz-adv-x="854" 
d="M338 0v549l90 -90h-307v147h307l-90 -90v458l90 -90h-307v147h307l-90 -90v499h178v-499l-90 90h308v-147h-308l90 90v-458l-90 90h308v-147h-308l90 90v-549h-178z" />
    <glyph glyph-name="bullet" unicode="&#x2022;" horiz-adv-x="1340" 
d="M675 380q-71 0 -128.5 33t-92 89.5t-34.5 127.5t34.5 128t92 89.5t128.5 32.5q66 0 122 -32.5t89.5 -89.5t33.5 -128t-33.5 -127.5t-89.5 -89.5t-122 -33z" />
    <glyph glyph-name="ellipsis" unicode="&#x2026;" horiz-adv-x="1316" 
d="M160 0v196h196v-196h-196zM560 0v196h196v-196h-196zM960 0v196h196v-196h-196z" />
    <glyph glyph-name="perthousand" unicode="&#x2030;" horiz-adv-x="2632" 
d="M300 0l-120 120l1322 1320l120 -120zM1322 -30q-99 0 -180.5 48.5t-130.5 130t-49 181.5q0 98 50 180t132 131t178 49q99 0 181 -48.5t130.5 -130t48.5 -181.5t-48.5 -181.5t-130.5 -130t-181 -48.5zM1322 127q55 0 101.5 28t74 74t27.5 101t-27.5 101.5t-74 74
t-101.5 27.5t-101 -27.5t-74 -74t-28 -101.5t28 -101t74 -74t101 -28zM480 750q-99 0 -181 48.5t-130.5 130t-48.5 181.5q0 98 50 180t132 131t178 49q99 0 180.5 -48.5t130.5 -130t49 -181.5t-49 -181.5t-130.5 -130t-180.5 -48.5zM480 907q55 0 101.5 28t74 74t27.5 101
t-27.5 101.5t-74 74t-101.5 27.5t-101 -27.5t-74 -74t-28 -101.5t28 -101t74 -74t101 -28zM2152 -30q-99 0 -180.5 48.5t-130.5 130t-49 181.5q0 98 50 180t132 131t178 49q99 0 181 -48.5t130.5 -130t48.5 -181.5t-48.5 -181.5t-130.5 -130t-181 -48.5zM2152 127
q55 0 101.5 28t74 74t27.5 101t-27.5 101.5t-74 74t-101.5 27.5t-101 -27.5t-74 -74t-28 -101.5t28 -101t74 -74t101 -28z" />
    <glyph glyph-name="guilsinglleft" unicode="&#x2039;" horiz-adv-x="1244" 
d="M753 157l-473 473l473 473l112 -111l-368 -362l368 -362z" />
    <glyph glyph-name="guilsinglright" unicode="&#x203a;" horiz-adv-x="1244" 
d="M491 157l-112 111l368 362l-368 362l112 111l473 -473z" />
    <glyph glyph-name="fraction" unicode="&#x2044;" horiz-adv-x="456" 
d="M-229 0l-114 87l1029 1360l113 -87z" />
    <glyph glyph-name="uni2060" unicode="&#x2060;" horiz-adv-x="0" 
 />
    <glyph glyph-name="uni2070" horiz-adv-x="906" 
d="M453 517q-92 0 -162.5 40.5t-110.5 113.5t-40 170v293q0 96 40 169t110.5 114t162.5 41t162.5 -40.5t110.5 -113t40 -170.5v-293q0 -97 -39 -169.5t-109 -113.5t-165 -41zM453 637q82 0 133.5 56.5t51.5 146.5v296q0 88 -50.5 145t-134.5 57q-80 0 -132 -55.5t-52 -146.5
v-296q0 -87 50.5 -145t133.5 -58z" />
    <glyph glyph-name="uni2074" unicode="&#x2074;" horiz-adv-x="826" 
d="M509 540v159h-409v120l294 621h144l-294 -621h265v246h127v-246h90v-120h-90v-159h-127z" />
    <glyph glyph-name="uni2075" horiz-adv-x="804" 
d="M392 520q-104 0 -184 62.5t-108 161.5l121 32q16 -61 66.5 -97.5t108.5 -36.5q76 0 128.5 53.5t52.5 126.5q0 51 -24.5 92.5t-66 65.5t-90.5 24q-56 0 -95.5 -23t-61.5 -54l-110 40l27 473h486v-118h-422l49 44l-20 -373l-31 41q37 42 88.5 63t105.5 21q84 0 150 -38.5
t104 -105.5t38 -152q0 -83 -42.5 -151.5t-113.5 -109.5t-156 -41z" />
    <glyph glyph-name="uni2076" horiz-adv-x="883" 
d="M452 514q-88 0 -158.5 42t-112 114t-41.5 165v292q0 99 41.5 173.5t114.5 116t168 41.5q73 0 136.5 -27.5t109.5 -82.5l-94 -87q-27 36 -66.5 56.5t-85.5 20.5q-57 0 -101 -27t-68.5 -71.5t-24.5 -96.5v-187l-31 35q39 58 99.5 91t129.5 33q85 0 152 -39t105 -106
t38 -152t-42 -154t-113 -109.5t-156 -40.5zM452 635q76 0 129 53.5t53 129.5t-53 128.5t-129 52.5q-75 0 -128.5 -52.5t-53.5 -128.5q0 -75 53 -129t129 -54z" />
    <glyph glyph-name="uni2077" horiz-adv-x="719" 
d="M164 540l320 780h-404v120h539v-120l-318 -780h-137z" />
    <glyph glyph-name="uni2078" horiz-adv-x="843" 
d="M421 514q-88 0 -156 35.5t-106.5 98.5t-38.5 146t40 149t119 101l-2 -52q-65 34 -99.5 90t-34.5 125q0 116 78 183.5t200 67.5q123 0 200.5 -67.5t77.5 -183.5q0 -69 -33.5 -125t-103.5 -89l1 51q79 -35 119.5 -101t40.5 -149t-38.5 -146t-107 -98.5t-156.5 -35.5z
M421 635q75 0 121 41t46 118q0 80 -46 121t-121 41t-121 -41t-46 -121q0 -77 46.5 -118t120.5 -41zM421 1077q65 0 104.5 32.5t39.5 97.5q0 66 -39.5 98t-104.5 32q-63 0 -103 -32t-40 -98q0 -65 40 -97.5t103 -32.5z" />
    <glyph glyph-name="uni2079" horiz-adv-x="883" 
d="M431 1458q88 0 159 -41t112 -114t41 -166v-292q0 -99 -41 -173.5t-114 -116t-169 -41.5q-72 0 -135.5 28.5t-110.5 81.5l94 87q27 -35 67 -56t85 -21q58 0 101.5 27.5t68 72t24.5 95.5v187l31 -35q-38 -57 -98.5 -90.5t-130.5 -33.5q-85 0 -151.5 39t-105 106.5
t-38.5 151.5q0 85 42.5 154t113 109.5t155.5 40.5zM431 1337q-75 0 -128.5 -53t-53.5 -130q0 -74 53.5 -127.5t128.5 -53.5q76 0 129 53.5t53 127.5q0 75 -52.5 129t-129.5 54z" />
    <glyph glyph-name="uni2080" horiz-adv-x="906" 
d="M453 -23q-92 0 -162.5 40.5t-110.5 113.5t-40 170v293q0 96 40 169t110.5 114t162.5 41t162.5 -40.5t110.5 -113t40 -170.5v-293q0 -97 -39 -169.5t-109 -113.5t-165 -41zM453 97q82 0 133.5 56.5t51.5 146.5v296q0 88 -50.5 145t-134.5 57q-80 0 -132 -55.5t-52 -146.5
v-296q0 -87 50.5 -145t133.5 -58z" />
    <glyph glyph-name="uni2081" horiz-adv-x="658" 
d="M290 0v762l-170 -103v140l170 101h128v-900h-128z" />
    <glyph glyph-name="uni2082" horiz-adv-x="808" 
d="M100 0l1 112l394 355q48 43 65.5 81.5t17.5 76.5q0 75 -48 125.5t-122 50.5q-51 0 -91 -24t-62.5 -64t-21.5 -86h-130q0 87 39.5 153t109 103t158.5 37q85 0 152.5 -38.5t106.5 -105.5t39 -152q0 -61 -16 -104t-48.5 -79.5t-80.5 -79.5l-322 -290l-19 49h486v-120h-608z
" />
    <glyph glyph-name="uni2083" horiz-adv-x="789" 
d="M369 -21q-100 0 -180 56.5t-109 152.5l122 34q19 -60 65 -91t102 -31q77 1 124 50.5t47 125.5q0 78 -47.5 127.5t-124.5 49.5q-22 0 -44.5 -6t-43.5 -16l-60 99l336 300l19 -50h-459v120h541v-121l-283 -270l-3 51q91 5 158 -31.5t103.5 -102.5t36.5 -150
q0 -86 -39.5 -153t-107.5 -105.5t-153 -38.5z" />
    <glyph glyph-name="uni2084" horiz-adv-x="826" 
d="M509 0v159h-409v120l294 621h144l-294 -621h265v246h127v-246h90v-120h-90v-159h-127z" />
    <glyph glyph-name="uni2085" horiz-adv-x="804" 
d="M392 -20q-104 0 -184 62.5t-108 161.5l121 32q16 -61 66.5 -97.5t108.5 -36.5q76 0 128.5 53.5t52.5 126.5q0 51 -24.5 92.5t-66 65.5t-90.5 24q-56 0 -95.5 -23t-61.5 -54l-110 40l27 473h486v-118h-422l49 44l-20 -373l-31 41q37 42 88.5 63t105.5 21q84 0 150 -38.5
t104 -105.5t38 -152q0 -83 -42.5 -151.5t-113.5 -109.5t-156 -41z" />
    <glyph glyph-name="uni2086" horiz-adv-x="883" 
d="M452 -26q-88 0 -158.5 42t-112 114t-41.5 165v292q0 99 41.5 173.5t114.5 116t168 41.5q73 0 136.5 -27.5t109.5 -82.5l-94 -87q-27 36 -66.5 56.5t-85.5 20.5q-57 0 -101 -27t-68.5 -71.5t-24.5 -96.5v-187l-31 35q39 58 99.5 91t129.5 33q85 0 152 -39t105 -106
t38 -152t-42 -154t-113 -109.5t-156 -40.5zM452 95q76 0 129 53.5t53 129.5t-53 128.5t-129 52.5q-75 0 -128.5 -52.5t-53.5 -128.5q0 -75 53 -129t129 -54z" />
    <glyph glyph-name="uni2087" horiz-adv-x="719" 
d="M164 0l320 780h-404v120h539v-120l-318 -780h-137z" />
    <glyph glyph-name="uni2088" horiz-adv-x="843" 
d="M421 -26q-88 0 -156 35.5t-106.5 98.5t-38.5 146t40 149t119 101l-2 -52q-65 34 -99.5 90t-34.5 125q0 116 78 183.5t200 67.5q123 0 200.5 -67.5t77.5 -183.5q0 -69 -33.5 -125t-103.5 -89l1 51q79 -35 119.5 -101t40.5 -149t-38.5 -146t-107 -98.5t-156.5 -35.5z
M421 95q75 0 121 41t46 118q0 80 -46 121t-121 41t-121 -41t-46 -121q0 -77 46.5 -118t120.5 -41zM421 537q65 0 104.5 32.5t39.5 97.5q0 66 -39.5 98t-104.5 32q-63 0 -103 -32t-40 -98q0 -65 40 -97.5t103 -32.5z" />
    <glyph glyph-name="uni2089" horiz-adv-x="883" 
d="M431 918q88 0 159 -41t112 -114t41 -166v-292q0 -99 -41 -173.5t-114 -116t-169 -41.5q-72 0 -135.5 28.5t-110.5 81.5l94 87q27 -35 67 -56t85 -21q58 0 101.5 27.5t68 72t24.5 95.5v187l31 -35q-38 -57 -98.5 -90.5t-130.5 -33.5q-85 0 -151.5 39t-105 106.5
t-38.5 151.5q0 85 42.5 154t113 109.5t155.5 40.5zM431 797q-75 0 -128.5 -53t-53.5 -130q0 -74 53.5 -127.5t128.5 -53.5q76 0 129 53.5t53 127.5q0 75 -52.5 129t-129.5 54z" />
    <glyph glyph-name="Euro" unicode="&#x20ac;" horiz-adv-x="1320" 
d="M888 -30q-212 0 -362.5 97.5t-230.5 267t-80 385.5q5 226 85 394.5t228.5 262t359.5 93.5q96 0 185.5 -22.5t165.5 -68.5l-95 -149q-56 35 -121.5 52.5t-134.5 17.5q-161 1 -268 -72.5t-160.5 -205t-54.5 -302.5q1 -174 55 -304.5t161 -203t267 -72.5q141 -3 258 69
l94 -147q-77 -46 -167 -69t-185 -23zM60 482v147h919v-147h-919zM60 808v147h919v-147h-919z" />
    <glyph glyph-name="trademark" unicode="&#x2122;" horiz-adv-x="1806" 
d="M913 690v750h112l274 -457l274 457h112l1 -750h-130v489l-215 -366h-84l-214 366v-489h-130zM378 690v624h-258v126h651v-126h-257v-624h-136z" />
    <glyph glyph-name="arrowup" unicode="&#x2191;" horiz-adv-x="1426" 
d="M640 0v1194l-309 -309l-91 91l473 473l473 -473l-91 -91l-308 308v-1193h-147z" />
    <glyph glyph-name="arrowdown" unicode="&#x2193;" horiz-adv-x="1426" 
d="M640 1300h147v-1193l308 308l91 -91l-473 -473l-473 473l91 91l309 -309v1194z" />
    <glyph glyph-name="minus" unicode="&#x2212;" horiz-adv-x="1080" 
d="M120 647v147h840v-147h-840z" />
    <glyph glyph-name="uni2215" unicode="&#x2215;" horiz-adv-x="805" 
d="M504 1440h181l-384 -1440h-181z" />
    <glyph glyph-name="i.loclTRK" 
d="M160 1271v184h178v-184h-178zM160 0v1080h178v-1080h-178z" />
    <glyph glyph-name="uni0414.loclBGR" horiz-adv-x="1483" 
d="M70 -170v339h1333v-339h-170v170h-994v-170h-169zM613 1440h248l482 -1440h-185l-423 1251l-419 -1251h-185z" />
    <glyph glyph-name="uni0416.loclBGR" horiz-adv-x="1798" 
d="M20 0l606 741l-555 699h219l520 -666v666h178v-666l520 666h219l-555 -699l606 -741h-225l-565 694v-694h-178v694l-565 -694h-225z" />
    <glyph glyph-name="uni041A.loclBGR" horiz-adv-x="1223" 
d="M140 0v1440h178v-676l630 676h224l-654 -699l705 -741h-230l-675 704v-704h-178z" />
    <glyph glyph-name="uni041B.loclBGR" horiz-adv-x="1232" 
d="M492 1440h248l482 -1440h-185l-423 1251l-419 -1251h-185z" />
    <glyph glyph-name="uni0432.loclBGR" horiz-adv-x="1160" 
d="M611 -30q-176 0 -296 76.5t-158 217.5q-11 43 -14.5 87t-3.5 88v623q0 40 5 81t18 79q27 81 84 136.5t136 83.5t172 28q125 0 220.5 -48.5t149.5 -136.5t54 -207q0 -112 -53 -196.5t-161 -115.5l9 34q58 -5 116.5 -33t106 -77.5t76.5 -120.5t29 -164q0 -131 -59 -228.5
t-168.5 -152t-262.5 -54.5zM619 139q89 0 157 34.5t106 96t38 143.5q0 133 -98 201.5t-263 71.5v160q69 7 122.5 34t84 76t30.5 120q0 107 -67 166t-171 59q-66 0 -125.5 -29.5t-87.5 -99.5q-15 -39 -19 -82.5t-4 -75.5v-585q0 -29 3.5 -65.5t11.5 -64.5q25 -77 107 -118.5
t175 -41.5z" />
    <glyph glyph-name="uni0433.loclBGR" horiz-adv-x="1061" 
d="M513 -29q-201 0 -316.5 89.5t-115.5 245.5q0 84 35.5 141.5t118 100t224.5 78.5q127 32 194 57t91 53t24 67q0 70 -65.5 111t-170.5 37q-110 -3 -180.5 -53t-84.5 -137l-182 33q12 95 71.5 166.5t156 110.5t219.5 39q125 0 218 -39t145 -110.5t52 -166.5
q0 -77 -34.5 -131t-117 -95t-225.5 -79q-132 -35 -197 -60t-86.5 -53.5t-21.5 -74.5q0 -79 63.5 -125t173.5 -46q117 0 196.5 51.5t100.5 139.5l182 -29q-27 -152 -150.5 -236.5t-317.5 -84.5z" />
    <glyph glyph-name="uni0434.loclBGR" horiz-adv-x="1200" 
d="M577 -510q-85 0 -166 26t-148.5 78.5t-112.5 132.5l163 86q40 -79 113.5 -115t151.5 -36q103 0 171 37.5t100.5 111.5t31.5 184v295h21v790h158v-1087q0 -44 -2.5 -85t-10.5 -81q-21 -115 -83 -189.5t-160 -111t-227 -36.5zM564 -30q-151 0 -259 75.5t-166.5 204.5
t-58.5 291t58.5 291t166.5 203.5t258 74.5q153 0 257 -74t157.5 -203t53.5 -292q0 -161 -53.5 -290.5t-157.5 -205t-256 -75.5zM586 133q109 0 179 52.5t103.5 145t33.5 210.5q0 120 -33.5 211.5t-102.5 143t-175 51.5q-110 0 -181.5 -54t-106 -146t-34.5 -206
q0 -115 35 -207.5t105.5 -146.5t176.5 -54z" />
    <glyph glyph-name="uni0436.loclBGR" horiz-adv-x="1466" 
d="M21 0l436 540l-415 540h198l400 -529v889h162v-889l400 529h198l-415 -540l436 -540h-207l-412 529v-529h-162v529l-412 -529h-207z" />
    <glyph glyph-name="uni0437.loclBGR" horiz-adv-x="1248" 
d="M627 -390q-148 0 -257.5 43.5t-181 114t-108.5 151.5l158 98q24 -63 74.5 -117t130 -87t191.5 -33q114 0 191 35.5t115.5 97t38.5 141.5q0 91 -45 140.5t-120.5 70t-166.5 23.5q-71 3 -102 4t-41.5 1h-19.5v170h38t61 0.5t51 1.5q134 7 213 68.5t79 169.5
q0 112 -80.5 175t-209.5 63q-122 0 -207.5 -57t-136.5 -147l-137 117q70 111 194.5 183.5t291.5 72.5q92 0 177.5 -24.5t152 -74t105.5 -125t39 -178.5q0 -111 -47 -197t-123 -133q105 -35 164 -116t59 -210q0 -135 -68.5 -234t-190.5 -153.5t-282 -54.5z" />
    <glyph glyph-name="uni0438.loclBGR" horiz-adv-x="1209" 
d="M550 -28q-104 0 -178.5 33t-123.5 88t-77 122t-39.5 137t-11.5 131v597h180v-541q0 -76 14 -147t47.5 -128t90 -90t141.5 -33q67 0 122 23t94 68.5t60 115.5t21 163l117 -36q0 -156 -56.5 -269t-159 -173.5t-241.5 -60.5zM910 0v289h-20v791h179v-1080h-159z" />
    <glyph glyph-name="uni0439.loclBGR" horiz-adv-x="1209" 
d="M594 1206q-75 0 -137 37t-99 99t-37 137h144q0 -53 38 -91t91 -38q54 0 91.5 38t37.5 91h144q0 -75 -36.5 -137t-98.5 -99t-138 -37zM550 -28q-104 0 -178.5 33t-123.5 88t-77 122t-39.5 137t-11.5 131v597h180v-541q0 -76 14 -147t47.5 -128t90 -90t141.5 -33
q67 0 122 23t94 68.5t60 115.5t21 163l117 -36q0 -156 -56.5 -269t-159 -173.5t-241.5 -60.5zM910 0v289h-20v791h179v-1080h-159z" />
    <glyph glyph-name="uni045D.loclBGR" horiz-adv-x="1179" 
d="M586 1245l-131 330h145l131 -330h-145zM550 -28q-104 0 -178.5 33t-123.5 88t-77 122t-39.5 137t-11.5 131v597h180v-541q0 -76 14 -147t47.5 -128t90 -90t141.5 -33q67 0 122 23t94 68.5t60 115.5t21 163l117 -36q0 -156 -56.5 -269t-159 -173.5t-241.5 -60.5zM910 0
v289h-20v791h179v-1080h-159z" />
    <glyph glyph-name="uni043A.loclBGR" horiz-adv-x="1020" 
d="M139 0l1 1440h180v-880l453 520h231l-477 -540l533 -540h-249l-491 520v-520h-181z" />
    <glyph glyph-name="uni043B.loclBGR" horiz-adv-x="1046" 
d="M432 1080h182l392 -1080h-181l-302 853l-303 -853h-180z" />
    <glyph glyph-name="uni043D.loclBGR" horiz-adv-x="1203" 
d="M139 0v1080h178v-455h568v455h178v-1080h-178v456h-568v-456h-178z" />
    <glyph glyph-name="uni043F.loclBGR" horiz-adv-x="1209" 
d="M909 0v541q0 77 -13.5 148t-47 127.5t-90 89.5t-142.5 33q-67 0 -121.5 -22.5t-93.5 -68.5t-60.5 -115.5t-21.5 -163.5l-117 36q0 157 56.5 269.5t159 173t241.5 60.5q105 0 179 -33t123 -87.5t77 -122t39.5 -137t11.5 -131.5v-597h-180zM139 0v1080h160v-289h20v-791
h-180z" />
    <glyph glyph-name="uni0442.loclBGR" horiz-adv-x="1730" 
d="M1431 0l1 691q0 121 -64.5 189.5t-167.5 68.5q-60 0 -114 -27.5t-88 -86t-34 -149.5l-94 38q-2 115 47.5 201.5t135.5 134.5t194 48q169 0 266 -102.5t97 -275.5l-1 -730h-178zM139 0v1080h159v-289h20v-791h-179zM786 0l1 684q0 124 -64 194.5t-170 70.5
q-105 0 -170 -72t-65 -191l-94 56q0 105 50 188t136 130.5t195 47.5t190 -46t125 -131.5t44 -203.5l-1 -727h-177z" />
    <glyph glyph-name="uni0447.loclBGR" horiz-adv-x="1109" 
d="M790 0v389q-54 -27 -130.5 -46t-163.5 -19q-165 0 -266 74t-132 213q-9 42 -12.5 87t-4.5 82t-1 54v246h180v-246q0 -29 2 -71.5t10 -82.5q20 -99 83.5 -149t179.5 -50q78 0 144 20t111 53v526h179v-1080h-179z" />
    <glyph glyph-name="uni0446.loclBGR" horiz-adv-x="1248" 
d="M910 0v162h318v-332h-178v170h-140zM550 -28q-104 0 -178.5 33t-123.5 88t-77 122t-39.5 137t-11.5 131v597h180v-541q0 -76 14 -147t47.5 -128t90 -90t141.5 -33q67 0 122 23t94 68.5t60 115.5t21 163l117 -36q0 -156 -56.5 -269t-159 -173.5t-241.5 -60.5zM910 0v289
h-20v791h179v-1080h-159z" />
    <glyph glyph-name="uni0448.loclBGR" horiz-adv-x="1730" 
d="M299 1080l-1 -691q0 -120 65.5 -189t166.5 -69q61 0 115 28t87.5 86t33.5 149l94 -38q3 -115 -46.5 -201t-136 -134.5t-194.5 -48.5q-168 0 -265.5 103t-97.5 275l1 730h178zM1591 1080v-1080h-159v289h-20v791h179zM944 1080l-1 -684q0 -122 64.5 -193.5t169.5 -71.5
q106 0 170.5 72.5t64.5 190.5l94 -56q0 -105 -49.5 -187.5t-136 -130.5t-195.5 -48t-189.5 46.5t-125 132t-44.5 202.5l1 727h177z" />
    <glyph glyph-name="uni0449.loclBGR" horiz-adv-x="1769" 
d="M1431 0v162h318v-362h-178v200h-140zM299 1080l-1 -691q0 -120 65.5 -189t166.5 -69q61 0 115 28t87.5 86t33.5 149l94 -38q3 -115 -46.5 -201t-136 -134.5t-194.5 -48.5q-168 0 -265.5 103t-97.5 275l1 730h178zM1591 1080v-1080h-159v289h-20v791h179zM944 1080
l-1 -684q0 -122 64.5 -193.5t169.5 -71.5q106 0 170.5 72.5t64.5 190.5l94 -56q0 -105 -49.5 -187.5t-136 -130.5t-195.5 -48t-189.5 46.5t-125 132t-44.5 202.5l1 727h177z" />
    <glyph glyph-name="uni044C.loclBGR" horiz-adv-x="1092" 
d="M140 0l-1 1080h179v-391h233q47 0 96 -2t85 -9q84 -16 147 -56t98 -108.5t35 -169.5q0 -140 -72.5 -221.5t-189.5 -108.5q-40 -9 -91.5 -11.5t-97.5 -2.5h-421zM318 147h246q30 0 67 2t66 10q51 15 91.5 59t40.5 126q0 83 -39.5 128t-103.5 59q-29 7 -61 9t-61 2h-246
v-395z" />
    <glyph glyph-name="uni044E.loclBGR" horiz-adv-x="1618" 
d="M140 0v1440h178v-1440h-178zM1021 -30q-138 0 -243.5 59t-169.5 167t-80 255h-211v-451h-178v1080h178v-451h210q16 150 81 258t171 165.5t244 57.5q161 0 277.5 -73t179 -201t62.5 -294q0 -169 -63.5 -298t-180 -201.5t-277.5 -72.5zM1018 139q170 0 252.5 111.5
t82.5 290.5q0 184 -83.5 292t-250.5 108q-161 0 -245 -107t-84 -292q0 -183 83.5 -293t244.5 -110z" />
    <glyph glyph-name="uni0431.loclSRB" horiz-adv-x="1177" 
d="M579 -31q-153 1 -261 66.5t-168 192.5t-67 311q-4 85 2.5 187t22 196t39.5 155q27 73 76.5 135.5t111.5 103.5q63 43 141 67t163.5 37.5t171.5 24t164 25.5l18 -160q-55 -12 -130 -20.5t-155.5 -19.5t-154 -30.5t-126.5 -53.5q-78 -47 -119.5 -140.5t-50.5 -209.5
q62 96 161 141t211 45q145 0 250 -67.5t161.5 -185.5t56.5 -269q0 -160 -64 -280t-180.5 -186t-273.5 -65zM590 138q157 0 238 97.5t81 259.5q0 166 -84 261.5t-236 95.5q-154 0 -235.5 -95.5t-81.5 -261.5q0 -167 82 -262t236 -95z" />
    <glyph glyph-name="colon.case" horiz-adv-x="627" 
d="M220 270v196h196v-196h-196zM221 974v196h196v-196h-196z" />
    <glyph glyph-name="exclamdown.case" horiz-adv-x="658" 
d="M240 1440h178v-184h-178v184zM240 1080h178v-1080h-178v1080z" />
    <glyph glyph-name="questiondown.case" horiz-adv-x="1067" 
d="M652 1048q0 -75 -9 -136t-42 -120q-28 -55 -68.5 -90.5t-86 -68.5t-91.5 -82q-38 -44 -52 -89.5t-14 -97.5q0 -44 11 -80t34 -64q36 -44 90 -61.5t111 -17.5q56 0 104.5 15.5t79.5 46.5q34 30 48.5 71.5t13.5 88.5h186q-6 -86 -41 -165t-99 -130q-58 -49 -134 -73
t-154 -24q-102 0 -193 31.5t-153 102.5q-46 52 -69.5 118.5t-23.5 137.5q0 90 36 167t95 138q34 36 72.5 66.5t72.5 60.5t54 65q28 48 30.5 88t2.5 102h189zM651 1440v-219h-188v219h188z" />
    <glyph glyph-name="periodcentered.case" horiz-adv-x="480" 
d="M243 600q-51 0 -87 34.5t-36 85.5q0 52 36 86t87 34q48 0 82.5 -34t34.5 -86q0 -51 -34.5 -85.5t-82.5 -34.5z" />
    <glyph glyph-name="parenleft.case" horiz-adv-x="870" 
d="M653 -306q-117 135 -201 303t-129 353t-43 370q-2 186 43 371t129 352.5t201 302.5l132 -100q-118 -140 -193.5 -291t-111.5 -310.5t-37 -324.5q1 -163 37.5 -323.5t112 -312t192.5 -289.5z" />
    <glyph glyph-name="parenright.case" horiz-adv-x="870" 
d="M217 -306l-132 101q117 138 192.5 289.5t112.5 312t37 323.5q0 165 -36.5 324.5t-112 310.5t-193.5 291l132 100q117 -135 201.5 -302.5t129 -352.5t42.5 -371q2 -185 -42.5 -370t-129 -353t-201.5 -303z" />
    <glyph glyph-name="braceleft.case" horiz-adv-x="859" 
d="M649 -387q-113 0 -182.5 70t-69.5 181v635q0 28 -16 52l-86 121q-15 22 -15 48.5t15 47.5l86 121q16 26 16 52v634q0 112 69.5 182t182.5 70h125v-170h-115q-38 0 -65 -26.5t-27 -65.5v-624q0 -82 -48 -150l-51 -71l51 -71q48 -67 48 -150v-625q0 -38 27 -65t65 -27h115
v-169h-125z" />
    <glyph glyph-name="braceright.case" horiz-adv-x="859" 
d="M210 -387h-125v169h115q39 0 65.5 27t26.5 65v625q0 83 48 150l51 71l-51 71q-48 68 -48 150v624q0 39 -26.5 65.5t-65.5 26.5h-115v170h125q113 0 182.5 -70t69.5 -182v-634q0 -26 16 -52l86 -121q16 -21 16 -47.5t-16 -48.5l-86 -121q-16 -24 -16 -52v-635
q0 -111 -69.5 -181t-182.5 -70z" />
    <glyph glyph-name="bracketleft.case" horiz-adv-x="825" 
d="M280 -387v2214h395v-162h-233v-1890h233v-162h-395z" />
    <glyph glyph-name="bracketright.case" horiz-adv-x="825" 
d="M545 -387h-395v162h233v1890h-233v162h395v-2214z" />
    <glyph glyph-name="hyphen.case" horiz-adv-x="840" 
d="M120 647v147h600v-147h-600z" />
    <glyph glyph-name="endash.case" horiz-adv-x="1080" 
d="M120 647v147h840v-147h-840z" />
    <glyph glyph-name="emdash.case" horiz-adv-x="1560" 
d="M120 647v147h1320v-147h-1320z" />
    <glyph glyph-name="guillemotleft.case" horiz-adv-x="1105" 
d="M873 283l-348 438l348 437l102 -80l-285 -357l285 -358zM508 283l-348 438l348 437l102 -80l-285 -357l285 -358z" />
    <glyph glyph-name="guillemotright.case" horiz-adv-x="1105" 
d="M232 283l-102 80l285 358l-285 357l102 80l348 -437zM597 283l-102 80l285 358l-285 357l102 80l348 -437z" />
    <glyph glyph-name="greater.case" horiz-adv-x="1244" 
d="M491 247l-112 111l368 362l-368 362l112 111l473 -473z" />
    <glyph glyph-name="less.case" horiz-adv-x="1244" 
d="M753 247l-473 473l473 473l112 -111l-368 -362l368 -362z" />
    <glyph glyph-name="at.case" horiz-adv-x="1814" 
d="M908 -30q-161 0 -297.5 55t-237.5 154t-157 233t-56 291q0 178 56.5 319.5t158 241.5t238 153t296.5 53q190 0 332 -59.5t235.5 -162t138 -231.5t38.5 -269q-7 -191 -85 -291t-229 -100q-88 0 -158 41t-95 118l53 -4q-38 -74 -108 -105.5t-145 -31.5q-96 0 -168.5 41.5
t-114 116t-41.5 172.5q0 102 43 176t117 114.5t167 40.5q65 0 135 -27t108 -82l-40 -48v129h120l-2 -342q0 -75 32.5 -118t101.5 -43q53 0 85.5 30t48.5 82.5t18 122.5q5 154 -42 264t-130.5 181t-188 104.5t-216.5 33.5q-145 0 -257.5 -47t-190 -131.5t-117 -196.5
t-37.5 -242q3 -131 48 -239.5t125.5 -186.5t189 -120.5t236.5 -42.5q78 0 155.5 19t139.5 52l52 -134q-82 -42 -172 -63t-183 -21zM896 524q75 0 123.5 43t48.5 139q0 91 -45 137t-123 46q-90 0 -136.5 -48.5t-46.5 -134.5q0 -87 48 -134.5t131 -47.5z" />
    </font>
</defs>
</svg>
