<?xml version="1.0" standalone="no"?>
<!DOCTYPE svg PUBLIC "-//W3C//DTD SVG 1.1//EN" "http://www.w3.org/Graphics/SVG/1.1/DTD/svg11.dtd" >
<svg xmlns="http://www.w3.org/2000/svg" xmlns:xlink="http://www.w3.org/1999/xlink" version="1.1">
<metadata>
Created by FontForge 20170731 at Thu Jul 22 19:47:27 2021
 By Aleksey,,,
Copyright 2019 The Manrope Project Authors (https://github.com/sharanda/manrope)
</metadata>
<defs>
<font id="Manrope-SemiBold" horiz-adv-x="1230" >
  <font-face 
    font-family="Manrope SemiBold"
    font-weight="600"
    font-stretch="normal"
    units-per-em="2000"
    panose-1="0 0 0 0 0 0 0 0 0 0"
    ascent="1600"
    descent="-400"
    x-height="1080"
    cap-height="1440"
    bbox="-324 -590 2508 2043"
    underline-thickness="50"
    underline-position="-175"
    unicode-range="U+000D-2215"
  />
<missing-glyph horiz-adv-x="1480" 
d="M200 0v114h1080v-114h-1080zM200 144v80h1080v-80h-1080zM200 260v74h1080v-74h-1080zM200 374v70h1080v-70h-1080zM200 490v66h1080v-66h-1080zM200 606v60h1080v-60h-1080zM200 720v56h1080v-56h-1080zM200 838v48h1080v-48h-1080zM200 952v44h1080v-44h-1080z
M200 1066v42h1080v-42h-1080zM200 1184v36h1080v-36h-1080zM200 1298v32h1080v-32h-1080zM200 1414v26h1080v-26h-1080z" />
    <glyph glyph-name="parenleft_c_parenright.liga" unicode="&#x28;c&#x29;" horiz-adv-x="1917" 
d="M958 -97q-165 0 -310 62t-254.5 172t-171.5 255t-62 310q0 166 62 310.5t171.5 254.5t254.5 172t310 62q167 0 311.5 -62.5t254 -172t171.5 -254t62 -310.5q0 -165 -62 -310t-171.5 -254.5t-254 -172t-311.5 -62.5zM972 277q-97 0 -169 32t-128 100q-52 66 -73.5 140.5
t-21.5 153.5q1 83 23.5 157t71.5 135q55 67 129 100t176 33q56 0 103 -11t96 -42q53 -31 91.5 -81t54.5 -116l-163 -45q-10 29 -28 55t-45 47q-24 21 -54.5 30t-63.5 9q-51 0 -92.5 -20.5t-71.5 -58.5t-41 -89t-11 -102q0 -54 12.5 -104t39.5 -89q28 -38 70 -58t96 -20
q74 0 120 36q24 20 39 43t27 52l166 -38q-19 -58 -52.5 -104.5t-76.5 -78.5q-45 -32 -98 -49t-126 -17zM959 102q124 0 232.5 46.5t191 129t129 191.5t46.5 234q0 124 -46.5 232.5t-129 191t-191 129t-232.5 46.5q-125 0 -234 -46.5t-191.5 -129t-129 -191t-46.5 -232.5
q0 -125 46.5 -234t129 -191.5t191.5 -129t234 -46.5z" />
    <glyph glyph-name="space_less_three_space.liga" unicode="&#x20;&#x3c;&#x33;&#x20;" horiz-adv-x="2326" 
d="M1163 -30q-72 0 -122 53l-370 390q-72 78 -96.5 172t-8 186.5t67.5 169t131 123t181 46.5q111 0 217 -70q58 39 113 54.5t103 15.5q103 0 183 -47t131 -124.5t67 -170t-8.5 -185.5t-97.5 -170l-369 -390q-49 -53 -122 -53zM1163 139l370 389q54 57 63.5 128t-16 136
t-78 107.5t-123.5 42.5q-51 0 -106 -29t-110 -89q-112 118 -217 118q-72 0 -124 -43.5t-76.5 -109.5t-14 -136.5t63.5 -124.5z" />
    <glyph glyph-name="prnleft_grtr_prnright.liga" unicode="&#x28;&#x3e;&#x29;" horiz-adv-x="2300" 
d="M1013 1060l408 -340l-408 -340v680zM1151 -71q-165 0 -308.5 61t-252.5 169.5t-170 252.5t-61 309q0 164 61 307.5t170 252t252.5 169.5t308.5 61q164 0 307.5 -61t252 -169.5t169.5 -252t61 -307.5q0 -165 -61 -308.5t-169.5 -252.5t-252 -170t-307.5 -61zM1150 -270
q205 0 385 77t316 213t212.5 315.5t76.5 384.5t-76.5 385t-212.5 316t-316 212.5t-385 76.5t-384.5 -76.5t-315.5 -212.5t-213 -316t-77 -385t77 -384.5t213 -315.5t315.5 -213t384.5 -77z" />
    <glyph glyph-name="f_f" unicode="ff" horiz-adv-x="1395" 
d="M239 0v1118q0 41 3 87.5t17.5 92t48.5 83.5q41 45 90 64t97.5 22t89.5 3h136v-172h-126q-74 0 -110.5 -36.5t-36.5 -103.5v-1158h-209zM60 912v168h661v-168h-661zM893 0v1118q0 41 3 87.5t17.5 92t48.5 83.5q41 45 90 64t97.5 22t89.5 3h136v-172h-126
q-74 0 -110.5 -36.5t-36.5 -103.5v-1158h-209zM714 912v168h661v-168h-661z" />
    <glyph glyph-name="f_f_l" unicode="ffl" horiz-adv-x="1989" 
d="M1353 912v168h280v-168h-280zM893 0v1118q0 41 3 87.5t17.5 92t48.5 83.5q41 45 90 64t97.5 22t89.5 3h136v-172h-126q-74 0 -110.5 -36.5t-36.5 -103.5v-1158h-209zM714 912v168h661v-168h-661zM1620 0v1470h209v-1470h-209zM239 0v1118q0 41 3 87.5t17.5 92t48.5 83.5
q41 45 90 64t97.5 22t89.5 3h136v-172h-126q-74 0 -110.5 -36.5t-36.5 -103.5v-1158h-209zM60 912v168h661v-168h-661z" />
    <glyph glyph-name="t_t.liga" unicode="tt" horiz-adv-x="1569" 
d="M758 0q-102 -20 -200 -17t-175 38t-116 110q-35 67 -37.5 136.5t-2.5 157.5v955h210v-945q0 -65 1.5 -113t20.5 -81q36 -62 114.5 -70.5t184.5 6.5v-177zM20 912v168h738v-168h-738zM1483 0q-102 -20 -200 -17t-175 38t-116 110q-35 67 -37.5 136.5t-2.5 157.5v955h210
v-945q0 -65 1.5 -113t20.5 -81q36 -62 114.5 -70.5t184.5 6.5v-177zM745 912v168h738v-168h-738z" />
    <glyph glyph-name="fi" unicode="fi" horiz-adv-x="1300" 
d="M239 0v1118q0 41 3 87.5t17.5 92t48.5 83.5q41 45 90 64t97.5 22t89.5 3h136v-172h-126q-74 0 -110.5 -36.5t-36.5 -103.5v-1158h-209zM60 912v168h661v-168h-661zM931 1257v203h209v-203h-209zM931 0v1080h209v-1080h-209z" />
    <glyph glyph-name="fl" unicode="fl" horiz-adv-x="1335" 
d="M699 912v168h280v-168h-280zM239 0v1118q0 41 3 87.5t17.5 92t48.5 83.5q41 45 90 64t97.5 22t89.5 3h136v-172h-126q-74 0 -110.5 -36.5t-36.5 -103.5v-1158h-209zM60 912v168h661v-168h-661zM966 0v1470h209v-1470h-209z" />
    <glyph glyph-name="hyphen_hyphen.liga" unicode="&#x2d;&#x2d;" horiz-adv-x="1080" 
d="M120 547v168h840v-168h-840z" />
    <glyph glyph-name="hyphen_greater.liga" unicode="&#x2d;&#x3e;" horiz-adv-x="2016" 
d="M280 547v168h1165l-288 288l102 104l477 -477l-477 -477l-102 104l290 290h-1167z" />
    <glyph glyph-name="less_hyphen.liga" unicode="&#x3c;&#x2d;" horiz-adv-x="2016" 
d="M1736 547h-1167l290 -290l-102 -104l-477 477l477 477l102 -104l-288 -288h1165v-168z" />
    <glyph glyph-name=".notdef" horiz-adv-x="1480" 
d="M200 0v114h1080v-114h-1080zM200 144v80h1080v-80h-1080zM200 260v74h1080v-74h-1080zM200 374v70h1080v-70h-1080zM200 490v66h1080v-66h-1080zM200 606v60h1080v-60h-1080zM200 720v56h1080v-56h-1080zM200 838v48h1080v-48h-1080zM200 952v44h1080v-44h-1080z
M200 1066v42h1080v-42h-1080zM200 1184v36h1080v-36h-1080zM200 1298v32h1080v-32h-1080zM200 1414v26h1080v-26h-1080z" />
    <glyph glyph-name=".null" horiz-adv-x="0" 
 />
    <glyph glyph-name="nonmarkingreturn" horiz-adv-x="666" 
 />
    <glyph glyph-name="CR" unicode="&#xd;" horiz-adv-x="1200" 
 />
    <glyph glyph-name="space" unicode=" " horiz-adv-x="400" 
 />
    <glyph glyph-name="exclam" unicode="!" horiz-adv-x="689" 
d="M240 0v203h209v-203h-209zM240 360v1080h209v-1080h-209z" />
    <glyph glyph-name="quotedbl" unicode="&#x22;" horiz-adv-x="884" 
d="M120 1080v360h209v-360h-209zM475 1080v360h209v-360h-209z" />
    <glyph glyph-name="numbersign" unicode="#" horiz-adv-x="1855" 
d="M389 1l108 405h-377l53 199h378l69 263h-377l54 197h376l101 375h205l-101 -375h275l101 375h205l-101 -375h377l-52 -197h-378l-71 -263h377l-52 -199h-378l-108 -405h-204l107 405h-275l-108 -405h-204zM755 605h274l71 263h-275z" />
    <glyph glyph-name="dollar" unicode="$" 
d="M518 -199v234h209v-234h-209zM518 1404v235h209v-235h-209zM633 -30q-150 0 -268 54t-193.5 153.5t-98.5 235.5l207 33q30 -128 128 -203.5t235 -75.5q136 0 221.5 65t85.5 166q0 72 -43.5 117t-141.5 76l-338 104q-300 93 -300 360q0 126 60.5 219t170.5 144t257 51
q141 -2 250.5 -52t182 -144t100.5 -226l-213 -38q-14 77 -58.5 136t-112 92t-151.5 34q-79 2 -141.5 -24.5t-99 -74t-36.5 -107.5q0 -66 51 -112t161 -79l265 -77q182 -54 263 -145t81 -242q0 -132 -65.5 -230.5t-183.5 -154t-275 -55.5z" />
    <glyph glyph-name="percent" unicode="%" horiz-adv-x="1801" 
d="M320 0l-140 140l1301 1300l140 -141zM1321 -30q-99 0 -180.5 48.5t-130.5 130t-49 181.5q0 98 50 180t132 131t178 49q99 0 181 -48.5t130.5 -130t48.5 -181.5t-48.5 -181.5t-130.5 -130t-181 -48.5zM1321 151q49 0 89.5 24.5t65 65.5t24.5 89t-24.5 89t-65 65.5
t-89.5 24.5q-48 0 -88.5 -24.5t-65 -65.5t-24.5 -89t24.5 -89t65 -65.5t88.5 -24.5zM480 750q-99 0 -181 48.5t-130.5 130t-48.5 181.5q0 98 50 180t132 131t178 49q99 0 180.5 -48.5t130.5 -130t49 -181.5t-49 -181.5t-130.5 -130t-180.5 -48.5zM480 931q48 0 89 24.5
t65.5 65.5t24.5 89t-24.5 89t-65.5 65.5t-89 24.5t-88.5 -24.5t-65.5 -65.5t-25 -89t25 -89t65 -65.5t89 -24.5z" />
    <glyph glyph-name="ampersand" unicode="&#x26;" horiz-adv-x="1325" 
d="M613 -30q-121 0 -226 35.5t-176 111.5q-55 61 -81.5 134.5t-29.5 156.5q0 81 23.5 157.5t74.5 136.5q23 28 51 48.5t56 36.5q-64 70 -97 133.5t-33 150.5q0 122 64 219.5t175 140.5q51 21 104 28.5t103 7.5q90 0 174 -26t144 -85q38 -35 64.5 -79t40.5 -90l-206 -48
q-17 48 -56 81q-33 29 -76.5 39.5t-86.5 10.5q-71 0 -128 -27q-52 -25 -78 -68.5t-26 -104.5q0 -54 19 -87t51 -69q19 -21 45.5 -45t54.5 -50l392 -365q2 22 3 47t1 48l-1 187h187v-247q0 -63 -3.5 -113.5t-12.5 -82.5l180 -167l-135 -145l-145 138q-46 -46 -103 -77.5
t-115 -46.5q-49 -15 -96.5 -20t-95.5 -5zM619 170q40 0 74 4.5t65 17.5q42 17 68.5 35t44.5 35l-410 376q-31 -11 -57.5 -28.5t-45.5 -40.5q-23 -29 -34.5 -67.5t-10.5 -82.5q0 -48 15.5 -87.5t40.5 -70.5q40 -48 111.5 -69.5t138.5 -21.5z" />
    <glyph glyph-name="quotesingle" unicode="'" horiz-adv-x="489" 
d="M120 1080v360h209v-360h-209z" />
    <glyph glyph-name="parenleft" unicode="(" horiz-adv-x="888" 
d="M649 -373q-116 135 -200 304.5t-128 356t-41 372.5q-3 186 41 372.5t128 356t200 304.5l156 -116q-120 -142 -193 -291.5t-107 -306t-34 -319.5q0 -162 34 -319t107.5 -307t192.5 -291z" />
    <glyph glyph-name="parenright" unicode=")" horiz-adv-x="888" 
d="M239 -373l-156 116q119 141 192.5 291t107.5 307t34 319q0 163 -34 319.5t-107 306t-193 291.5l156 116q116 -135 200 -304.5t128 -356t41 -372.5q3 -186 -41 -372.5t-128 -356t-200 -304.5z" />
    <glyph glyph-name="asterisk" unicode="*" horiz-adv-x="911" 
d="M293 745l-152 110l152 186l-233 65l58 179l225 -88l-12 243h188l-12 -243l226 88l58 -179l-234 -65l152 -186l-152 -110l-132 200z" />
    <glyph glyph-name="plus" unicode="+" horiz-adv-x="1147" 
d="M490 267v370h-370v168h370v368h168v-368h369v-168h-369v-370h-168z" />
    <glyph glyph-name="comma" unicode="," horiz-adv-x="581" 
d="M120 -239l13 93q43 -3 67 16t32 53t3 77h-115v241h221v-261q0 -118 -56.5 -178t-164.5 -41z" />
    <glyph glyph-name="hyphen" unicode="-" horiz-adv-x="840" 
d="M120 547v168h600v-168h-600z" />
    <glyph glyph-name="period" unicode="." horiz-adv-x="573" 
d="M176 0v221h221v-221h-221z" />
    <glyph glyph-name="slash" unicode="/" horiz-adv-x="835" 
d="M504 1440h211l-384 -1440h-211z" />
    <glyph glyph-name="zero" unicode="0" horiz-adv-x="1284" 
d="M642 -30q-147 0 -260 64.5t-177.5 177.5t-64.5 260v496q0 147 64.5 260t177.5 177.5t260 64.5t260 -64.5t177.5 -177.5t64.5 -260v-496q0 -147 -64.5 -260t-177.5 -177.5t-260 -64.5zM642 170q80 0 145.5 38.5t104.5 104t39 146.5v524q0 80 -39 145.5t-104.5 104
t-145.5 38.5t-145.5 -38.5t-104.5 -104t-39 -145.5v-524q0 -81 39 -146.5t104.5 -104t145.5 -38.5z" />
    <glyph glyph-name="one" unicode="1" horiz-adv-x="844" 
d="M391 0v1210l-271 -165v233l271 162h213v-1440h-213z" />
    <glyph glyph-name="two" unicode="2" horiz-adv-x="1174" 
d="M100 1l1 186l627 562q76 67 103.5 128t27.5 122q0 77 -34 138.5t-94 97.5t-138 36q-80 0 -142.5 -37.5t-97.5 -99.5t-34 -134h-214q0 140 63.5 245.5t174.5 165t254 59.5q136 0 244 -61.5t170.5 -168.5t62.5 -244q0 -99 -26 -168t-78 -128t-130 -128l-484 -432l-23 60
h741v-199h-974z" />
    <glyph glyph-name="three" unicode="3" horiz-adv-x="1144" 
d="M543 -27q-107 0 -201 40.5t-162.5 115.5t-99.5 177l202 56q29 -93 101 -142.5t160 -48.5q79 1 139 37t94 97.5t34 141.5q0 120 -74.5 198t-194.5 78q-34 0 -69.5 -10t-66.5 -26l-98 165l508 449l22 -60h-700v199h866v-199l-422 -406l-2 68q136 0 236 -60.5t154.5 -164
t54.5 -231.5q0 -138 -64.5 -245t-173 -168t-243.5 -61z" />
    <glyph glyph-name="four" unicode="4" horiz-adv-x="1205" 
d="M750 0v251h-650v198l468 991h239l-468 -991h411v390h212v-390h143v-198h-143v-251h-212z" />
    <glyph glyph-name="five" unicode="5" horiz-adv-x="1167" 
d="M567 -30q-111 0 -206.5 45.5t-163.5 126t-97 185.5l201 54q17 -64 58.5 -111t97.5 -72.5t116 -25.5q79 0 143.5 38t102 102t37.5 141q0 79 -38.5 143t-103 101.5t-141.5 37.5q-88 0 -149 -35t-95 -81l-182 64l44 757h777v-197h-670l85 79l-35 -567l-41 53q57 57 136 87
t157 30q134 0 239.5 -62t166.5 -168.5t61 -241.5q0 -134 -69 -243.5t-183 -174.5t-248 -65z" />
    <glyph glyph-name="six" unicode="6" horiz-adv-x="1243" 
d="M635 -30q-140 0 -252 66.5t-177.5 182.5t-65.5 264v459q0 157 65.5 276t182 185t268.5 66q114 0 214 -43t173 -128l-153 -143q-41 53 -102.5 84.5t-131.5 31.5q-90 0 -158 -42.5t-106.5 -111.5t-38.5 -148v-264l-41 46q62 81 154 128t197 47q134 0 239.5 -62.5
t166 -169.5t60.5 -241q0 -135 -67.5 -244.5t-180 -174t-246.5 -64.5zM635 171q78 0 142 38t102 102t38 142t-37.5 142t-101.5 102t-142 38t-142.5 -38t-102.5 -102t-38 -142q0 -77 38 -141t102 -102.5t142 -38.5z" />
    <glyph glyph-name="seven" unicode="7" horiz-adv-x="1046" 
d="M215 0l506 1241h-641v199h866v-199l-505 -1241h-226z" />
    <glyph glyph-name="eight" unicode="8" horiz-adv-x="1203" 
d="M601 -30q-141 0 -249.5 56.5t-170 157.5t-61.5 234q0 124 58 227t173 162l-4 -72q-92 57 -141.5 142.5t-49.5 191.5q0 123 57 213t157.5 139t230.5 49t230 -49t157 -139t57 -213q0 -106 -47 -191t-144 -143l-3 70q114 -56 173 -159.5t59 -227.5q0 -133 -62 -234
t-171 -157.5t-249 -56.5zM601 169q116 0 188 63.5t72 185.5t-71.5 186.5t-188.5 64.5t-188.5 -64.5t-71.5 -186.5t72 -185.5t188 -63.5zM601 869q99 0 160.5 49.5t61.5 150.5t-61.5 151.5t-160.5 50.5t-161 -50.5t-62 -151.5t62 -150.5t161 -49.5z" />
    <glyph glyph-name="nine" unicode="9" horiz-adv-x="1243" 
d="M608 1469q139 0 251 -66.5t178 -182.5t66 -265v-458q0 -158 -65.5 -276.5t-182 -184.5t-268.5 -66q-114 0 -214 43t-174 128l154 143q41 -53 103 -85t131 -32q89 0 157.5 43t106.5 112t38 148v264l42 -46q-62 -81 -154 -128t-197 -47q-135 0 -240 62t-166 169t-61 242
t68 244t180 174t247 65zM608 1267q-78 0 -142.5 -37.5t-102.5 -101.5t-38 -142t38 -142.5t102 -102.5t142 -38t142 38t102 102.5t38 142.5q0 77 -37.5 141t-101.5 102t-142 38z" />
    <glyph glyph-name="colon" unicode=":" horiz-adv-x="656" 
d="M220 140v221h221v-221h-221zM221 719v221h221v-221h-221z" />
    <glyph glyph-name="semicolon" unicode=";" horiz-adv-x="661" 
d="M220 -239l13 93q43 -3 67 16t32 53t3 77h-115v241h221v-261q0 -118 -56.5 -178t-164.5 -41zM220 859v221h221v-221h-221z" />
    <glyph glyph-name="less" unicode="&#x3c;" horiz-adv-x="1259" 
d="M757 153l-477 477l477 477l130 -130l-354 -347l354 -347z" />
    <glyph glyph-name="equal" unicode="=" horiz-adv-x="1500" 
d="M240 819v168h1020v-168h-1020zM240 453v168h1020v-168h-1020z" />
    <glyph glyph-name="greater" unicode="&#x3e;" horiz-adv-x="1259" 
d="M503 153l-131 130l355 347l-355 347l131 130l476 -477z" />
    <glyph glyph-name="question" unicode="?" horiz-adv-x="1087" 
d="M408 391q0 72 11.5 135t43.5 120q27 54 63.5 87.5t80 66t91.5 83.5q40 44 53.5 89t13.5 97q0 38 -9 71t-30 57q-32 40 -81 56.5t-102 16.5q-48 0 -91.5 -13t-72.5 -40q-31 -26 -45.5 -64.5t-13.5 -83.5h-220q8 94 48 176t108 133q58 46 132 68.5t148 22.5
q106 0 200.5 -33t157.5 -107q46 -52 69.5 -118.5t23.5 -137.5q0 -95 -40.5 -176t-103.5 -148q-33 -35 -67 -63.5t-63 -55.5t-48 -59q-27 -46 -31 -82.5t-4 -97.5h-222zM409 0v242h221v-242h-221z" />
    <glyph glyph-name="at" unicode="@" horiz-adv-x="1821" 
d="M909 -210q-163 0 -300 54t-238 152.5t-156 231.5t-55 289q0 186 57.5 330t160 242.5t238 149.5t290.5 51q190 0 333 -59t238 -160t141 -230.5t42 -270.5q-5 -194 -81 -297.5t-236 -103.5q-85 0 -156.5 39t-98.5 115l58 -3q-41 -77 -112 -108t-145 -31q-101 0 -178 43.5
t-121 122.5t-44 183q0 107 46 185.5t124 121.5t176 43q65 0 135.5 -27t109.5 -76l-41 -52v127h134l-3 -359q0 -77 30 -116t89 -39q52 0 80.5 29.5t40 80.5t13.5 117q3 155 -46 261t-132.5 171.5t-183.5 95t-199 29.5q-140 0 -249 -44.5t-183.5 -125t-112 -190t-35.5 -240.5
q4 -130 47 -234t120 -178t182 -113t230 -39q70 0 139.5 15.5t127.5 43.5l57 -156q-77 -36 -161.5 -53.5t-171.5 -17.5zM901 351q71 0 119 41t48 139q0 89 -42.5 134.5t-119.5 45.5q-91 0 -136 -48t-45 -132q0 -86 46.5 -133t129.5 -47z" />
    <glyph glyph-name="A" unicode="A" horiz-adv-x="1317" 
d="M40 0l468 1440h301l468 -1440h-217l-431 1314h54l-426 -1314h-217zM283 325v196h752v-196h-752z" />
    <glyph glyph-name="B" unicode="B" horiz-adv-x="1250" 
d="M140 0v1440h566q137 0 230 -56t140 -144.5t47 -186.5q0 -119 -58.5 -204t-157.5 -116l-2 49q138 -34 212 -132.5t74 -229.5q0 -127 -50.5 -221t-147 -146.5t-233.5 -52.5h-620zM352 199h376q71 0 127.5 27t89 77.5t32.5 120.5q0 65 -28.5 117.5t-82 83t-125.5 30.5h-389
v-456zM352 852h351q58 0 104.5 23.5t74 68t27.5 107.5q0 84 -56 138t-150 54h-351v-391z" />
    <glyph glyph-name="C" unicode="C" horiz-adv-x="1461" 
d="M741 -30q-216 0 -368 94.5t-232.5 263.5t-80.5 392t80.5 392t232.5 263.5t368 94.5q249 0 412.5 -126t227.5 -339l-212 -57q-42 151 -149.5 237t-278.5 86q-153 0 -255 -69t-153.5 -193t-51.5 -289q-1 -165 50.5 -289t154 -193t255.5 -69q171 0 278.5 86.5t149.5 236.5
l212 -57q-64 -213 -227.5 -339t-412.5 -126z" />
    <glyph glyph-name="D" unicode="D" horiz-adv-x="1381" 
d="M140 0v1440h451q20 0 74.5 -1t104.5 -8q169 -21 284.5 -121t174.5 -253.5t59 -336.5q0 -184 -59 -337.5t-174.5 -253t-284.5 -120.5q-50 -7 -104.5 -8t-74.5 -1h-451zM354 199h237q34 0 81 2t83 8q110 21 178.5 95.5t100.5 183.5t32 232q0 127 -33 235.5t-101.5 182
t-176.5 93.5q-36 7 -83.5 8.5t-80.5 1.5h-237v-1042z" />
    <glyph glyph-name="E" unicode="E" horiz-adv-x="1160" 
d="M140 0v1440h920v-197h-711v-404h591v-197h-591v-445h711v-197h-920z" />
    <glyph glyph-name="F" unicode="F" horiz-adv-x="1033" 
d="M140 0v1440h853v-209h-644v-406h524v-210h-524v-615h-209z" />
    <glyph glyph-name="G" unicode="G" horiz-adv-x="1446" 
d="M729 -30q-145 0 -267 50.5t-212 147.5t-140 236t-50 316q0 233 85 400.5t236 258t348 90.5q254 0 405.5 -118t206.5 -326l-212 -38q-44 129 -142 206t-246 78q-153 1 -254.5 -68t-152.5 -193.5t-52 -289.5t50 -288.5t153.5 -192.5t255.5 -70q123 -2 211.5 45.5
t140.5 139.5t67 226h-280v168h502q2 -18 3 -47.5t1 -37.5q0 -200 -77 -357t-224 -246.5t-356 -89.5z" />
    <glyph glyph-name="H" unicode="H" horiz-adv-x="1419" 
d="M140 0v1440h209v-621h720v621h210v-1440h-210v622h-720v-622h-209z" />
    <glyph glyph-name="I" unicode="I" horiz-adv-x="529" 
d="M160 0v1440h209v-1440h-209z" />
    <glyph glyph-name="J" unicode="J" horiz-adv-x="977" 
d="M414 -29q-158 0 -265.5 84t-148.5 226l207 49q14 -67 71.5 -114.5t128.5 -47.5q47 0 98 24t76 78q17 36 20 82.5t3 108.5v979h212v-979q0 -64 -0.5 -114t-10 -94t-36.5 -91q-57 -99 -150 -145t-205 -46z" />
    <glyph glyph-name="K" unicode="K" horiz-adv-x="1259" 
d="M140 0v1440h209v-672l603 672h260l-637 -703l684 -737h-268l-642 688v-688h-209z" />
    <glyph glyph-name="L" unicode="L" horiz-adv-x="1051" 
d="M160 0v1440h209v-1243h652v-197h-861z" />
    <glyph glyph-name="M" unicode="M" horiz-adv-x="1701" 
d="M140 0v1440h189l522 -1083l519 1083h191v-1439h-198v985l-465 -986h-95l-466 986v-986h-197z" />
    <glyph glyph-name="N" unicode="N" horiz-adv-x="1413" 
d="M140 0v1440h212l709 -1070v1070h212v-1440h-212l-709 1071v-1071h-212z" />
    <glyph glyph-name="O" unicode="O" horiz-adv-x="1481" 
d="M741 -30q-216 0 -368 94.5t-232.5 263.5t-80.5 392t80.5 392t232.5 263.5t368 94.5q215 0 367.5 -94.5t232.5 -263.5t80 -392t-80 -392t-232.5 -263.5t-367.5 -94.5zM741 169q153 -2 254.5 67.5t152.5 194t51 289.5t-51 288.5t-152.5 192.5t-254.5 70q-153 2 -254.5 -67
t-152.5 -194t-52 -290t50 -288.5t153.5 -192.5t255.5 -70z" />
    <glyph glyph-name="P" unicode="P" horiz-adv-x="1254" 
d="M140 0v1440h582q21 0 52 -1.5t59 -6.5q120 -19 200.5 -82t120.5 -159t40 -212q0 -117 -40 -213t-120.5 -159t-200.5 -82q-28 -4 -59.5 -6t-51.5 -2h-373v-517h-209zM349 715h365q20 0 44.5 2t46.5 7q64 15 103 55.5t56 93.5t17 106t-17 105.5t-56 93t-103 55.5
q-22 6 -46.5 8t-44.5 2h-365v-528z" />
    <glyph glyph-name="Q" unicode="Q" horiz-adv-x="1481" 
d="M1269 -29l-402 400l134 134l400 -400zM741 -30q-216 0 -368 94.5t-232.5 263.5t-80.5 392t80.5 392t232.5 263.5t368 94.5q215 0 367.5 -94.5t232.5 -263.5t80 -392t-80 -392t-232.5 -263.5t-367.5 -94.5zM741 169q153 -2 254.5 67.5t152.5 194t51 289.5t-51 288.5
t-152.5 192.5t-254.5 70q-153 2 -254.5 -67t-152.5 -194t-52 -290t50 -288.5t153.5 -192.5t255.5 -70z" />
    <glyph glyph-name="R" unicode="R" horiz-adv-x="1301" 
d="M140 0v1440h582q21 0 52 -1.5t59 -6.5q120 -19 200.5 -82t120.5 -159t40 -212q0 -172 -88 -296.5t-264 -155.5l-85 -10h-408v-517h-209zM982 0l-284 586l211 54l312 -640h-239zM349 715h365q20 0 44.5 2t46.5 7q64 15 103 55.5t56 93.5t17 106t-17 105.5t-56 93
t-103 55.5q-22 6 -46.5 8t-44.5 2h-365v-528z" />
    <glyph glyph-name="S" unicode="S" horiz-adv-x="1287" 
d="M662 -30q-155 0 -279.5 53.5t-205 153t-104.5 236.5l218 33q33 -132 138 -205.5t245 -73.5q87 0 160 27.5t117.5 79t44.5 123.5q0 39 -13.5 69t-37 52.5t-57 39t-73.5 28.5l-369 109q-54 16 -110 41.5t-102.5 67t-75.5 103t-29 149.5q0 133 68.5 225.5t185.5 140
t262 47.5q146 -2 261.5 -52t192 -143.5t105.5 -226.5l-224 -38q-15 81 -64 139.5t-120 90t-154 32.5q-80 2 -146.5 -24t-106 -73t-39.5 -108q0 -60 35 -97t86.5 -58.5t102.5 -35.5l266 -75q50 -14 113.5 -37.5t123 -65.5t98.5 -111.5t39 -174.5q0 -109 -44 -191.5
t-120.5 -138t-176.5 -83.5t-211 -28z" />
    <glyph glyph-name="T" unicode="T" horiz-adv-x="1207" 
d="M499 0v1243h-479v197h1167v-197h-479v-1243h-209z" />
    <glyph glyph-name="U" unicode="U" horiz-adv-x="1428" 
d="M714 -30q-169 0 -298.5 69.5t-202.5 195t-73 295.5v909l212 1v-899q0 -92 31 -162t83 -117t116.5 -71t131.5 -24q68 0 132.5 24.5t116.5 71.5t82.5 117t30.5 161v899h212v-910q0 -169 -73 -295t-202.5 -195.5t-298.5 -69.5z" />
    <glyph glyph-name="V" unicode="V" horiz-adv-x="1257" 
d="M478 0l-468 1440h217l399 -1229l404 1229h217l-468 -1440h-301z" />
    <glyph glyph-name="W" unicode="W" horiz-adv-x="1925" 
d="M445 0l-418 1440h219l303 -1089l303 1088l220 1l303 -1089l303 1089h220l-419 -1440h-208l-309 1077l-309 -1077h-208z" />
    <glyph glyph-name="X" unicode="X" horiz-adv-x="1278" 
d="M20 0l491 729l-478 711h256l351 -534l349 534h257l-478 -711l490 -729h-256l-362 551l-363 -551h-257z" />
    <glyph glyph-name="Y" unicode="Y" horiz-adv-x="1186" 
d="M487 0v595l-487 845h244l349 -605l349 605h244l-487 -845v-595h-212z" />
    <glyph glyph-name="Z" unicode="Z" horiz-adv-x="1294" 
d="M100 0v33l735 1210h-695v197h1054v-34l-731 -1208h718v-198h-1081z" />
    <glyph glyph-name="bracketleft" unicode="[" horiz-adv-x="836" 
d="M280 -428v2216h416v-188h-228v-1840h228v-188h-416z" />
    <glyph glyph-name="backslash" unicode="\" horiz-adv-x="835" 
d="M331 1440l384 -1440h-211l-384 1440h211z" />
    <glyph glyph-name="bracketright" unicode="]" horiz-adv-x="836" 
d="M556 -428h-416v188h228v1840h-228v188h416v-2216z" />
    <glyph glyph-name="asciicircum" unicode="^" horiz-adv-x="1353" 
d="M211 994l476 478l477 -477l-130 -131l-347 355l-346 -356z" />
    <glyph glyph-name="underscore" unicode="_" horiz-adv-x="1320" 
d="M0 -233v168h1320v-168h-1320z" />
    <glyph glyph-name="grave" unicode="`" horiz-adv-x="1045" 
d="M474 1600l-142 350h164l142 -350h-164z" />
    <glyph glyph-name="a" unicode="a" horiz-adv-x="1139" 
d="M445 -30q-120 0 -201 44.5t-122.5 118t-41.5 161.5q0 82 29 144t86 105.5t140 70.5q72 21 163 37t191.5 30t199.5 28l-76 -42q2 127 -53.5 188.5t-190.5 61.5q-85 0 -156 -39.5t-99 -130.5l-195 60q40 139 152.5 221t299.5 82q145 0 252.5 -49.5t157.5 -156.5
q26 -53 32 -112t6 -127v-665h-185v247l36 -32q-67 -124 -170.5 -184.5t-254.5 -60.5zM482 141q89 0 153 31.5t103 80.5t51 102q17 48 19.5 108t2.5 96l68 -25q-99 -15 -180 -27t-146.5 -23.5t-116.5 -27.5q-43 -15 -76.5 -36t-53 -51t-19.5 -73q0 -42 21 -77.5t64 -56.5
t110 -21z" />
    <glyph glyph-name="b" unicode="b" horiz-adv-x="1216" 
d="M647 -30q-155 0 -260 75.5t-159 204.5t-54 291t53.5 291t158 203.5t257.5 74.5q152 0 262.5 -74.5t170.5 -203t60 -291.5q0 -162 -59.5 -291.5t-169 -204.5t-260.5 -75zM139 0v1440h210v-663h-24v-777h-186zM618 159q100 0 165.5 51t98 137.5t32.5 193.5q0 106 -32.5 192
t-99.5 137t-171 51q-98 0 -161.5 -48t-94 -134t-30.5 -198t30 -198t95 -135t168 -49z" />
    <glyph glyph-name="c" unicode="c" horiz-adv-x="1137" 
d="M602 -30q-166 0 -282 74t-177.5 203t-62.5 293q1 167 64 295.5t180 201.5t281 73q177 0 302.5 -88t165.5 -241l-208 -60q-31 91 -101.5 141.5t-161.5 50.5q-103 0 -169 -48.5t-98 -132.5t-33 -192q1 -167 76.5 -270t223.5 -103q101 0 163.5 46.5t95.5 133.5l212 -50
q-53 -158 -175 -242.5t-296 -84.5z" />
    <glyph glyph-name="d" unicode="d" horiz-adv-x="1217" 
d="M569 -30q-151 0 -260.5 75t-169 204.5t-59.5 291.5q0 163 60 291.5t170.5 203t262.5 74.5q153 0 257.5 -74.5t158 -203.5t53.5 -291t-54 -291t-159 -204.5t-260 -75.5zM598 159q103 0 168 49t95 135t30 198t-30.5 198t-94 134t-161.5 48q-104 0 -171 -51t-99.5 -137
t-32.5 -192q0 -107 32.5 -193.5t98 -137.5t165.5 -51zM891 0v777h-24v663h210v-1440h-186z" />
    <glyph glyph-name="e" unicode="e" horiz-adv-x="1193" 
d="M619 -30q-161 0 -282.5 70.5t-189 197t-67.5 293.5q0 177 66.5 307t185.5 201t277 71q165 0 281 -76.5t173.5 -217.5t45.5 -335h-209v76q-2 188 -71.5 278t-211.5 90q-157 0 -236 -99t-79 -286q0 -178 79 -275.5t228 -97.5q98 0 169.5 44.5t111.5 127.5l205 -65
q-63 -145 -191 -224.5t-285 -79.5zM234 481v163h771v-163h-771z" />
    <glyph glyph-name="f" unicode="f" horiz-adv-x="741" 
d="M239 0v1118q0 41 3 87.5t17.5 92t48.5 83.5q41 45 90 64t97.5 22t89.5 3h136v-172h-126q-74 0 -110.5 -36.5t-36.5 -103.5v-1158h-209zM60 912v168h661v-168h-661z" />
    <glyph glyph-name="g" unicode="g" horiz-adv-x="1216" 
d="M585 -510q-87 0 -168.5 27t-148.5 79.5t-111 129.5l193 98q35 -69 100 -101t137 -32q89 0 152 31.5t95.5 94.5t31.5 156v302h25v805h185v-1109q0 -43 -3 -82t-11 -78q-23 -109 -87.5 -180t-164 -106t-225.5 -35zM569 -30q-151 0 -260.5 75t-169 204.5t-59.5 291.5
q0 163 60 291.5t170.5 203t262.5 74.5q153 0 257.5 -74.5t158 -203.5t53.5 -291t-54 -291t-159 -204.5t-260 -75.5zM598 159q103 0 168 49t95 135t30 198t-30.5 198t-94 134t-161.5 48q-104 0 -171 -51t-99.5 -137t-32.5 -192q0 -107 32.5 -193.5t98 -137.5t165.5 -51z" />
    <glyph glyph-name="h" unicode="h" 
d="M898 0v531q0 63 -10.5 129.5t-40 123.5t-83 92t-139.5 35q-56 0 -106 -18.5t-87.5 -59.5t-59 -108t-21.5 -163l-130 49q0 147 55 259.5t158 175.5t249 63q112 0 188 -36t123.5 -94.5t72.5 -127.5t34 -135t9 -116v-600h-212zM139 0v1440h187v-777h25v-663h-212z" />
    <glyph glyph-name="i" unicode="i" horiz-adv-x="529" 
d="M160 1257v203h209v-203h-209zM160 0v1080h209v-1080h-209z" />
    <glyph glyph-name="j" unicode="j" horiz-adv-x="551" 
d="M-20 -480v198h55q83 0 121.5 40t38.5 123v1199h210v-1284q0 -132 -72.5 -204t-207.5 -72h-145zM195 1257v203h210v-203h-210z" />
    <glyph glyph-name="k" unicode="k" horiz-adv-x="1048" 
d="M139 0l1 1440h212v-880l424 520h266l-448 -540l494 -540h-284l-452 520v-520h-213z" />
    <glyph glyph-name="l" unicode="l" horiz-adv-x="529" 
d="M160 0v1470h209v-1470h-209z" />
    <glyph glyph-name="m" unicode="m" horiz-adv-x="1764" 
d="M1434 0l1 673q0 117 -60 182.5t-158 65.5q-60 0 -109.5 -27.5t-80 -82t-30.5 -136.5l-101 51q-2 114 48.5 200t137.5 133.5t195 47.5q175 0 271 -105t96 -279l-1 -723h-209zM139 0v1080h186v-312h24v-768h-210zM787 0l1 669q0 118 -59.5 185t-159.5 67q-99 0 -159.5 -68
t-60.5 -178l-100 64q0 106 51 189t138 131t197 48q115 0 196 -48.5t123.5 -135.5t42.5 -202l-1 -721h-209z" />
    <glyph glyph-name="n" unicode="n" 
d="M898 0v531q0 63 -10.5 129.5t-40 123.5t-83 92t-139.5 35q-56 0 -106 -18.5t-87.5 -59.5t-59 -108t-21.5 -163l-130 49q0 147 55 259.5t158 175.5t249 63q112 0 188 -36t123.5 -94.5t72.5 -127.5t34 -135t9 -116v-600h-212zM139 0v1080h187v-312h25v-768h-212z" />
    <glyph glyph-name="o" unicode="o" horiz-adv-x="1219" 
d="M609 -30q-162 0 -281 73t-183.5 201.5t-64.5 296.5q0 169 66 297.5t185 200t278 71.5q162 0 281 -73t184 -201t65 -295q0 -169 -65.5 -297.5t-184.5 -201t-280 -72.5zM609 167q155 0 231.5 104.5t76.5 269.5q0 169 -77.5 270.5t-230.5 101.5q-105 0 -173 -47.5t-101 -131
t-33 -193.5q0 -170 78 -272t229 -102z" />
    <glyph glyph-name="p" unicode="p" horiz-adv-x="1216" 
d="M647 -30q-155 0 -260 75.5t-159 204.5t-54 291t53.5 291t158 203.5t257.5 74.5q152 0 262.5 -74.5t170.5 -203t60 -291.5q0 -162 -59.5 -291.5t-169 -204.5t-260.5 -75zM139 -480v1560h186v-777h24v-783h-210zM618 159q100 0 165.5 51t98 137.5t32.5 193.5
q0 106 -32.5 192t-99.5 137t-171 51q-98 0 -161.5 -48t-94 -134t-30.5 -198t30 -198t95 -135t168 -49z" />
    <glyph glyph-name="q" unicode="q" horiz-adv-x="1217" 
d="M569 -30q-151 0 -260.5 75t-169 204.5t-59.5 291.5q0 163 60 291.5t170.5 203t262.5 74.5q153 0 257.5 -74.5t158 -203.5t53.5 -291t-54 -291t-159 -204.5t-260 -75.5zM598 159q103 0 168 49t95 135t30 198t-30.5 198t-94 134t-161.5 48q-104 0 -171 -51t-99.5 -137
t-32.5 -192q0 -107 32.5 -193.5t98 -137.5t165.5 -51zM867 -480v783h24v777h186v-1560h-210z" />
    <glyph glyph-name="r" unicode="r" horiz-adv-x="773" 
d="M140 0v1080h186v-262l-26 34q20 52 52 95.5t74 71.5q41 30 91.5 46.5t103.5 20t102 -5.5v-196q-53 14 -117.5 8t-118.5 -41q-51 -33 -80.5 -80t-42.5 -104.5t-13 -121.5v-545h-211z" />
    <glyph glyph-name="s" unicode="s" horiz-adv-x="1072" 
d="M553 -29q-197 0 -321 87t-152 245l214 33q20 -84 92.5 -132.5t180.5 -48.5q98 0 153.5 40t55.5 110q0 41 -19.5 66.5t-81.5 48.5t-189 57q-139 36 -220.5 77.5t-116 97t-34.5 134.5q0 98 52 171t146.5 113t221.5 40q124 0 221 -39t157 -110.5t72 -167.5l-214 -39
q-11 78 -73 123t-161 49q-95 4 -154 -31.5t-59 -97.5q0 -36 22.5 -61t87.5 -48t192 -55q136 -35 216 -77.5t114.5 -101t34.5 -141.5q0 -160 -116.5 -251t-321.5 -91z" />
    <glyph glyph-name="t" unicode="t" horiz-adv-x="845" 
d="M758 0q-102 -20 -200 -17t-175 38t-116 110q-35 67 -37.5 136.5t-2.5 157.5v955h210v-945q0 -65 1.5 -113t20.5 -81q36 -62 114.5 -70.5t184.5 6.5v-177zM20 912v168h738v-168h-738z" />
    <glyph glyph-name="u" unicode="u" 
d="M547 -29q-112 0 -188 36t-123.5 94.5t-72.5 127.5t-34 135t-9 116v600h212v-531q0 -63 10.5 -129.5t40 -123.5t83 -92t139.5 -35q56 0 106 18.5t87.5 59.5t59 108t21.5 163l130 -49q0 -147 -55 -259.5t-158 -175.5t-249 -63zM904 0v312h-25v768h211v-1080h-186z" />
    <glyph glyph-name="v" unicode="v" horiz-adv-x="1076" 
d="M432 0l-392 1080h211l287 -818l287 818h211l-392 -1080h-212z" />
    <glyph glyph-name="w" unicode="w" horiz-adv-x="1581" 
d="M370 0l-330 1081l207 -1l226 -741l228 741h180l228 -741l226 741h206l-330 -1080h-168l-252 782l-253 -782h-168z" />
    <glyph glyph-name="x" unicode="x" horiz-adv-x="1090" 
d="M20 0l404 546l-395 534h248l269 -371l266 371h248l-395 -534l405 -546h-249l-275 383l-277 -383h-249z" />
    <glyph glyph-name="y" unicode="y" horiz-adv-x="1097" 
d="M286 -480l209 569l3 -168l-471 1159h218l352 -895h-64l336 895h212l-596 -1560h-199z" />
    <glyph glyph-name="z" unicode="z" horiz-adv-x="1065" 
d="M40 0v33l613 860h-557v187h889v-34l-612 -859h582v-187h-915z" />
    <glyph glyph-name="braceleft" unicode="{" horiz-adv-x="878" 
d="M664 -428q-121 0 -193.5 72.5t-72.5 192.5v618q0 25 -14 46l-87 123q-17 26 -17 56.5t17 55.5l87 123q14 23 14 46v617q0 120 72.5 193t193.5 73h131v-199h-117q-34 0 -57.5 -23.5t-23.5 -56.5v-604q0 -88 -51 -160l-47 -65l47 -65q51 -72 51 -160v-604q0 -34 23.5 -58
t57.5 -24h117v-197h-131z" />
    <glyph glyph-name="bar" unicode="|" horiz-adv-x="569" 
d="M180 0v1440h209v-1440h-209z" />
    <glyph glyph-name="braceright" unicode="}" horiz-adv-x="878" 
d="M214 -428h-131v197h118q33 0 56.5 24t23.5 58v604q0 88 52 160l46 65l-46 65q-52 72 -52 160v604q0 33 -23.5 56.5t-56.5 23.5h-118v199h131q121 0 193.5 -73t72.5 -193v-617q0 -23 14 -46l87 -123q18 -25 18 -55.5t-18 -56.5l-87 -123q-14 -21 -14 -46v-618
q0 -120 -72.5 -192.5t-193.5 -72.5z" />
    <glyph glyph-name="asciitilde" unicode="~" horiz-adv-x="1396" 
d="M925 428q-65 0 -124.5 28t-114 64t-103 64t-90.5 28q-48 0 -64.5 -45.5t2.5 -105.5h-192q-26 103 -7.5 187t78 134t160.5 50q64 0 124 -28t115 -64.5t103 -64.5t91 -28q45 0 63 45t-1 109h192q25 -103 7.5 -187.5t-77.5 -135t-162 -50.5z" />
    <glyph glyph-name="uni00A0" unicode="&#xa0;" horiz-adv-x="400" 
 />
    <glyph glyph-name="exclamdown" unicode="&#xa1;" horiz-adv-x="689" 
d="M240 1080h209v-203h-209v203zM240 720h209v-1080h-209v1080z" />
    <glyph glyph-name="cent" unicode="&#xa2;" horiz-adv-x="1137" 
d="M527 -59v184q-142 17 -242 93.5t-152 198t-53 273.5q1 153 54.5 274.5t153 197t239.5 92.5v186h168v-187q143 -22 243 -106t135 -216l-208 -60q-31 91 -101.5 141.5t-161.5 50.5q-103 0 -169 -48.5t-98 -132.5t-33 -192q1 -167 76.5 -270t223.5 -103q101 0 163.5 46.5
t95.5 133.5l212 -50q-47 -136 -143.5 -217.5t-234.5 -102.5v-186h-168z" />
    <glyph glyph-name="sterling" unicode="&#xa3;" horiz-adv-x="1142" 
d="M73 0v197h52q61 0 103.5 44.5t42.5 103.5v743q0 110 53 196.5t143.5 136t201.5 49.5q101 0 177 -45t130.5 -126.5t92.5 -189.5l-190 -62q-33 108 -82.5 166t-127.5 58q-83 0 -133.5 -53.5t-50.5 -138.5l-2 -882h505v-197h-915zM73 626v199h734v-199h-734z" />
    <glyph glyph-name="currency" unicode="&#xa4;" horiz-adv-x="1321" 
d="M661 196q-108 0 -203 41t-167 113.5t-113 167.5t-41 204q0 108 41 203t113 167t167 113t203 41q109 0 204 -41t167.5 -113t113.5 -167t41 -203q0 -109 -41 -204t-113.5 -167.5t-167.5 -113.5t-204 -41zM200 120l-140 140l233 233l142 -140zM294 945l-234 234l140 141
l233 -233zM1121 120l-233 233l140 140l233 -233zM661 376q95 0 173.5 47.5t124.5 125.5t46 171q0 95 -47 173.5t-125.5 125t-171.5 46.5q-96 0 -174 -46.5t-124 -125t-46 -173.5q0 -93 46 -171.5t124 -125.5t174 -47zM1029 947l-141 140l233 233l140 -141z" />
    <glyph glyph-name="yen" unicode="&#xa5;" horiz-adv-x="1186" 
d="M193 521v168h800v-168h-800zM193 207v168h800v-168h-800zM487 0v595l-487 845h244l349 -605l349 605h244l-487 -845v-595h-212z" />
    <glyph glyph-name="brokenbar" unicode="&#xa6;" horiz-adv-x="569" 
d="M180 651v789h209v-789h-209zM180 -376v789h209v-789h-209z" />
    <glyph glyph-name="section" unicode="&#xa7;" horiz-adv-x="1072" 
d="M554 -289q-109 0 -203 34.5t-158.5 108t-85.5 189.5l214 33q14 -62 52.5 -102t89.5 -59.5t104 -19.5q49 0 92 16t70 49.5t27 84.5q0 48 -29 76t-93 48.5t-168 47.5q-118 31 -201 68.5t-126.5 92t-43.5 135.5q0 99 58 161t147 90t181 23l16 -81q-89 -26 -141 -65.5
t-52 -99.5q0 -50 37.5 -78t105.5 -47t159 -43q116 -32 197.5 -69t124.5 -95t43 -154q0 -112 -55 -188.5t-149 -116t-213 -39.5zM611 260l-4 81q42 7 83 29.5t67 59.5t26 88q0 49 -29.5 76.5t-93.5 48t-167 47.5q-119 31 -202 68t-126.5 94t-43.5 147q0 111 59 183t149 106.5
t186 34.5q103 0 193 -37t150.5 -108t73.5 -172l-214 -39q-11 62 -41.5 100t-74.5 56t-95 18q-48 0 -88 -15t-64 -43.5t-24 -68.5q0 -51 38.5 -79t107 -46.5t156.5 -42.5q115 -31 196.5 -68t125 -94t43.5 -150q0 -100 -48.5 -167t-136 -95t-202.5 -12z" />
    <glyph glyph-name="dieresis" unicode="&#xa8;" horiz-adv-x="1083" 
d="M643 1621v200h200v-200h-200zM240 1621v200h200v-200h-200z" />
    <glyph glyph-name="copyright" unicode="&#xa9;" horiz-adv-x="1717" 
d="M858 -97q-165 0 -310 62t-254.5 172t-171.5 255t-62 310q0 166 62 310.5t171.5 254.5t254.5 172t310 62q167 0 311.5 -62.5t254 -172t171.5 -254t62 -310.5q0 -165 -62 -310t-171.5 -254.5t-254 -172t-311.5 -62.5zM872 277q-97 0 -169 32t-128 100q-52 66 -73.5 140.5
t-21.5 153.5q1 83 23.5 157t71.5 135q55 67 129 100t176 33q56 0 103 -11t96 -42q53 -31 91.5 -81t54.5 -116l-163 -45q-10 29 -28 55t-45 47q-24 21 -54.5 30t-63.5 9q-51 0 -92.5 -20.5t-71.5 -58.5t-41 -89t-11 -102q0 -54 12.5 -104t39.5 -89q28 -38 70 -58t96 -20
q74 0 120 36q24 20 39 43t27 52l166 -38q-19 -58 -52.5 -104.5t-76.5 -78.5q-45 -32 -98 -49t-126 -17zM859 102q124 0 232.5 46.5t191 129t129 191.5t46.5 234q0 124 -46.5 232.5t-129 191t-191 129t-232.5 46.5q-125 0 -234 -46.5t-191.5 -129t-129 -191t-46.5 -232.5
q0 -125 46.5 -234t129 -191.5t191.5 -129t234 -46.5z" />
    <glyph glyph-name="ordfeminine" unicode="&#xaa;" horiz-adv-x="636" 
d="M261 540q-88 0 -134.5 48.5t-46.5 114.5q0 59 29.5 99.5t93.5 62.5q49 16 121.5 26.5t156.5 23.5l-43 -33q2 61 -23 89.5t-88 28.5q-36 0 -70 -17t-47 -59l-111 35q20 68 77 109.5t152 41.5q72 0 126.5 -23.5t81.5 -76.5q14 -29 17 -58.5t3 -65.5v-331h-105v117l16 -21
q-37 -58 -85 -84.5t-121 -26.5zM285 636q61 0 96 31t43 59q10 23 11.5 53.5t1.5 47.5l38 -11q-83 -14 -131 -21.5t-80 -18.5q-32 -12 -49 -28.5t-17 -42.5q0 -30 22 -49.5t65 -19.5z" />
    <glyph glyph-name="guillemotleft" unicode="&#xab;" horiz-adv-x="1139" 
d="M897 100l-350 441l350 440l115 -91l-279 -349l279 -350zM510 100l-350 441l350 440l115 -91l-278 -349l278 -350z" />
    <glyph glyph-name="logicalnot" unicode="&#xac;" horiz-adv-x="1200" 
d="M912 378v239h-792v168h960v-407h-168z" />
    <glyph glyph-name="uni00AD" unicode="&#xad;" horiz-adv-x="840" 
d="M120 547v168h600v-168h-600z" />
    <glyph glyph-name="registered" unicode="&#xae;" horiz-adv-x="1290" 
d="M645 555q-105 0 -196.5 39.5t-160.5 109t-108.5 161t-39.5 196.5q0 104 39.5 195.5t108.5 161t160.5 108.5t196.5 39q104 0 195.5 -39t161 -108.5t109 -161t39.5 -195.5q0 -105 -39.5 -196.5t-109 -161t-161 -109t-195.5 -39.5zM646 701q98 0 180 49t131 131t49 180
q0 100 -49 181.5t-131 130t-180 48.5q-100 0 -182 -48.5t-130.5 -130t-48.5 -181.5q0 -98 48.5 -180t130.5 -131t182 -49zM480 827v471h201q71 0 114.5 -43.5t45.5 -111.5q0 -41 -21.5 -78.5t-62.5 -59.5l88 -178h-96l-78 163h-107v-163h-84zM564 1069h119q30 0 51 21.5
t21 52.5q0 36 -20 55.5t-52 19.5h-119v-149z" />
    <glyph glyph-name="macron" unicode="&#xaf;" horiz-adv-x="1003" 
d="M240 1680v167h523v-167h-523z" />
    <glyph glyph-name="degree" unicode="&#xb0;" horiz-adv-x="900" 
d="M420 750q-99 0 -181 48.5t-130.5 130t-48.5 181.5q0 98 50 180t132 131t178 49q99 0 180.5 -48.5t130.5 -130t49 -181.5t-49 -181.5t-130.5 -130t-180.5 -48.5zM420 931q48 0 89 24.5t65.5 65.5t24.5 89t-24.5 89t-65.5 65.5t-89 24.5t-88.5 -24.5t-65.5 -65.5t-25 -89
t25 -89t65 -65.5t89 -24.5z" />
    <glyph glyph-name="plusminus" unicode="&#xb1;" horiz-adv-x="1200" 
d="M517 440v237h-397v168h397v235h168v-235h395v-168h-395v-237h-168zM120 139v168h960v-168h-960z" />
    <glyph glyph-name="uni00B2" unicode="&#xb2;" horiz-adv-x="816" 
d="M100 540l1 124l388 349q46 41 64 77.5t18 71.5q0 71 -44.5 118t-114.5 47q-48 0 -86 -22.5t-59 -60t-20 -80.5h-145q0 89 40 155.5t110.5 103.5t162.5 37q86 0 154 -38.5t107.5 -106t39.5 -154.5q0 -63 -17 -106.5t-51 -80.5t-84 -81l-296 -265l-17 45h465v-133h-616z
" />
    <glyph glyph-name="uni00B3" unicode="&#xb3;" horiz-adv-x="799" 
d="M373 519q-101 0 -182.5 57.5t-110.5 155.5l137 37q17 -57 60.5 -86.5t95.5 -29.5q71 1 116.5 47.5t45.5 116.5q0 72 -45 119t-117 47q-21 0 -42.5 -6t-39.5 -16l-66 111l320 280l17 -46h-446v134h549v-135l-263 -252l-3 50q87 0 149.5 -38.5t96.5 -103t34 -144.5
q0 -86 -41 -153.5t-110.5 -106t-154.5 -38.5z" />
    <glyph glyph-name="acute" unicode="&#xb4;" horiz-adv-x="1045" 
d="M570 1600h-164l143 350h164z" />
    <glyph glyph-name="uni00B5" unicode="&#xb5;" horiz-adv-x="1249" 
d="M139 -480v1560h212v-531q0 -63 10.5 -129.5t39.5 -123.5t82.5 -92t139.5 -35q57 0 106.5 18.5t87.5 59.5t59.5 108t21.5 163v562h211v-1080h-186v133q-59 -79 -150 -120.5t-207 -41.5q-76 0 -136.5 22t-104.5 63v-536h-186z" />
    <glyph glyph-name="paragraph" unicode="&#xb6;" horiz-adv-x="1377" 
d="M678 -282v799h-93q-11 0 -42 1.5t-68 6.5q-119 18 -199.5 81t-121.5 159.5t-41 213.5q0 115 40.5 211.5t120.5 160t201 81.5q37 6 68 7t42 1h302v-1722h-209zM1054 -282v1722h209v-1722h-209z" />
    <glyph glyph-name="periodcentered" unicode="&#xb7;" horiz-adv-x="507" 
d="M257 497q-58 0 -97.5 38t-39.5 95q0 58 39.5 95.5t97.5 37.5q52 0 91 -37.5t39 -95.5q0 -57 -39 -95t-91 -38z" />
    <glyph glyph-name="cedilla" unicode="&#xb8;" horiz-adv-x="816" 
d="M375 -482q-39 0 -72.5 10t-62.5 25l48 128q43 -14 69 -14q33 0 50.5 19.5t17.5 42.5q0 41 -39.5 59.5t-91.5 34.5l72 204l133 2l-43 -124q56 -27 88.5 -72t32.5 -110q0 -90 -60 -147.5t-142 -57.5z" />
    <glyph glyph-name="uni00B9" unicode="&#xb9;" horiz-adv-x="673" 
d="M289 540v746l-169 -103v156l169 101h144v-900h-144z" />
    <glyph glyph-name="ordmasculine" unicode="&#xba;" horiz-adv-x="698" 
d="M349 540q-122 0 -195.5 80t-73.5 206t74.5 205t194.5 79q122 0 195.5 -80t73.5 -204q0 -127 -74 -206.5t-195 -79.5zM348 653q72 0 107.5 48t35.5 125q0 78 -35.5 124.5t-107.5 46.5t-106 -47.5t-34 -124.5q0 -79 35 -125.5t105 -46.5z" />
    <glyph glyph-name="guillemotright" unicode="&#xbb;" horiz-adv-x="1139" 
d="M242 100l-115 91l278 350l-278 349l115 91l350 -440zM629 100l-116 91l279 350l-279 349l116 91l350 -440z" />
    <glyph glyph-name="onequarter" unicode="&#xbc;" horiz-adv-x="2029" 
d="M289 540v746l-169 -103v156l169 101h144v-900h-144zM1561 0v153h-404v133l291 614h161l-290 -614h242v239h142v-239h86v-133h-86v-153h-142zM476 0l-127 96l1007 1353l127 -96z" />
    <glyph glyph-name="onehalf" unicode="&#xbd;" horiz-adv-x="1975" 
d="M289 540v746l-169 -103v156l169 101h144v-900h-144zM1259 0v124l389 349q46 41 63.5 77.5t17.5 71.5q0 71 -44 118t-114 47q-49 0 -86.5 -22.5t-59 -60t-19.5 -80.5h-145q0 89 39.5 156t110 103.5t162.5 36.5q86 0 154 -38.5t108 -106t40 -154.5q0 -63 -17.5 -106.5
t-51 -80.5t-83.5 -81l-296 -265l-18 45h466v-133h-616zM476 0l-127 96l1007 1353l127 -96z" />
    <glyph glyph-name="threequarters" unicode="&#xbe;" horiz-adv-x="2023" 
d="M373 519q-101 0 -182.5 57.5t-110.5 155.5l137 37q17 -57 60.5 -86.5t95.5 -29.5q71 1 116.5 47.5t45.5 116.5q0 72 -45 119t-117 47q-21 0 -42.5 -6t-39.5 -16l-66 111l320 280l17 -46h-446v134h549v-135l-263 -252l-3 50q87 0 149.5 -38.5t96.5 -103t34 -144.5
q0 -86 -41 -153.5t-110.5 -106t-154.5 -38.5zM1675 0v153h-404v133l291 614h161l-290 -614h242v239h142v-239h86v-133h-86v-153h-142zM602 0l-127 96l1007 1353l127 -96z" />
    <glyph glyph-name="questiondown" unicode="&#xbf;" horiz-adv-x="1087" 
d="M679 689q0 -72 -11.5 -135t-43.5 -120q-27 -54 -64 -87.5t-80 -66t-91 -83.5q-39 -44 -53 -88.5t-14 -97.5q0 -38 9 -70.5t30 -57.5q32 -40 81 -56.5t102 -16.5q49 0 92 13t71 40q32 26 46.5 64.5t13.5 83.5h220q-8 -93 -48 -175.5t-108 -133.5q-58 -45 -132 -68
t-148 -23q-106 0 -200.5 33t-157.5 107q-45 52 -69 119t-24 137q0 96 40.5 177t103.5 147q33 35 66.5 63.5t63 55.5t47.5 59q28 47 32 83.5t4 96.5h222zM677 1080v-242h-220v242h220z" />
    <glyph glyph-name="Agrave" unicode="&#xc0;" horiz-adv-x="1317" 
d="M555 1600l-142 350h164l142 -350h-164zM1277 0h-217l-427 1314h55l-431 -1314h-217l468 1440h301zM1034 325h-752v196h752v-196z" />
    <glyph glyph-name="Aacute" unicode="&#xc1;" horiz-adv-x="1317" 
d="M761 1600h-164l143 350h164zM40 0l468 1440h301l468 -1440h-217l-431 1314h54l-426 -1314h-217zM283 325v196h752v-196h-752z" />
    <glyph glyph-name="Acircumflex" unicode="&#xc2;" horiz-adv-x="1317" 
d="M308 1600l259 300h180l258 -300h-200l-148 177l-149 -177h-200zM40 0l468 1440h301l468 -1440h-217l-431 1314h54l-426 -1314h-217zM283 325v196h752v-196h-752z" />
    <glyph glyph-name="Atilde" unicode="&#xc3;" horiz-adv-x="1317" 
d="M820 1654q-46 0 -88 20t-81 45.5t-73.5 45.5t-63.5 20q-34 0 -45.5 -32.5t0.5 -75.5h-136q-26 111 15.5 187.5t148.5 76.5q46 0 88.5 -20t81.5 -45.5t73.5 -45.5t63.5 -20q33 0 45.5 31.5t-0.5 77.5h136q27 -109 -15 -187t-150 -78zM40 0l468 1440h301l468 -1440h-217
l-431 1314h54l-426 -1314h-217zM283 325v196h752v-196h-752z" />
    <glyph glyph-name="Adieresis" unicode="&#xc4;" horiz-adv-x="1317" 
d="M761 1621v200h200v-200h-200zM358 1621v200h200v-200h-200zM40 0l468 1440h301l468 -1440h-217l-431 1314h54l-426 -1314h-217zM283 325v196h752v-196h-752z" />
    <glyph glyph-name="Aring" unicode="&#xc5;" horiz-adv-x="1317" 
d="M659 1553q-67 0 -122.5 33t-88.5 89t-33 123q0 68 33 123t88.5 88.5t122.5 33.5q68 0 123.5 -33.5t88.5 -88.5t33 -123q0 -67 -33 -123t-88.5 -89t-123.5 -33zM659 1688q47 0 78.5 32.5t31.5 77.5q0 46 -31.5 78t-78.5 32q-45 0 -77.5 -32t-32.5 -78q0 -45 32.5 -77.5
t77.5 -32.5zM40 0l468 1440h301l468 -1440h-217l-431 1314h54l-426 -1314h-217zM283 325v196h752v-196h-752z" />
    <glyph glyph-name="AE" unicode="&#xc6;" horiz-adv-x="1863" 
d="M40 0l468 1440h409v-197h-333l99 71l-426 -1314h-217zM283 325v196h718v-196h-718zM843 0v1440h920v-197h-710v-404h590v-197h-590v-445h710v-197h-920z" />
    <glyph glyph-name="Ccedilla" unicode="&#xc7;" horiz-adv-x="1461" 
d="M721 -482q-39 0 -72 10t-62 25l48 128q42 -14 68 -14q33 0 51 19.5t18 42.5q0 41 -39.5 59.5t-91.5 34.5l72 204l133 2l-43 -124q56 -27 88.5 -72t32.5 -110q0 -90 -60.5 -147.5t-142.5 -57.5zM741 -30q-216 0 -368 94.5t-232.5 263.5t-80.5 392t80.5 392t232.5 263.5
t368 94.5q249 0 412.5 -126t227.5 -339l-212 -57q-42 151 -149.5 237t-278.5 86q-153 0 -255 -69t-153.5 -193t-51.5 -289q-1 -165 50.5 -289t154 -193t255.5 -69q171 0 278.5 86.5t149.5 236.5l212 -57q-64 -213 -227.5 -339t-412.5 -126z" />
    <glyph glyph-name="Egrave" unicode="&#xc8;" horiz-adv-x="1160" 
d="M542 1600l-143 350h164l143 -350h-164zM140 0v1440h920v-197h-711v-404h591v-197h-591v-445h711v-197h-920z" />
    <glyph glyph-name="Eacute" unicode="&#xc9;" horiz-adv-x="1160" 
d="M708 1600h-164l143 350h164zM140 0v1440h920v-197h-711v-404h591v-197h-591v-445h711v-197h-920z" />
    <glyph glyph-name="Ecircumflex" unicode="&#xca;" horiz-adv-x="1160" 
d="M239 1600l258 300h180l259 -300h-200l-149 177l-148 -177h-200zM140 0v1440h920v-197h-711v-404h591v-197h-591v-445h711v-197h-920z" />
    <glyph glyph-name="Edieresis" unicode="&#xcb;" horiz-adv-x="1160" 
d="M690 1621v200h200v-200h-200zM287 1621v200h200v-200h-200zM140 0v1440h920v-197h-711v-404h591v-197h-591v-445h711v-197h-920z" />
    <glyph glyph-name="Igrave" unicode="&#xcc;" horiz-adv-x="529" 
d="M179 1600l-142 350h164l142 -350h-164zM160 0v1440h209v-1440h-209z" />
    <glyph glyph-name="Iacute" unicode="&#xcd;" horiz-adv-x="529" 
d="M350 1600h-164l143 350h164zM160 0v1440h209v-1440h-209z" />
    <glyph glyph-name="Icircumflex" unicode="&#xce;" horiz-adv-x="529" 
d="M-87 1600l259 300h180l259 -300h-200l-149 177l-149 -177h-200zM160 0v1440h209v-1440h-209z" />
    <glyph glyph-name="Idieresis" unicode="&#xcf;" horiz-adv-x="529" 
d="M366 1621v200h200v-200h-200zM-37 1621v200h200v-200h-200zM160 0v1440h209v-1440h-209z" />
    <glyph glyph-name="Eth" unicode="&#xd0;" horiz-adv-x="1379" 
d="M20 637v168h660v-168h-660zM138 0v1440h451q20 0 74.5 -1t104.5 -8q169 -21 284.5 -121t174.5 -253.5t59 -336.5q0 -184 -59 -337.5t-174.5 -253t-284.5 -120.5q-50 -7 -104.5 -8t-74.5 -1h-451zM352 199h237q34 0 81 2t83 8q110 21 178.5 95.5t100.5 183.5t32 232
q0 127 -33 235.5t-101.5 182t-176.5 93.5q-36 7 -83.5 8.5t-80.5 1.5h-237v-1042z" />
    <glyph glyph-name="Ntilde" unicode="&#xd1;" horiz-adv-x="1413" 
d="M891 1604q-45 0 -87.5 20t-81.5 45.5t-73 45.5t-64 20q-34 0 -45 -32.5t1 -75.5h-136q-27 111 15 187.5t149 76.5q46 0 88 -20t81 -45.5t73.5 -45.5t63.5 -20q33 0 45.5 31.5t-0.5 77.5h136q27 -109 -15 -187t-150 -78zM140 0v1440h212l709 -1070v1070h212v-1440h-212
l-709 1071v-1071h-212z" />
    <glyph glyph-name="Ograve" unicode="&#xd2;" horiz-adv-x="1481" 
d="M643 1600l-143 350h164l143 -350h-164zM741 -30q-216 0 -368 94.5t-232.5 263.5t-80.5 392t80.5 392t232.5 263.5t368 94.5q215 0 367.5 -94.5t232.5 -263.5t80 -392t-80 -392t-232.5 -263.5t-367.5 -94.5zM741 169q153 -2 254.5 67.5t152.5 194t51 289.5t-51 288.5
t-152.5 192.5t-254.5 70q-153 2 -254.5 -67t-152.5 -194t-52 -290t50 -288.5t153.5 -192.5t255.5 -70z" />
    <glyph glyph-name="Oacute" unicode="&#xd3;" horiz-adv-x="1481" 
d="M835 1600h-164l143 350h164zM741 -30q-216 0 -368 94.5t-232.5 263.5t-80.5 392t80.5 392t232.5 263.5t368 94.5q215 0 367.5 -94.5t232.5 -263.5t80 -392t-80 -392t-232.5 -263.5t-367.5 -94.5zM741 169q153 -2 254.5 67.5t152.5 194t51 289.5t-51 288.5t-152.5 192.5
t-254.5 70q-153 2 -254.5 -67t-152.5 -194t-52 -290t50 -288.5t153.5 -192.5t255.5 -70z" />
    <glyph glyph-name="Ocircumflex" unicode="&#xd4;" horiz-adv-x="1481" 
d="M389 1600l259 300h180l259 -300h-200l-149 177l-149 -177h-200zM741 -30q-216 0 -368 94.5t-232.5 263.5t-80.5 392t80.5 392t232.5 263.5t368 94.5q215 0 367.5 -94.5t232.5 -263.5t80 -392t-80 -392t-232.5 -263.5t-367.5 -94.5zM741 169q153 -2 254.5 67.5t152.5 194
t51 289.5t-51 288.5t-152.5 192.5t-254.5 70q-153 2 -254.5 -67t-152.5 -194t-52 -290t50 -288.5t153.5 -192.5t255.5 -70z" />
    <glyph glyph-name="Otilde" unicode="&#xd5;" horiz-adv-x="1481" 
d="M741 -30q-216 0 -368 94.5t-232.5 263.5t-80.5 392t80.5 392t232.5 263.5t368 94.5q215 0 367.5 -94.5t232.5 -263.5t80 -392t-80 -392t-232.5 -263.5t-367.5 -94.5zM741 169q153 -2 254.5 67.5t152.5 194t51 289.5t-51 288.5t-152.5 192.5t-254.5 70q-153 2 -254.5 -67
t-152.5 -194t-52 -290t50 -288.5t153.5 -192.5t255.5 -70zM915 1604q-46 0 -88 20t-81 45.5t-73.5 45.5t-63.5 20q-34 0 -45.5 -32.5t0.5 -75.5h-136q-26 111 15.5 187.5t148.5 76.5q46 0 88.5 -20t81.5 -45.5t73.5 -45.5t63.5 -20q33 0 45.5 31.5t-0.5 77.5h136
q27 -109 -15 -187t-150 -78z" />
    <glyph glyph-name="Odieresis" unicode="&#xd6;" horiz-adv-x="1481" 
d="M842 1621v200h200v-200h-200zM439 1621v200h200v-200h-200zM741 -30q-216 0 -368 94.5t-232.5 263.5t-80.5 392t80.5 392t232.5 263.5t368 94.5q215 0 367.5 -94.5t232.5 -263.5t80 -392t-80 -392t-232.5 -263.5t-367.5 -94.5zM741 169q153 -2 254.5 67.5t152.5 194
t51 289.5t-51 288.5t-152.5 192.5t-254.5 70q-153 2 -254.5 -67t-152.5 -194t-52 -290t50 -288.5t153.5 -192.5t255.5 -70z" />
    <glyph glyph-name="multiply" unicode="&#xd7;" horiz-adv-x="1001" 
d="M762 340l-262 262l-262 -262l-118 119l261 262l-260 261l119 118l260 -260l261 260l119 -118l-261 -261l262 -262z" />
    <glyph glyph-name="Oslash" unicode="&#xd8;" horiz-adv-x="1481" 
d="M215 -26l-149 133l172 191l30 28l822 909l15 22l186 207l149 -133l-203 -226l-23 -18l-823 -912l-18 -25zM741 -30q-216 0 -368 94.5t-232.5 263.5t-80.5 392t80.5 392t232.5 263.5t368 94.5q215 0 367.5 -94.5t232.5 -263.5t80 -392t-80 -392t-232.5 -263.5
t-367.5 -94.5zM741 169q153 -2 254.5 67.5t152.5 194t51 289.5t-51 288.5t-152.5 192.5t-254.5 70q-153 2 -254.5 -67t-152.5 -194t-52 -290t50 -288.5t153.5 -192.5t255.5 -70z" />
    <glyph glyph-name="Ugrave" unicode="&#xd9;" horiz-adv-x="1428" 
d="M651 1600l-143 350h164l143 -350h-164zM714 -30q-169 0 -298.5 69.5t-202.5 195t-73 295.5v909l212 1v-899q0 -92 31 -162t83 -117t116.5 -71t131.5 -24q68 0 132.5 24.5t116.5 71.5t82.5 117t30.5 161v899h212v-910q0 -169 -73 -295t-202.5 -195.5t-298.5 -69.5z" />
    <glyph glyph-name="Uacute" unicode="&#xda;" horiz-adv-x="1428" 
d="M787 1600h-164l143 350h164zM714 -30q-169 0 -298.5 69.5t-202.5 195t-73 295.5v909l212 1v-899q0 -92 31 -162t83 -117t116.5 -71t131.5 -24q68 0 132.5 24.5t116.5 71.5t82.5 117t30.5 161v899h212v-910q0 -169 -73 -295t-202.5 -195.5t-298.5 -69.5z" />
    <glyph glyph-name="Ucircumflex" unicode="&#xdb;" horiz-adv-x="1428" 
d="M363 1600l258 300h180l259 -300h-200l-149 177l-148 -177h-200zM714 -30q-169 0 -298.5 69.5t-202.5 195t-73 295.5v909l212 1v-899q0 -92 31 -162t83 -117t116.5 -71t131.5 -24q68 0 132.5 24.5t116.5 71.5t82.5 117t30.5 161v899h212v-910q0 -169 -73 -295
t-202.5 -195.5t-298.5 -69.5z" />
    <glyph glyph-name="Udieresis" unicode="&#xdc;" horiz-adv-x="1428" 
d="M815 1621v200h200v-200h-200zM413 1621v200h200v-200h-200zM714 -30q-169 0 -298.5 69.5t-202.5 195t-73 295.5v909l212 1v-899q0 -92 31 -162t83 -117t116.5 -71t131.5 -24q68 0 132.5 24.5t116.5 71.5t82.5 117t30.5 161v899h212v-910q0 -169 -73 -295t-202.5 -195.5
t-298.5 -69.5z" />
    <glyph glyph-name="Yacute" unicode="&#xdd;" horiz-adv-x="1186" 
d="M665 1600h-164l143 350h164zM487 0v595l-487 845h244l349 -605l349 605h244l-487 -845v-595h-212z" />
    <glyph glyph-name="Thorn" unicode="&#xde;" horiz-adv-x="1237" 
d="M140 0v1440h212v-259h359q76 0 149 -24q61 -20 115 -57t92 -88q52 -60 80.5 -136.5t29.5 -155.5q1 -77 -27 -151t-75 -134q-62 -80 -158.5 -127.5t-205.5 -47.5h-359v-260h-212zM352 457h358q52 0 105.5 26.5t90.5 73.5q27 35 43 77t14 86q-1 50 -18.5 96.5t-51.5 81.5
q-34 37 -83.5 61t-99.5 24h-358v-526z" />
    <glyph glyph-name="germandbls" unicode="&#xdf;" horiz-adv-x="1245" 
d="M667 -29q-59 0 -102.5 6.5t-81.5 22.5v205q33 -12 71.5 -20t86.5 -8q123 0 197.5 62t74.5 183q0 125 -94.5 187t-246.5 63v185q65 6 114.5 31t77.5 70t28 110q0 97 -64 151t-157 54q-63 0 -115.5 -26.5t-79.5 -87.5q-13 -29 -18.5 -69.5t-5.5 -84.5v-1005h-213v1061
q0 44 4.5 80.5t15.5 69.5q30 90 91 147.5t143.5 84.5t177.5 27q123 0 221.5 -50t155.5 -140t57 -209q0 -89 -34.5 -162t-104.5 -116q50 -15 96.5 -47.5t83 -80.5t58 -110t21.5 -136q0 -207 -117.5 -327.5t-340.5 -120.5z" />
    <glyph glyph-name="agrave" unicode="&#xe0;" horiz-adv-x="1139" 
d="M501 1240l-142 350h164l142 -350h-164zM445 -30q-120 0 -201 44.5t-122.5 118t-41.5 161.5q0 82 29 144t86 105.5t140 70.5q72 21 163 37t191.5 30t199.5 28l-76 -42q2 127 -53.5 188.5t-190.5 61.5q-85 0 -156 -39.5t-99 -130.5l-195 60q40 139 152.5 221t299.5 82
q145 0 252.5 -49.5t157.5 -156.5q26 -53 32 -112t6 -127v-665h-185v247l36 -32q-67 -124 -170.5 -184.5t-254.5 -60.5zM482 141q89 0 153 31.5t103 80.5t51 102q17 48 19.5 108t2.5 96l68 -25q-99 -15 -180 -27t-146.5 -23.5t-116.5 -27.5q-43 -15 -76.5 -36t-53 -51
t-19.5 -73q0 -42 21 -77.5t64 -56.5t110 -21z" />
    <glyph glyph-name="aacute" unicode="&#xe1;" horiz-adv-x="1139" 
d="M668 1240h-164l142 350h164zM445 -30q-120 0 -201 44.5t-122.5 118t-41.5 161.5q0 82 29 144t86 105.5t140 70.5q72 21 163 37t191.5 30t199.5 28l-76 -42q2 127 -53.5 188.5t-190.5 61.5q-85 0 -156 -39.5t-99 -130.5l-195 60q40 139 152.5 221t299.5 82
q145 0 252.5 -49.5t157.5 -156.5q26 -53 32 -112t6 -127v-665h-185v247l36 -32q-67 -124 -170.5 -184.5t-254.5 -60.5zM482 141q89 0 153 31.5t103 80.5t51 102q17 48 19.5 108t2.5 96l68 -25q-99 -15 -180 -27t-146.5 -23.5t-116.5 -27.5q-43 -15 -76.5 -36t-53 -51
t-19.5 -73q0 -42 21 -77.5t64 -56.5t110 -21z" />
    <glyph glyph-name="acircumflex" unicode="&#xe2;" horiz-adv-x="1139" 
d="M235 1240l258 300h180l259 -300h-200l-149 177l-148 -177h-200zM445 -30q-120 0 -201 44.5t-122.5 118t-41.5 161.5q0 82 29 144t86 105.5t140 70.5q72 21 163 37t191.5 30t199.5 28l-76 -42q2 127 -53.5 188.5t-190.5 61.5q-85 0 -156 -39.5t-99 -130.5l-195 60
q40 139 152.5 221t299.5 82q145 0 252.5 -49.5t157.5 -156.5q26 -53 32 -112t6 -127v-665h-185v247l36 -32q-67 -124 -170.5 -184.5t-254.5 -60.5zM482 141q89 0 153 31.5t103 80.5t51 102q17 48 19.5 108t2.5 96l68 -25q-99 -15 -180 -27t-146.5 -23.5t-116.5 -27.5
q-43 -15 -76.5 -36t-53 -51t-19.5 -73q0 -42 21 -77.5t64 -56.5t110 -21z" />
    <glyph glyph-name="atilde" unicode="&#xe3;" horiz-adv-x="1139" 
d="M761 1244q-46 0 -88 20t-81 45.5t-73.5 45.5t-63.5 20q-35 0 -46 -32.5t1 -75.5h-136q-27 111 15 187.5t149 76.5q46 0 88.5 -20t81.5 -45.5t73 -45.5t64 -20q32 0 45 31.5t-1 77.5h136q28 -109 -14 -187t-150 -78zM445 -30q-120 0 -201 44.5t-122.5 118t-41.5 161.5
q0 82 29 144t86 105.5t140 70.5q72 21 163 37t191.5 30t199.5 28l-76 -42q2 127 -53.5 188.5t-190.5 61.5q-85 0 -156 -39.5t-99 -130.5l-195 60q40 139 152.5 221t299.5 82q145 0 252.5 -49.5t157.5 -156.5q26 -53 32 -112t6 -127v-665h-185v247l36 -32
q-67 -124 -170.5 -184.5t-254.5 -60.5zM482 141q89 0 153 31.5t103 80.5t51 102q17 48 19.5 108t2.5 96l68 -25q-99 -15 -180 -27t-146.5 -23.5t-116.5 -27.5q-43 -15 -76.5 -36t-53 -51t-19.5 -73q0 -42 21 -77.5t64 -56.5t110 -21z" />
    <glyph glyph-name="adieresis" unicode="&#xe4;" horiz-adv-x="1139" 
d="M691 1261v200h200v-200h-200zM288 1261v200h200v-200h-200zM445 -30q-120 0 -201 44.5t-122.5 118t-41.5 161.5q0 82 29 144t86 105.5t140 70.5q72 21 163 37t191.5 30t199.5 28l-76 -42q2 127 -53.5 188.5t-190.5 61.5q-85 0 -156 -39.5t-99 -130.5l-195 60
q40 139 152.5 221t299.5 82q145 0 252.5 -49.5t157.5 -156.5q26 -53 32 -112t6 -127v-665h-185v247l36 -32q-67 -124 -170.5 -184.5t-254.5 -60.5zM482 141q89 0 153 31.5t103 80.5t51 102q17 48 19.5 108t2.5 96l68 -25q-99 -15 -180 -27t-146.5 -23.5t-116.5 -27.5
q-43 -15 -76.5 -36t-53 -51t-19.5 -73q0 -42 21 -77.5t64 -56.5t110 -21z" />
    <glyph glyph-name="aring" unicode="&#xe5;" horiz-adv-x="1139" 
d="M583 1193q-67 0 -122.5 33t-89 89t-33.5 123q0 68 33.5 123t89 88.5t122.5 33.5q68 0 123.5 -33.5t88.5 -88.5t33 -123q0 -67 -33 -123t-88.5 -89t-123.5 -33zM583 1328q46 0 78 32.5t32 77.5q0 46 -32 78t-78 32q-45 0 -77.5 -32t-32.5 -78q0 -45 32.5 -77.5t77.5 -32.5
zM445 -30q-120 0 -201 44.5t-122.5 118t-41.5 161.5q0 82 29 144t86 105.5t140 70.5q72 21 163 37t191.5 30t199.5 28l-76 -42q2 127 -53.5 188.5t-190.5 61.5q-85 0 -156 -39.5t-99 -130.5l-195 60q40 139 152.5 221t299.5 82q145 0 252.5 -49.5t157.5 -156.5
q26 -53 32 -112t6 -127v-665h-185v247l36 -32q-67 -124 -170.5 -184.5t-254.5 -60.5zM482 141q89 0 153 31.5t103 80.5t51 102q17 48 19.5 108t2.5 96l68 -25q-99 -15 -180 -27t-146.5 -23.5t-116.5 -27.5q-43 -15 -76.5 -36t-53 -51t-19.5 -73q0 -42 21 -77.5t64 -56.5
t110 -21z" />
    <glyph glyph-name="ae" unicode="&#xe6;" horiz-adv-x="1876" 
d="M1330 -30q-157 0 -271.5 72.5t-176.5 199t-62 289.5q0 173 61 303.5t173.5 203t266.5 72.5q163 0 271.5 -80t159.5 -222t41 -327h-198v76q-2 172 -61.5 270t-213.5 98q-104 0 -168 -49.5t-93.5 -136.5t-29.5 -199q0 -170 73.5 -271.5t217.5 -101.5q88 0 157 43t108 129
l193 -65q-38 -97 -107 -165t-156.5 -103.5t-184.5 -35.5zM482 139q99 0 177 47t112 111q19 38 28.5 82t11.5 86.5t1 75.5l67 -36l-269 -18q-42 -3 -97 -10.5t-106.5 -27t-85.5 -56t-34 -96.5q0 -73 52 -115.5t143 -42.5zM457 -30q-180 0 -278.5 89t-98.5 232
q0 88 34.5 147.5t90.5 96t122 56.5t130.5 29t115.5 13l280 22l-44 -39q10 106 -17 172t-84 97.5t-137 31.5q-87 0 -158.5 -39t-101.5 -127l-192 59q31 88 95 155.5t156 106t206 38.5q172 0 277.5 -72t143.5 -200q15 -52 18.5 -101t3.5 -82l-101 -414q-48 -100 -119 -159.5
t-158 -85.5t-184 -26zM965 481v168h728v-168h-728z" />
    <glyph glyph-name="ccedilla" unicode="&#xe7;" horiz-adv-x="1137" 
d="M563 -482q-39 0 -72.5 10t-62.5 25l48 128q43 -14 69 -14q33 0 50.5 19.5t17.5 42.5q0 41 -39.5 59.5t-91.5 34.5l72 204l133 2l-43 -124q56 -27 88.5 -72t32.5 -110q0 -90 -60 -147.5t-142 -57.5zM602 -30q-166 0 -282 74t-177.5 203t-62.5 293q1 167 64 295.5
t180 201.5t281 73q177 0 302.5 -88t165.5 -241l-208 -60q-31 91 -101.5 141.5t-161.5 50.5q-103 0 -169 -48.5t-98 -132.5t-33 -192q1 -167 76.5 -270t223.5 -103q101 0 163.5 46.5t95.5 133.5l212 -50q-53 -158 -175 -242.5t-296 -84.5z" />
    <glyph glyph-name="egrave" unicode="&#xe8;" horiz-adv-x="1193" 
d="M533 1240l-143 350h164l143 -350h-164zM619 -30q-161 0 -282.5 70.5t-189 197t-67.5 293.5q0 177 66.5 307t185.5 201t277 71q165 0 281 -76.5t173.5 -217.5t45.5 -335h-209v76q-2 188 -71.5 278t-211.5 90q-157 0 -236 -99t-79 -286q0 -178 79 -275.5t228 -97.5
q98 0 169.5 44.5t111.5 127.5l205 -65q-63 -145 -191 -224.5t-285 -79.5zM234 481v163h771v-163h-771z" />
    <glyph glyph-name="eacute" unicode="&#xe9;" horiz-adv-x="1193" 
d="M712 1240h-164l143 350h164zM619 -30q-161 0 -282.5 70.5t-189 197t-67.5 293.5q0 177 66.5 307t185.5 201t277 71q165 0 281 -76.5t173.5 -217.5t45.5 -335h-209v76q-2 188 -71.5 278t-211.5 90q-157 0 -236 -99t-79 -286q0 -178 79 -275.5t228 -97.5q98 0 169.5 44.5
t111.5 127.5l205 -65q-63 -145 -191 -224.5t-285 -79.5zM234 481v163h771v-163h-771z" />
    <glyph glyph-name="ecircumflex" unicode="&#xea;" horiz-adv-x="1193" 
d="M257 1240l259 300h180l259 -300h-200l-149 177l-149 -177h-200zM619 -30q-161 0 -282.5 70.5t-189 197t-67.5 293.5q0 177 66.5 307t185.5 201t277 71q165 0 281 -76.5t173.5 -217.5t45.5 -335h-209v76q-2 188 -71.5 278t-211.5 90q-157 0 -236 -99t-79 -286
q0 -178 79 -275.5t228 -97.5q98 0 169.5 44.5t111.5 127.5l205 -65q-63 -145 -191 -224.5t-285 -79.5zM234 481v163h771v-163h-771z" />
    <glyph glyph-name="edieresis" unicode="&#xeb;" horiz-adv-x="1193" 
d="M710 1261v200h200v-200h-200zM307 1261v200h200v-200h-200zM619 -30q-161 0 -282.5 70.5t-189 197t-67.5 293.5q0 177 66.5 307t185.5 201t277 71q165 0 281 -76.5t173.5 -217.5t45.5 -335h-209v76q-2 188 -71.5 278t-211.5 90q-157 0 -236 -99t-79 -286
q0 -178 79 -275.5t228 -97.5q98 0 169.5 44.5t111.5 127.5l205 -65q-63 -145 -191 -224.5t-285 -79.5zM234 481v163h771v-163h-771z" />
    <glyph glyph-name="igrave" unicode="&#xec;" horiz-adv-x="529" 
d="M179 1240l-142 350h164l142 -350h-164zM160 0v1080h209v-1080h-209z" />
    <glyph glyph-name="iacute" unicode="&#xed;" horiz-adv-x="529" 
d="M350 1240h-164l143 350h164zM160 0v1080h209v-1080h-209z" />
    <glyph glyph-name="icircumflex" unicode="&#xee;" horiz-adv-x="529" 
d="M-73 1240l258 300h180l259 -300h-200l-149 177l-148 -177h-200zM160 0v1080h209v-1080h-209z" />
    <glyph glyph-name="idieresis" unicode="&#xef;" horiz-adv-x="529" 
d="M366 1261v200h200v-200h-200zM-37 1261v200h200v-200h-200zM160 0v1080h209v-1080h-209z" />
    <glyph glyph-name="eth" unicode="&#xf0;" horiz-adv-x="1183" 
d="M593 -30q-155 -1 -270 66t-178.5 187.5t-64.5 279.5q1 160 65 280.5t179 187t269 66.5q83 0 158.5 -26t149.5 -84q-15 110 -82 199.5t-170.5 145.5t-227.5 65l32 165q160 -6 283.5 -70t202.5 -181q61 -84 97 -185.5t51.5 -236.5t15.5 -320q0 -165 -62 -286.5t-177 -187.5
t-271 -65zM593 158q144 0 221.5 92.5t77.5 254.5q0 161 -79 253t-220 91q-146 1 -224 -90.5t-78 -254.5q0 -164 78.5 -255t223.5 -91zM629 1091l-121 106l313 368l120 -105z" />
    <glyph glyph-name="ntilde" unicode="&#xf1;" 
d="M777 1244q-45 0 -87.5 20t-81.5 45.5t-73 45.5t-64 20q-34 0 -45 -32.5t1 -75.5h-136q-27 111 15 187.5t149 76.5q46 0 88 -20t81 -45.5t73.5 -45.5t63.5 -20q33 0 45.5 31.5t-0.5 77.5h136q27 -109 -15 -187t-150 -78zM898 0v531q0 63 -10.5 129.5t-40 123.5t-83 92
t-139.5 35q-56 0 -106 -18.5t-87.5 -59.5t-59 -108t-21.5 -163l-130 49q0 147 55 259.5t158 175.5t249 63q112 0 188 -36t123.5 -94.5t72.5 -127.5t34 -135t9 -116v-600h-212zM139 0v1080h187v-312h25v-768h-212z" />
    <glyph glyph-name="ograve" unicode="&#xf2;" horiz-adv-x="1219" 
d="M516 1240l-142 350h164l142 -350h-164zM609 -30q-162 0 -281 73t-183.5 201.5t-64.5 296.5q0 169 66 297.5t185 200t278 71.5q162 0 281 -73t184 -201t65 -295q0 -169 -65.5 -297.5t-184.5 -201t-280 -72.5zM609 167q155 0 231.5 104.5t76.5 269.5q0 169 -77.5 270.5
t-230.5 101.5q-105 0 -173 -47.5t-101 -131t-33 -193.5q0 -170 78 -272t229 -102z" />
    <glyph glyph-name="oacute" unicode="&#xf3;" horiz-adv-x="1219" 
d="M692 1240h-164l143 350h164zM609 -30q-162 0 -281 73t-183.5 201.5t-64.5 296.5q0 169 66 297.5t185 200t278 71.5q162 0 281 -73t184 -201t65 -295q0 -169 -65.5 -297.5t-184.5 -201t-280 -72.5zM609 167q155 0 231.5 104.5t76.5 269.5q0 169 -77.5 270.5t-230.5 101.5
q-105 0 -173 -47.5t-101 -131t-33 -193.5q0 -170 78 -272t229 -102z" />
    <glyph glyph-name="ocircumflex" unicode="&#xf4;" horiz-adv-x="1219" 
d="M259 1240l258 300h180l259 -300h-200l-149 177l-148 -177h-200zM609 -30q-162 0 -281 73t-183.5 201.5t-64.5 296.5q0 169 66 297.5t185 200t278 71.5q162 0 281 -73t184 -201t65 -295q0 -169 -65.5 -297.5t-184.5 -201t-280 -72.5zM609 167q155 0 231.5 104.5
t76.5 269.5q0 169 -77.5 270.5t-230.5 101.5q-105 0 -173 -47.5t-101 -131t-33 -193.5q0 -170 78 -272t229 -102z" />
    <glyph glyph-name="otilde" unicode="&#xf5;" horiz-adv-x="1219" 
d="M771 1244q-45 0 -87.5 20t-81.5 45.5t-73 45.5t-64 20q-34 0 -45 -32.5t1 -75.5h-136q-27 111 15 187.5t149 76.5q46 0 88 -20t81 -45.5t73.5 -45.5t63.5 -20q33 0 45.5 31.5t-0.5 77.5h136q27 -109 -15 -187t-150 -78zM609 -30q-162 0 -281 73t-183.5 201.5t-64.5 296.5
q0 169 66 297.5t185 200t278 71.5q162 0 281 -73t184 -201t65 -295q0 -169 -65.5 -297.5t-184.5 -201t-280 -72.5zM609 167q155 0 231.5 104.5t76.5 269.5q0 169 -77.5 270.5t-230.5 101.5q-105 0 -173 -47.5t-101 -131t-33 -193.5q0 -170 78 -272t229 -102z" />
    <glyph glyph-name="odieresis" unicode="&#xf6;" horiz-adv-x="1219" 
d="M711 1261v200h200v-200h-200zM309 1261v200h200v-200h-200zM609 -30q-162 0 -281 73t-183.5 201.5t-64.5 296.5q0 169 66 297.5t185 200t278 71.5q162 0 281 -73t184 -201t65 -295q0 -169 -65.5 -297.5t-184.5 -201t-280 -72.5zM609 167q155 0 231.5 104.5t76.5 269.5
q0 170 -77.5 271t-230.5 101q-105 0 -173 -47.5t-101 -131t-33 -193.5q0 -170 78 -272t229 -102z" />
    <glyph glyph-name="divide" unicode="&#xf7;" horiz-adv-x="1080" 
d="M120 637v168h840v-168h-840zM496 902v221h221v-221h-221zM496 418v221h221v-221h-221z" />
    <glyph glyph-name="oslash" unicode="&#xf8;" horiz-adv-x="1219" 
d="M188 -20l-140 140l176 176l62 34l567 565l22 50l156 155l140 -141l-170 -167l-51 -25l-555 -555l-41 -66zM609 -30q-162 0 -281 73t-183.5 201.5t-64.5 296.5q0 169 66 297.5t185 200t278 71.5q162 0 281 -73t184 -201t65 -295q0 -169 -65.5 -297.5t-184.5 -201
t-280 -72.5zM609 167q155 0 231.5 104.5t76.5 269.5q0 169 -77.5 270.5t-230.5 101.5q-105 0 -173 -47.5t-101 -131t-33 -193.5q0 -170 78 -272t229 -102z" />
    <glyph glyph-name="ugrave" unicode="&#xf9;" 
d="M530 1240l-142 350h164l142 -350h-164zM547 -29q-112 0 -188 36t-123.5 94.5t-72.5 127.5t-34 135t-9 116v600h212v-531q0 -63 10.5 -129.5t40 -123.5t83 -92t139.5 -35q56 0 106 18.5t87.5 59.5t59 108t21.5 163l130 -49q0 -147 -55 -259.5t-158 -175.5t-249 -63zM904 0
v312h-25v768h211v-1080h-186z" />
    <glyph glyph-name="uacute" unicode="&#xfa;" 
d="M678 1240h-164l143 350h164zM547 -29q-112 0 -188 36t-123.5 94.5t-72.5 127.5t-34 135t-9 116v600h212v-531q0 -63 10.5 -129.5t40 -123.5t83 -92t139.5 -35q56 0 106 18.5t87.5 59.5t59 108t21.5 163l130 -49q0 -147 -55 -259.5t-158 -175.5t-249 -63zM904 0v312h-25
v768h211v-1080h-186z" />
    <glyph glyph-name="ucircumflex" unicode="&#xfb;" 
d="M253 1240l259 300h180l259 -300h-200l-149 177l-149 -177h-200zM547 -29q-112 0 -188 36t-123.5 94.5t-72.5 127.5t-34 135t-9 116v600h212v-531q0 -63 10.5 -129.5t40 -123.5t83 -92t139.5 -35q56 0 106 18.5t87.5 59.5t59 108t21.5 163l130 -49q0 -147 -55 -259.5
t-158 -175.5t-249 -63zM904 0v312h-25v768h211v-1080h-186z" />
    <glyph glyph-name="udieresis" unicode="&#xfc;" 
d="M706 1261v200h200v-200h-200zM303 1261v200h200v-200h-200zM547 -29q-112 0 -188 36t-123.5 94.5t-72.5 127.5t-34 135t-9 116v600h212v-531q0 -63 10.5 -129.5t40 -123.5t83 -92t139.5 -35q56 0 106 18.5t87.5 59.5t59 108t21.5 163l130 -49q0 -147 -55 -259.5
t-158 -175.5t-249 -63zM904 0v312h-25v768h211v-1080h-186z" />
    <glyph glyph-name="yacute" unicode="&#xfd;" horiz-adv-x="1097" 
d="M639 1240h-164l143 350h164zM286 -480l209 569l3 -168l-471 1159h218l352 -895h-64l336 895h212l-596 -1560h-199z" />
    <glyph glyph-name="thorn" unicode="&#xfe;" horiz-adv-x="1216" 
d="M140 837v603h211v-603h-211zM647 -30q-155 0 -260 75.5t-159 204.5t-54 291t53.5 291t158 203.5t257.5 74.5q152 0 262.5 -74.5t170.5 -203t60 -291.5q0 -162 -59.5 -291.5t-169 -204.5t-260.5 -75zM139 -480v1560h186v-777h24v-783h-210zM618 159q100 0 165.5 51
t98 137.5t32.5 193.5q0 106 -32.5 192t-99.5 137t-171 51q-98 0 -161.5 -48t-94 -134t-30.5 -198t30 -198t95 -135t168 -49z" />
    <glyph glyph-name="ydieresis" unicode="&#xff;" horiz-adv-x="1097" 
d="M662 1261v200h200v-200h-200zM259 1261v200h200v-200h-200zM286 -480l209 569l3 -168l-471 1159h218l352 -895h-64l336 895h212l-596 -1560h-199z" />
    <glyph glyph-name="Amacron" unicode="&#x100;" horiz-adv-x="1317" 
d="M398 1680v167h523v-167h-523zM40 0l468 1440h301l468 -1440h-217l-431 1314h54l-426 -1314h-217zM283 325v196h752v-196h-752z" />
    <glyph glyph-name="amacron" unicode="&#x101;" horiz-adv-x="1139" 
d="M349 1320v167h523v-167h-523zM445 -30q-120 0 -201 44.5t-122.5 118t-41.5 161.5q0 82 29 144t86 105.5t140 70.5q72 21 163 37t191.5 30t199.5 28l-76 -42q2 127 -53.5 188.5t-190.5 61.5q-85 0 -156 -39.5t-99 -130.5l-195 60q40 139 152.5 221t299.5 82
q145 0 252.5 -49.5t157.5 -156.5q26 -53 32 -112t6 -127v-665h-185v247l36 -32q-67 -124 -170.5 -184.5t-254.5 -60.5zM482 141q89 0 153 31.5t103 80.5t51 102q17 48 19.5 108t2.5 96l68 -25q-99 -15 -180 -27t-146.5 -23.5t-116.5 -27.5q-43 -15 -76.5 -36t-53 -51
t-19.5 -73q0 -42 21 -77.5t64 -56.5t110 -21z" />
    <glyph glyph-name="Abreve" unicode="&#x102;" horiz-adv-x="1317" 
d="M659 1564q-79 0 -144.5 39t-104.5 104t-39 145h166q0 -50 36 -86t86 -36q51 0 86.5 36t35.5 86h166q0 -80 -38.5 -145t-104 -104t-145.5 -39zM40 0l468 1440h301l468 -1440h-217l-431 1314h54l-426 -1314h-217zM283 325v196h752v-196h-752z" />
    <glyph glyph-name="abreve" unicode="&#x103;" horiz-adv-x="1139" 
d="M581 1204q-79 0 -144.5 39t-104.5 104t-39 145h166q0 -50 36 -86t86 -36q51 0 86.5 36t35.5 86h166q0 -80 -38.5 -145t-104 -104t-145.5 -39zM445 -30q-120 0 -201 44.5t-122.5 118t-41.5 161.5q0 82 29 144t86 105.5t140 70.5q72 21 163 37t191.5 30t199.5 28l-76 -42
q2 127 -53.5 188.5t-190.5 61.5q-85 0 -156 -39.5t-99 -130.5l-195 60q40 139 152.5 221t299.5 82q145 0 252.5 -49.5t157.5 -156.5q26 -53 32 -112t6 -127v-665h-185v247l36 -32q-67 -124 -170.5 -184.5t-254.5 -60.5zM482 141q89 0 153 31.5t103 80.5t51 102
q17 48 19.5 108t2.5 96l68 -25q-99 -15 -180 -27t-146.5 -23.5t-116.5 -27.5q-43 -15 -76.5 -36t-53 -51t-19.5 -73q0 -42 21 -77.5t64 -56.5t110 -21z" />
    <glyph glyph-name="Aogonek" unicode="&#x104;" horiz-adv-x="1317" 
d="M1092 -480q-60 0 -106.5 29.5t-73.5 77.5t-27 104q0 69 39.5 140t106 133t149.5 106l97 -110q-61 -34 -112 -79.5t-81.5 -92t-30.5 -83.5q0 -29 19 -47.5t45 -18.5q19 0 40 10.5t40 28.5l80 -101q-35 -47 -84 -72t-101 -25zM40 0l468 1440h301l468 -1440h-217l-431 1314
h54l-426 -1314h-217zM283 325v196h752v-196h-752z" />
    <glyph glyph-name="aogonek" unicode="&#x105;" horiz-adv-x="1139" 
d="M834 -480q-60 0 -106.5 29.5t-73.5 77.5t-27 104q0 69 39.5 140t106 133t149.5 106l97 -110q-61 -34 -112 -79.5t-81.5 -92t-30.5 -83.5q0 -29 19 -47.5t45 -18.5q19 0 40 10.5t40 28.5l80 -101q-35 -47 -84 -72t-101 -25zM445 -30q-120 0 -201 44.5t-122.5 118
t-41.5 161.5q0 82 29 144t86 105.5t140 70.5q72 21 163 37t191.5 30t199.5 28l-76 -42q2 127 -53.5 188.5t-190.5 61.5q-85 0 -156 -39.5t-99 -130.5l-195 60q40 139 152.5 221t299.5 82q145 0 252.5 -49.5t157.5 -156.5q26 -53 32 -112t6 -127v-665h-185v247l36 -32
q-67 -124 -170.5 -184.5t-254.5 -60.5zM482 141q89 0 153 31.5t103 80.5t51 102q17 48 19.5 108t2.5 96l68 -25q-99 -15 -180 -27t-146.5 -23.5t-116.5 -27.5q-43 -15 -76.5 -36t-53 -51t-19.5 -73q0 -42 21 -77.5t64 -56.5t110 -21z" />
    <glyph glyph-name="Cacute" unicode="&#x106;" horiz-adv-x="1461" 
d="M842 1600h-164l143 350h164zM741 -30q-216 0 -368 94.5t-232.5 263.5t-80.5 392t80.5 392t232.5 263.5t368 94.5q249 0 412.5 -126t227.5 -339l-212 -57q-42 151 -149.5 237t-278.5 86q-153 0 -255 -69t-153.5 -193t-51.5 -289q-1 -165 50.5 -289t154 -193t255.5 -69
q171 0 278.5 86.5t149.5 236.5l212 -57q-64 -213 -227.5 -339t-412.5 -126z" />
    <glyph glyph-name="cacute" unicode="&#x107;" horiz-adv-x="1137" 
d="M692 1240h-164l143 350h164zM602 -30q-166 0 -282 74t-177.5 203t-62.5 293q1 167 64 295.5t180 201.5t281 73q177 0 302.5 -88t165.5 -241l-208 -60q-31 91 -101.5 141.5t-161.5 50.5q-103 0 -169 -48.5t-98 -132.5t-33 -192q1 -167 76.5 -270t223.5 -103
q101 0 163.5 46.5t95.5 133.5l212 -50q-53 -158 -175 -242.5t-296 -84.5z" />
    <glyph glyph-name="Ccircumflex" unicode="&#x108;" horiz-adv-x="1461" 
d="M390 1600l258 300h180l259 -300h-200l-149 177l-148 -177h-200zM741 -30q-216 0 -368 94.5t-232.5 263.5t-80.5 392t80.5 392t232.5 263.5t368 94.5q249 0 412.5 -126t227.5 -339l-212 -57q-42 151 -149.5 237t-278.5 86q-153 0 -255 -69t-153.5 -193t-51.5 -289
q-1 -165 50.5 -289t154 -193t255.5 -69q171 0 278.5 86.5t149.5 236.5l212 -57q-64 -213 -227.5 -339t-412.5 -126z" />
    <glyph glyph-name="ccircumflex" unicode="&#x109;" horiz-adv-x="1137" 
d="M259 1240l258 300h180l259 -300h-200l-149 177l-148 -177h-200zM602 -30q-166 0 -282 74t-177.5 203t-62.5 293q1 167 64 295.5t180 201.5t281 73q177 0 302.5 -88t165.5 -241l-208 -60q-31 91 -101.5 141.5t-161.5 50.5q-103 0 -169 -48.5t-98 -132.5t-33 -192
q1 -167 76.5 -270t223.5 -103q101 0 163.5 46.5t95.5 133.5l212 -50q-53 -158 -175 -242.5t-296 -84.5z" />
    <glyph glyph-name="Cdotaccent" unicode="&#x10a;" horiz-adv-x="1461" 
d="M642 1659v221h221v-221h-221zM741 -30q-216 0 -368 94.5t-232.5 263.5t-80.5 392t80.5 392t232.5 263.5t368 94.5q249 0 412.5 -126t227.5 -339l-212 -57q-42 151 -149.5 237t-278.5 86q-153 0 -255 -69t-153.5 -193t-51.5 -289q-1 -165 50.5 -289t154 -193t255.5 -69
q171 0 278.5 86.5t149.5 236.5l212 -57q-64 -213 -227.5 -339t-412.5 -126z" />
    <glyph glyph-name="cdotaccent" unicode="&#x10b;" horiz-adv-x="1137" 
d="M519 1299v221h221v-221h-221zM602 -30q-166 0 -282 74t-177.5 203t-62.5 293q1 167 64 295.5t180 201.5t281 73q177 0 302.5 -88t165.5 -241l-208 -60q-31 91 -101.5 141.5t-161.5 50.5q-103 0 -169 -48.5t-98 -132.5t-33 -192q1 -167 76.5 -270t223.5 -103
q101 0 163.5 46.5t95.5 133.5l212 -50q-53 -158 -175 -242.5t-296 -84.5z" />
    <glyph glyph-name="Ccaron" unicode="&#x10c;" horiz-adv-x="1461" 
d="M405 1900h200l148 -177l149 177h200l-259 -300h-180zM741 -30q-216 0 -368 94.5t-232.5 263.5t-80.5 392t80.5 392t232.5 263.5t368 94.5q249 0 412.5 -126t227.5 -339l-212 -57q-42 151 -149.5 237t-278.5 86q-153 0 -255 -69t-153.5 -193t-51.5 -289q-1 -165 50.5 -289
t154 -193t255.5 -69q171 0 278.5 86.5t149.5 236.5l212 -57q-64 -213 -227.5 -339t-412.5 -126z" />
    <glyph glyph-name="ccaron" unicode="&#x10d;" horiz-adv-x="1137" 
d="M253 1540h200l149 -177l149 177h200l-259 -300h-180zM602 -30q-166 0 -282 74t-177.5 203t-62.5 293q1 167 64 295.5t180 201.5t281 73q177 0 302.5 -88t165.5 -241l-208 -60q-31 91 -101.5 141.5t-161.5 50.5q-103 0 -169 -48.5t-98 -132.5t-33 -192q1 -167 76.5 -270
t223.5 -103q101 0 163.5 46.5t95.5 133.5l212 -50q-53 -158 -175 -242.5t-296 -84.5z" />
    <glyph glyph-name="Dcaron" unicode="&#x10e;" horiz-adv-x="1381" 
d="M262 1900h200l149 -177l148 177h200l-258 -300h-180zM140 0v1440h451q20 0 74.5 -1t104.5 -8q169 -21 284.5 -121t174.5 -253.5t59 -336.5q0 -184 -59 -337.5t-174.5 -253t-284.5 -120.5q-50 -7 -104.5 -8t-74.5 -1h-451zM354 199h237q34 0 81 2t83 8q110 21 178.5 95.5
t100.5 183.5t32 232q0 127 -33 235.5t-101.5 182t-176.5 93.5q-36 7 -83.5 8.5t-80.5 1.5h-237v-1042z" />
    <glyph glyph-name="dcaron" unicode="&#x10f;" horiz-adv-x="1526" 
d="M569 -30q-151 0 -260.5 75t-169 204.5t-59.5 291.5q0 163 60 291.5t170.5 203t262.5 74.5q153 0 257.5 -74.5t158 -203.5t53.5 -291t-54 -291t-159 -204.5t-260 -75.5zM598 159q103 0 168 49t95 135t30 198t-30.5 198t-94 134t-161.5 48q-104 0 -171 -51t-99.5 -137
t-32.5 -192q0 -107 32.5 -193.5t98 -137.5t165.5 -51zM891 0v777h-24v663h210v-1440h-186zM1253 966l13 93q43 -3 67 16t32 53t3 77h-115v241h221v-261q0 -118 -56.5 -178t-164.5 -41z" />
    <glyph glyph-name="Dcroat" unicode="&#x110;" horiz-adv-x="1379" 
d="M20 637v168h660v-168h-660zM138 0v1440h451q20 0 74.5 -1t104.5 -8q169 -21 284.5 -121t174.5 -253.5t59 -336.5q0 -184 -59 -337.5t-174.5 -253t-284.5 -120.5q-50 -7 -104.5 -8t-74.5 -1h-451zM352 199h237q34 0 81 2t83 8q110 21 178.5 95.5t100.5 183.5t32 232
q0 127 -33 235.5t-101.5 182t-176.5 93.5q-36 7 -83.5 8.5t-80.5 1.5h-237v-1042z" />
    <glyph glyph-name="dcroat" unicode="&#x111;" horiz-adv-x="1217" 
d="M687 1173v167h522v-167h-522zM569 -30q-151 0 -260.5 75t-169 204.5t-59.5 291.5q0 163 60 291.5t170.5 203t262.5 74.5q153 0 257.5 -74.5t158 -203.5t53.5 -291t-54 -291t-159 -204.5t-260 -75.5zM598 159q103 0 168 49t95 135t30 198t-30.5 198t-94 134t-161.5 48
q-104 0 -171 -51t-99.5 -137t-32.5 -192q0 -107 32.5 -193.5t98 -137.5t165.5 -51zM891 0v777h-24v663h210v-1440h-186z" />
    <glyph glyph-name="Emacron" unicode="&#x112;" horiz-adv-x="1160" 
d="M345 1680v167h523v-167h-523zM140 0v1440h920v-197h-711v-404h591v-197h-591v-445h711v-197h-920z" />
    <glyph glyph-name="emacron" unicode="&#x113;" horiz-adv-x="1193" 
d="M367 1320v167h523v-167h-523zM619 -30q-161 0 -282.5 70.5t-189 197t-67.5 293.5q0 177 66.5 307t185.5 201t277 71q165 0 281 -76.5t173.5 -217.5t45.5 -335h-209v76q-2 188 -71.5 278t-211.5 90q-157 0 -236 -99t-79 -286q0 -178 79 -275.5t228 -97.5q98 0 169.5 44.5
t111.5 127.5l205 -65q-63 -145 -191 -224.5t-285 -79.5zM234 481v163h771v-163h-771z" />
    <glyph glyph-name="Edotaccent" unicode="&#x116;" horiz-adv-x="1160" 
d="M491 1659v221h222v-221h-222zM140 0v1440h920v-197h-711v-404h591v-197h-591v-445h711v-197h-920z" />
    <glyph glyph-name="edotaccent" unicode="&#x117;" horiz-adv-x="1193" 
d="M499 1299v221h222v-221h-222zM619 -30q-161 0 -282.5 70.5t-189 197t-67.5 293.5q0 177 66.5 307t185.5 201t277 71q165 0 281 -76.5t173.5 -217.5t45.5 -335h-209v76q-2 188 -71.5 278t-211.5 90q-157 0 -236 -99t-79 -286q0 -178 79 -275.5t228 -97.5q98 0 169.5 44.5
t111.5 127.5l205 -65q-63 -145 -191 -224.5t-285 -79.5zM234 481v163h771v-163h-771z" />
    <glyph glyph-name="Eogonek" unicode="&#x118;" horiz-adv-x="1160" 
d="M875 -480q-59 0 -106 29.5t-73.5 77.5t-26.5 104q0 69 39 140t106 133t149 106l97 -110q-61 -34 -112 -79.5t-81 -92t-30 -83.5q0 -29 19 -47.5t45 -18.5q19 0 39.5 10.5t40.5 28.5l79 -101q-35 -47 -84 -72t-101 -25zM140 0v1440h920v-197h-711v-404h591v-197h-591v-445
h711v-197h-920z" />
    <glyph glyph-name="eogonek" unicode="&#x119;" horiz-adv-x="1193" 
d="M936 -461q-65 -28 -133.5 -11t-111.5 69q-38 45 -48 109.5t15 128.5q17 45 44.5 90t51.5 80q16 24 46 62.5t63 82t60 83.5l141 -16q-22 -40 -48 -80.5t-51 -77.5t-45.5 -68t-34.5 -52q-26 -45 -45.5 -85t-29.5 -73q-4 -15 -4.5 -38.5t15.5 -40.5q25 -27 63 -17t66 34
l80 -102q-16 -24 -39.5 -44t-54.5 -34zM619 -30q-161 0 -282.5 70.5t-189 197t-67.5 293.5q0 177 66.5 307t185.5 201t277 71q165 0 281 -76.5t173.5 -217.5t45.5 -335h-209v76q-2 188 -71.5 278t-211.5 90q-157 0 -236 -99t-79 -286q0 -178 79 -275.5t228 -97.5
q98 0 169.5 44.5t111.5 127.5l205 -65q-63 -145 -191 -224.5t-285 -79.5zM234 481v163h771v-163h-771z" />
    <glyph glyph-name="Ecaron" unicode="&#x11a;" horiz-adv-x="1160" 
d="M257 1900h200l149 -177l149 177h200l-259 -300h-180zM140 0v1440h920v-197h-711v-404h591v-197h-591v-445h711v-197h-920z" />
    <glyph glyph-name="ecaron" unicode="&#x11b;" horiz-adv-x="1193" 
d="M257 1540h200l149 -177l149 177h200l-259 -300h-180zM619 -30q-161 0 -282.5 70.5t-189 197t-67.5 293.5q0 177 66.5 307t185.5 201t277 71q165 0 281 -76.5t173.5 -217.5t45.5 -335h-209v76q-2 188 -71.5 278t-211.5 90q-157 0 -236 -99t-79 -286q0 -178 79 -275.5
t228 -97.5q98 0 169.5 44.5t111.5 127.5l205 -65q-63 -145 -191 -224.5t-285 -79.5zM234 481v163h771v-163h-771z" />
    <glyph glyph-name="Gcircumflex" unicode="&#x11c;" horiz-adv-x="1446" 
d="M368 1600l259 300h180l259 -300h-200l-149 177l-149 -177h-200zM729 -30q-145 0 -267 50.5t-212 147.5t-140 236t-50 316q0 233 85 400.5t236 258t348 90.5q254 0 405.5 -118t206.5 -326l-212 -38q-44 129 -142 206t-246 78q-153 1 -254.5 -68t-152.5 -193.5t-52 -289.5
t50 -288.5t153.5 -192.5t255.5 -70q123 -2 211.5 45.5t140.5 139.5t67 226h-280v168h502q2 -18 3 -47.5t1 -37.5q0 -200 -77 -357t-224 -246.5t-356 -89.5z" />
    <glyph glyph-name="gcircumflex" unicode="&#x11d;" horiz-adv-x="1216" 
d="M257 1240l258 300h180l259 -300h-200l-149 177l-148 -177h-200zM585 -510q-87 0 -168.5 27t-148.5 79.5t-111 129.5l193 98q35 -69 100 -101t137 -32q89 0 152 31.5t95.5 94.5t31.5 156v302h25v805h185v-1109q0 -43 -3 -82t-11 -78q-23 -109 -87.5 -180t-164 -106
t-225.5 -35zM569 -30q-151 0 -260.5 75t-169 204.5t-59.5 291.5q0 163 60 291.5t170.5 203t262.5 74.5q153 0 257.5 -74.5t158 -203.5t53.5 -291t-54 -291t-159 -204.5t-260 -75.5zM598 159q103 0 168 49t95 135t30 198t-30.5 198t-94 134t-161.5 48q-104 0 -171 -51
t-99.5 -137t-32.5 -192q0 -107 32.5 -193.5t98 -137.5t165.5 -51z" />
    <glyph glyph-name="Gbreve" unicode="&#x11e;" horiz-adv-x="1446" 
d="M734 1564q-79 0 -144.5 39t-104.5 104t-39 145h166q0 -50 36 -86t86 -36q51 0 86.5 36t35.5 86h166q0 -80 -38.5 -145t-104 -104t-145.5 -39zM729 -30q-145 0 -267 50.5t-212 147.5t-140 236t-50 316q0 233 85 400.5t236 258t348 90.5q254 0 405.5 -118t206.5 -326
l-212 -38q-44 129 -142 206t-246 78q-153 1 -254.5 -68t-152.5 -193.5t-52 -289.5t50 -288.5t153.5 -192.5t255.5 -70q123 -2 211.5 45.5t140.5 139.5t67 226h-280v168h502q2 -18 3 -47.5t1 -37.5q0 -200 -77 -357t-224 -246.5t-356 -89.5z" />
    <glyph glyph-name="gbreve" unicode="&#x11f;" horiz-adv-x="1216" 
d="M661 1204q-79 0 -144.5 39t-104.5 104t-39 145h166q0 -50 36 -86t86 -36q51 0 86.5 36t35.5 86h166q0 -80 -38.5 -145t-104 -104t-145.5 -39zM585 -510q-87 0 -168.5 27t-148.5 79.5t-111 129.5l193 98q35 -69 100 -101t137 -32q89 0 152 31.5t95.5 94.5t31.5 156v302h25
v805h185v-1109q0 -43 -3 -82t-11 -78q-23 -109 -87.5 -180t-164 -106t-225.5 -35zM569 -30q-151 0 -260.5 75t-169 204.5t-59.5 291.5q0 163 60 291.5t170.5 203t262.5 74.5q153 0 257.5 -74.5t158 -203.5t53.5 -291t-54 -291t-159 -204.5t-260 -75.5zM598 159q103 0 168 49
t95 135t30 198t-30.5 198t-94 134t-161.5 48q-104 0 -171 -51t-99.5 -137t-32.5 -192q0 -107 32.5 -193.5t98 -137.5t165.5 -51z" />
    <glyph glyph-name="Gdotaccent" unicode="&#x120;" horiz-adv-x="1446" 
d="M639 1659v221h222v-221h-222zM729 -30q-145 0 -267 50.5t-212 147.5t-140 236t-50 316q0 233 85 400.5t236 258t348 90.5q254 0 405.5 -118t206.5 -326l-212 -38q-44 129 -142 206t-246 78q-153 1 -254.5 -68t-152.5 -193.5t-52 -289.5t50 -288.5t153.5 -192.5t255.5 -70
q123 -2 211.5 45.5t140.5 139.5t67 226h-280v168h502q2 -18 3 -47.5t1 -37.5q0 -200 -77 -357t-224 -246.5t-356 -89.5z" />
    <glyph glyph-name="gdotaccent" unicode="&#x121;" horiz-adv-x="1216" 
d="M539 1299v221h222v-221h-222zM585 -510q-87 0 -168.5 27t-148.5 79.5t-111 129.5l193 98q35 -69 100 -101t137 -32q89 0 152 31.5t95.5 94.5t31.5 156v302h25v805h185v-1109q0 -43 -3 -82t-11 -78q-23 -109 -87.5 -180t-164 -106t-225.5 -35zM569 -30q-151 0 -260.5 75
t-169 204.5t-59.5 291.5q0 163 60 291.5t170.5 203t262.5 74.5q153 0 257.5 -74.5t158 -203.5t53.5 -291t-54 -291t-159 -204.5t-260 -75.5zM598 159q103 0 168 49t95 135t30 198t-30.5 198t-94 134t-161.5 48q-104 0 -171 -51t-99.5 -137t-32.5 -192q0 -107 32.5 -193.5
t98 -137.5t165.5 -51z" />
    <glyph glyph-name="uni0122" unicode="&#x122;" horiz-adv-x="1446" 
d="M651 -590v96q14 0 42 7t51 28t22 64h-115v211h210v-211q0 -91 -61 -143t-149 -52zM729 -30q-145 0 -267 50.5t-212 147.5t-140 236t-50 316q0 233 85 400.5t236 258t348 90.5q254 0 405.5 -118t206.5 -326l-212 -38q-44 129 -142 206t-246 78q-153 1 -254.5 -68
t-152.5 -193.5t-52 -289.5t50 -288.5t153.5 -192.5t255.5 -70q123 -2 211.5 45.5t140.5 139.5t67 226h-280v168h502q2 -18 3 -47.5t1 -37.5q0 -200 -77 -357t-224 -246.5t-356 -89.5z" />
    <glyph glyph-name="uni0123" unicode="&#x123;" horiz-adv-x="1216" 
d="M731 1705v-96q-14 0 -42 -7t-51 -28.5t-22 -64.5h115v-210h-210v210q0 92 61 144t149 52zM585 -510q-87 0 -168.5 27t-148.5 79.5t-111 129.5l193 98q35 -69 100 -101t137 -32q89 0 152 31.5t95.5 94.5t31.5 156v302h25v805h185v-1109q0 -43 -3 -82t-11 -78
q-23 -109 -87.5 -180t-164 -106t-225.5 -35zM569 -30q-151 0 -260.5 75t-169 204.5t-59.5 291.5q0 163 60 291.5t170.5 203t262.5 74.5q153 0 257.5 -74.5t158 -203.5t53.5 -291t-54 -291t-159 -204.5t-260 -75.5zM598 159q103 0 168 49t95 135t30 198t-30.5 198t-94 134
t-161.5 48q-104 0 -171 -51t-99.5 -137t-32.5 -192q0 -107 32.5 -193.5t98 -137.5t165.5 -51z" />
    <glyph glyph-name="Hcircumflex" unicode="&#x124;" horiz-adv-x="1419" 
d="M358 1600l259 300h180l258 -300h-200l-148 177l-149 -177h-200zM140 0v1440h209v-621h720v621h210v-1440h-210v622h-720v-622h-209z" />
    <glyph glyph-name="hcircumflex" unicode="&#x125;" 
d="M-119 1600l259 300h180l258 -300h-200l-148 177l-149 -177h-200zM898 0v531q0 63 -10.5 129.5t-40 123.5t-83 92t-139.5 35q-56 0 -106 -18.5t-87.5 -59.5t-59 -108t-21.5 -163l-130 49q0 147 55 259.5t158 175.5t249 63q112 0 188 -36t123.5 -94.5t72.5 -127.5t34 -135
t9 -116v-600h-212zM139 0v1440h187v-777h25v-663h-212z" />
    <glyph glyph-name="Hbar" unicode="&#x126;" horiz-adv-x="1459" 
d="M160 0v1440h209v-621h720v621h210v-1440h-210v622h-720v-622h-209zM20 991v197h1419v-197h-1419z" />
    <glyph glyph-name="hbar" unicode="&#x127;" 
d="M24 1173v167h523v-167h-523zM898 0v531q0 63 -10.5 129.5t-40 123.5t-83 92t-139.5 35q-56 0 -106 -18.5t-87.5 -59.5t-59 -108t-21.5 -163l-130 49q0 147 55 259.5t158 175.5t249 63q112 0 188 -36t123.5 -94.5t72.5 -127.5t34 -135t9 -116v-600h-212zM139 0v1440h187
v-777h25v-663h-212z" />
    <glyph glyph-name="Itilde" unicode="&#x128;" horiz-adv-x="529" 
d="M426 1604q-46 0 -88 20t-81 45.5t-73.5 45.5t-63.5 20q-35 0 -46 -32.5t1 -75.5h-136q-27 111 15 187.5t149 76.5q46 0 88.5 -20t81.5 -45.5t73 -45.5t64 -20q32 0 45 31.5t-1 77.5h136q28 -109 -14 -187t-150 -78zM160 0v1440h209v-1440h-209z" />
    <glyph glyph-name="itilde" unicode="&#x129;" horiz-adv-x="529" 
d="M426 1244q-46 0 -88 20t-81 45.5t-73.5 45.5t-63.5 20q-35 0 -46 -32.5t1 -75.5h-136q-27 111 15 187.5t149 76.5q46 0 88.5 -20t81.5 -45.5t73 -45.5t64 -20q32 0 45 31.5t-1 77.5h136q28 -109 -14 -187t-150 -78zM160 0v1080h209v-1080h-209z" />
    <glyph glyph-name="Imacron" unicode="&#x12a;" horiz-adv-x="529" 
d="M3 1680v167h523v-167h-523zM160 0v1440h209v-1440h-209z" />
    <glyph glyph-name="imacron" unicode="&#x12b;" horiz-adv-x="529" 
d="M3 1320v167h523v-167h-523zM160 0v1080h209v-1080h-209z" />
    <glyph glyph-name="Iogonek" unicode="&#x12e;" horiz-adv-x="529" 
d="M185 -480q-60 0 -106.5 29.5t-73.5 77.5t-27 104q0 69 39.5 140t106 133t149.5 106l96 -110q-61 -34 -111.5 -79.5t-81 -92t-30.5 -83.5q0 -29 19 -47.5t45 -18.5q19 0 40 10.5t40 28.5l79 -101q-35 -47 -84 -72t-100 -25zM160 0v1440h209v-1440h-209z" />
    <glyph glyph-name="iogonek" unicode="&#x12f;" horiz-adv-x="529" 
d="M185 -480q-60 0 -106.5 29.5t-73.5 77.5t-27 104q0 69 39.5 140t106 133t149.5 106l96 -110q-61 -34 -111.5 -79.5t-81 -92t-30.5 -83.5q0 -29 19 -47.5t45 -18.5q19 0 40 10.5t40 28.5l79 -101q-35 -47 -84 -72t-100 -25zM160 1257v203h209v-203h-209zM160 0v1080h209
v-1080h-209z" />
    <glyph glyph-name="Idotaccent" unicode="&#x130;" horiz-adv-x="529" 
d="M154 1659v221h221v-221h-221zM160 0v1440h209v-1440h-209z" />
    <glyph glyph-name="dotlessi" unicode="&#x131;" horiz-adv-x="529" 
d="M160 0v1080h209v-1080h-209z" />
    <glyph glyph-name="Jcircumflex" unicode="&#x134;" horiz-adv-x="977" 
d="M359 1600l258 300h180l259 -300h-200l-149 177l-148 -177h-200zM414 -29q-158 0 -265.5 84t-148.5 226l207 49q14 -67 71.5 -114.5t128.5 -47.5q47 0 98 24t76 78q17 36 20 82.5t3 108.5v979h212v-979q0 -64 -0.5 -114t-10 -94t-36.5 -91q-57 -99 -150 -145t-205 -46z
" />
    <glyph glyph-name="jcircumflex" unicode="&#x135;" horiz-adv-x="551" 
d="M-20 -480v198h55q83 0 121.5 40t38.5 123v1199h210v-1284q0 -132 -72.5 -204t-207.5 -72h-145zM-52 1240l259 300h180l258 -300h-200l-148 177l-149 -177h-200z" />
    <glyph glyph-name="uni0136" unicode="&#x136;" horiz-adv-x="1259" 
d="M565 -590v96q14 0 42 7t51.5 28t22.5 64h-116v211h211v-211q0 -91 -61.5 -143t-149.5 -52zM140 0v1440h209v-672l603 672h260l-637 -703l684 -737h-268l-642 688v-688h-209z" />
    <glyph glyph-name="uni0137" unicode="&#x137;" horiz-adv-x="1048" 
d="M475 -590v96q14 0 42 7t51 28t22 64h-115v211h210v-211q0 -91 -61 -143t-149 -52zM139 0l1 1440h212v-880l424 520h266l-448 -540l494 -540h-284l-452 520v-520h-213z" />
    <glyph glyph-name="Lacute" unicode="&#x139;" horiz-adv-x="1051" 
d="M350 1600h-164l143 350h164zM160 0v1440h209v-1243h652v-197h-861z" />
    <glyph glyph-name="lacute" unicode="&#x13a;" horiz-adv-x="529" 
d="M350 1600h-164l143 350h164zM160 0v1470h209v-1470h-209z" />
    <glyph glyph-name="uni013B" unicode="&#x13b;" horiz-adv-x="1051" 
d="M485 -590v96q14 0 42 7t51.5 28t22.5 64h-116v211h211v-211q0 -91 -61.5 -143t-149.5 -52zM160 0v1440h209v-1243h652v-197h-861z" />
    <glyph glyph-name="uni013C" unicode="&#x13c;" horiz-adv-x="529" 
d="M159 -590v96q14 0 42 7t51.5 28t22.5 64h-116v211h211v-211q0 -91 -61.5 -143t-149.5 -52zM160 0v1470h209v-1470h-209z" />
    <glyph glyph-name="Lcaron" unicode="&#x13d;" horiz-adv-x="1051" 
d="M160 0v1440h209v-1243h652v-197h-861zM649 966l13 93q43 -3 67 16t32 53t3 77h-115v241h221v-261q0 -118 -56.5 -178t-164.5 -41z" />
    <glyph glyph-name="lcaron" unicode="&#x13e;" horiz-adv-x="805" 
d="M160 0v1470h209v-1470h-209zM533 966l13 93q43 -3 67 16t32 53t3 77h-115v241h221v-261q0 -118 -56.5 -178t-164.5 -41z" />
    <glyph glyph-name="Lslash" unicode="&#x141;" horiz-adv-x="1078" 
d="M70 365v228l655 376v-228zM187 0v1440h209v-1243h652v-197h-861z" />
    <glyph glyph-name="lslash" unicode="&#x142;" horiz-adv-x="782" 
d="M63 433v228l656 376v-228zM287 0v1470h209v-1470h-209z" />
    <glyph glyph-name="Nacute" unicode="&#x143;" horiz-adv-x="1413" 
d="M805 1600h-164l142 350h164zM140 0v1440h212l709 -1070v1070h212v-1440h-212l-709 1071v-1071h-212z" />
    <glyph glyph-name="nacute" unicode="&#x144;" 
d="M712 1240h-164l143 350h164zM898 0v531q0 63 -10.5 129.5t-40 123.5t-83 92t-139.5 35q-56 0 -106 -18.5t-87.5 -59.5t-59 -108t-21.5 -163l-130 49q0 147 55 259.5t158 175.5t249 63q112 0 188 -36t123.5 -94.5t72.5 -127.5t34 -135t9 -116v-600h-212zM139 0v1080h187
v-312h25v-768h-212z" />
    <glyph glyph-name="uni0145" unicode="&#x145;" horiz-adv-x="1413" 
d="M622 -590v96q14 0 42 7t51 28t22 64h-115v211h211v-211q0 -91 -61.5 -143t-149.5 -52zM140 0v1440h212l709 -1070v1070h212v-1440h-212l-709 1071v-1071h-212z" />
    <glyph glyph-name="uni0146" unicode="&#x146;" 
d="M524 -590v96q14 0 42 7t51 28t22 64h-115v211h211v-211q0 -91 -61.5 -143t-149.5 -52zM898 0v531q0 63 -10.5 129.5t-40 123.5t-83 92t-139.5 35q-56 0 -106 -18.5t-87.5 -59.5t-59 -108t-21.5 -163l-130 49q0 147 55 259.5t158 175.5t249 63q112 0 188 -36t123.5 -94.5
t72.5 -127.5t34 -135t9 -116v-600h-212zM139 0v1080h187v-312h25v-768h-212z" />
    <glyph glyph-name="Ncaron" unicode="&#x147;" horiz-adv-x="1413" 
d="M379 1900h200l148 -177l149 177h200l-259 -300h-180zM140 0v1440h212l709 -1070v1070h212v-1440h-212l-709 1071v-1071h-212z" />
    <glyph glyph-name="ncaron" unicode="&#x148;" 
d="M266 1540h200l149 -177l148 177h200l-258 -300h-180zM898 0v531q0 63 -10.5 129.5t-40 123.5t-83 92t-139.5 35q-56 0 -106 -18.5t-87.5 -59.5t-59 -108t-21.5 -163l-130 49q0 147 55 259.5t158 175.5t249 63q112 0 188 -36t123.5 -94.5t72.5 -127.5t34 -135t9 -116v-600
h-212zM139 0v1080h187v-312h25v-768h-212z" />
    <glyph glyph-name="Eng" unicode="&#x14a;" horiz-adv-x="1413" 
d="M1061 1440h212v-1621q0 -129 -61 -193t-189 -64q-33 0 -66.5 4t-67.5 13v160q31 -3 46 -4.5t29 -1.5q68 0 100 29t32 96q0 47 -20 97.5t-73 133.5l-651 982v-1071h-212v1440h212l709 -1070v1070z" />
    <glyph glyph-name="eng" unicode="&#x14b;" 
d="M935 -431q-62 -11 -113 -6t-97 16v154q32 -3 63 -3t55.5 12t39.5 43.5t15 89.5v128h212v-184q0 -107 -47 -170t-128 -80zM898 0v531q0 63 -10.5 129.5t-40 123.5t-83 92t-139.5 35q-56 0 -106 -18.5t-87.5 -59.5t-59 -108t-21.5 -163l-130 49q0 147 55 259.5t158 175.5
t249 63q112 0 188 -36t123.5 -94.5t72.5 -127.5t34 -135t9 -116v-600h-212zM139 0v1080h187v-312h25v-768h-212z" />
    <glyph glyph-name="Omacron" unicode="&#x14c;" horiz-adv-x="1481" 
d="M479 1680v167h523v-167h-523zM741 -30q-216 0 -368 94.5t-232.5 263.5t-80.5 392t80.5 392t232.5 263.5t368 94.5q215 0 367.5 -94.5t232.5 -263.5t80 -392t-80 -392t-232.5 -263.5t-367.5 -94.5zM741 169q153 -2 254.5 67.5t152.5 194t51 289.5t-51 288.5t-152.5 192.5
t-254.5 70q-153 2 -254.5 -67t-152.5 -194t-52 -290t50 -288.5t153.5 -192.5t255.5 -70z" />
    <glyph glyph-name="omacron" unicode="&#x14d;" horiz-adv-x="1219" 
d="M349 1320v167h522v-167h-522zM609 -30q-162 0 -281 73t-183.5 201.5t-64.5 296.5q0 169 66 297.5t185 200t278 71.5q162 0 281 -73t184 -201t65 -295q0 -169 -65.5 -297.5t-184.5 -201t-280 -72.5zM609 167q155 0 231.5 104.5t76.5 269.5q0 169 -77.5 270.5t-230.5 101.5
q-105 0 -173 -47.5t-101 -131t-33 -193.5q0 -170 78 -272t229 -102z" />
    <glyph glyph-name="Ohungarumlaut" unicode="&#x150;" horiz-adv-x="1481" 
d="M1010 1600h-164l143 350h164zM611 1600h-164l143 350h164zM741 -30q-216 0 -368 94.5t-232.5 263.5t-80.5 392t80.5 392t232.5 263.5t368 94.5q215 0 367.5 -94.5t232.5 -263.5t80 -392t-80 -392t-232.5 -263.5t-367.5 -94.5zM741 169q153 -2 254.5 67.5t152.5 194
t51 289.5t-51 288.5t-152.5 192.5t-254.5 70q-153 2 -254.5 -67t-152.5 -194t-52 -290t50 -288.5t153.5 -192.5t255.5 -70z" />
    <glyph glyph-name="ohungarumlaut" unicode="&#x151;" horiz-adv-x="1219" 
d="M877 1240h-164l143 350h164zM478 1240h-164l142 350h164zM609 -30q-162 0 -281 73t-183.5 201.5t-64.5 296.5q0 169 66 297.5t185 200t278 71.5q162 0 281 -73t184 -201t65 -295q0 -169 -65.5 -297.5t-184.5 -201t-280 -72.5zM609 167q155 0 231.5 104.5t76.5 269.5
q0 169 -77.5 270.5t-230.5 101.5q-105 0 -173 -47.5t-101 -131t-33 -193.5q0 -170 78 -272t229 -102z" />
    <glyph glyph-name="OE" unicode="&#x152;" horiz-adv-x="2231" 
d="M741 -30q-216 0 -368 94.5t-232.5 263.5t-80.5 392t80.5 392t232.5 263.5t368 94.5q215 0 367.5 -94.5t232.5 -263.5t80 -392t-80 -392t-232.5 -263.5t-367.5 -94.5zM741 169q153 -2 254.5 67.5t152.5 194t51 289.5t-51 288.5t-152.5 192.5t-254.5 70q-153 2 -254.5 -67
t-152.5 -194t-52 -290t50 -288.5t153.5 -192.5t255.5 -70zM1211 0v1440h920v-197h-711v-404h591v-197h-591v-445h711v-197h-920z" />
    <glyph glyph-name="oe" unicode="&#x153;" horiz-adv-x="2030" 
d="M1456 -30q-161 0 -282.5 70.5t-189 197t-67.5 293.5q0 177 66.5 307t185.5 201t277 71q165 0 281 -76.5t173.5 -217.5t45.5 -335h-209v76q-2 188 -71.5 278t-211.5 90q-157 0 -236 -99t-79 -286q0 -178 79 -275.5t228 -97.5q98 0 169.5 44.5t111.5 127.5l205 -65
q-63 -145 -191 -224.5t-285 -79.5zM1071 481v163h771v-163h-771zM609 -30q-162 0 -281 73t-183.5 201.5t-64.5 296.5q0 169 66 297.5t185 200t278 71.5q162 0 281 -73t184 -201t65 -295q0 -169 -65.5 -297.5t-184.5 -201t-280 -72.5zM609 167q155 0 231.5 104.5t76.5 269.5
q0 169 -77.5 270.5t-230.5 101.5q-105 0 -173 -47.5t-101 -131t-33 -193.5q0 -170 78 -272t229 -102z" />
    <glyph glyph-name="Racute" unicode="&#x154;" horiz-adv-x="1301" 
d="M695 1600h-164l143 350h164zM140 0v1440h582q21 0 52 -1.5t59 -6.5q120 -19 200.5 -82t120.5 -159t40 -212q0 -172 -88 -296.5t-264 -155.5l-85 -10h-408v-517h-209zM982 0l-284 586l211 54l312 -640h-239zM349 715h365q20 0 44.5 2t46.5 7q64 15 103 55.5t56 93.5
t17 106t-17 105.5t-56 93t-103 55.5q-22 6 -46.5 8t-44.5 2h-365v-528z" />
    <glyph glyph-name="racute" unicode="&#x155;" horiz-adv-x="773" 
d="M450 1240h-164l143 350h164zM140 0v1080h186v-262l-26 34q20 52 52 95.5t74 71.5q41 30 91.5 46.5t103.5 20t102 -5.5v-196q-53 14 -117.5 8t-118.5 -41q-51 -33 -80.5 -80t-42.5 -104.5t-13 -121.5v-545h-211z" />
    <glyph glyph-name="uni0156" unicode="&#x156;" horiz-adv-x="1301" 
d="M538 -590v96q14 0 42 7t51 28t22 64h-115v211h211v-211q0 -91 -61.5 -143t-149.5 -52zM140 0v1440h582q21 0 52 -1.5t59 -6.5q120 -19 200.5 -82t120.5 -159t40 -212q0 -172 -88 -296.5t-264 -155.5l-85 -10h-408v-517h-209zM982 0l-284 586l211 54l312 -640h-239z
M349 715h365q20 0 44.5 2t46.5 7q64 15 103 55.5t56 93.5t17 106t-17 105.5t-56 93t-103 55.5q-22 6 -46.5 8t-44.5 2h-365v-528z" />
    <glyph glyph-name="uni0157" unicode="&#x157;" horiz-adv-x="773" 
d="M141 -590v96q14 0 42 7t51 28t22 64h-115v211h210v-211q0 -91 -61 -143t-149 -52zM140 0v1080h186v-262l-26 34q20 52 52 95.5t74 71.5q41 30 91.5 46.5t103.5 20t102 -5.5v-196q-53 14 -117.5 8t-118.5 -41q-51 -33 -80.5 -80t-42.5 -104.5t-13 -121.5v-545h-211z" />
    <glyph glyph-name="Rcaron" unicode="&#x158;" horiz-adv-x="1301" 
d="M250 1900h200l149 -177l148 177h200l-258 -300h-180zM140 0v1440h582q21 0 52 -1.5t59 -6.5q120 -19 200.5 -82t120.5 -159t40 -212q0 -172 -88 -296.5t-264 -155.5l-85 -10h-408v-517h-209zM982 0l-284 586l211 54l312 -640h-239zM349 715h365q20 0 44.5 2t46.5 7
q64 15 103 55.5t56 93.5t17 106t-17 105.5t-56 93t-103 55.5q-22 6 -46.5 8t-44.5 2h-365v-528z" />
    <glyph glyph-name="rcaron" unicode="&#x159;" horiz-adv-x="773" 
d="M81 1540h200l148 -177l149 177h200l-259 -300h-180zM140 0v1080h186v-262l-26 34q20 52 52 95.5t74 71.5q41 30 91.5 46.5t103.5 20t102 -5.5v-196q-53 14 -117.5 8t-118.5 -41q-51 -33 -80.5 -80t-42.5 -104.5t-13 -121.5v-545h-211z" />
    <glyph glyph-name="Sacute" unicode="&#x15a;" horiz-adv-x="1287" 
d="M737 1600h-164l142 350h164zM662 -30q-155 0 -279.5 53.5t-205 153t-104.5 236.5l218 33q33 -132 138 -205.5t245 -73.5q87 0 160 27.5t117.5 79t44.5 123.5q0 39 -13.5 69t-37 52.5t-57 39t-73.5 28.5l-369 109q-54 16 -110 41.5t-102.5 67t-75.5 103t-29 149.5
q0 133 68.5 225.5t185.5 140t262 47.5q146 -2 261.5 -52t192 -143.5t105.5 -226.5l-224 -38q-15 81 -64 139.5t-120 90t-154 32.5q-80 2 -146.5 -24t-106 -73t-39.5 -108q0 -60 35 -97t86.5 -58.5t102.5 -35.5l266 -75q50 -14 113.5 -37.5t123 -65.5t98.5 -111.5t39 -174.5
q0 -109 -44 -191.5t-120.5 -138t-176.5 -83.5t-211 -28z" />
    <glyph glyph-name="sacute" unicode="&#x15b;" horiz-adv-x="1072" 
d="M619 1240h-164l143 350h164zM553 -29q-197 0 -321 87t-152 245l214 33q20 -84 92.5 -132.5t180.5 -48.5q98 0 153.5 40t55.5 110q0 41 -19.5 66.5t-81.5 48.5t-189 57q-139 36 -220.5 77.5t-116 97t-34.5 134.5q0 98 52 171t146.5 113t221.5 40q124 0 221 -39t157 -110.5
t72 -167.5l-214 -39q-11 78 -73 123t-161 49q-95 4 -154 -31.5t-59 -97.5q0 -36 22.5 -61t87.5 -48t192 -55q136 -35 216 -77.5t114.5 -101t34.5 -141.5q0 -160 -116.5 -251t-321.5 -91z" />
    <glyph glyph-name="Scircumflex" unicode="&#x15c;" horiz-adv-x="1287" 
d="M311 1600l258 300h180l259 -300h-200l-149 177l-148 -177h-200zM662 -30q-155 0 -279.5 53.5t-205 153t-104.5 236.5l218 33q33 -132 138 -205.5t245 -73.5q87 0 160 27.5t117.5 79t44.5 123.5q0 39 -13.5 69t-37 52.5t-57 39t-73.5 28.5l-369 109q-54 16 -110 41.5
t-102.5 67t-75.5 103t-29 149.5q0 133 68.5 225.5t185.5 140t262 47.5q146 -2 261.5 -52t192 -143.5t105.5 -226.5l-224 -38q-15 81 -64 139.5t-120 90t-154 32.5q-80 2 -146.5 -24t-106 -73t-39.5 -108q0 -60 35 -97t86.5 -58.5t102.5 -35.5l266 -75q50 -14 113.5 -37.5
t123 -65.5t98.5 -111.5t39 -174.5q0 -109 -44 -191.5t-120.5 -138t-176.5 -83.5t-211 -28z" />
    <glyph glyph-name="scircumflex" unicode="&#x15d;" horiz-adv-x="1072" 
d="M205 1240l258 300h180l259 -300h-200l-149 177l-148 -177h-200zM553 -29q-197 0 -321 87t-152 245l214 33q20 -84 92.5 -132.5t180.5 -48.5q98 0 153.5 40t55.5 110q0 41 -19.5 66.5t-81.5 48.5t-189 57q-139 36 -220.5 77.5t-116 97t-34.5 134.5q0 98 52 171t146.5 113
t221.5 40q124 0 221 -39t157 -110.5t72 -167.5l-214 -39q-11 78 -73 123t-161 49q-95 4 -154 -31.5t-59 -97.5q0 -36 22.5 -61t87.5 -48t192 -55q136 -35 216 -77.5t114.5 -101t34.5 -141.5q0 -160 -116.5 -251t-321.5 -91z" />
    <glyph glyph-name="Scedilla" unicode="&#x15e;" horiz-adv-x="1287" 
d="M653 -482q-39 0 -72.5 10t-62.5 25l48 128q43 -14 69 -14q33 0 50.5 19.5t17.5 42.5q0 41 -39.5 59.5t-91.5 34.5l72 204l133 2l-43 -124q56 -27 88.5 -72t32.5 -110q0 -90 -60 -147.5t-142 -57.5zM662 -30q-155 0 -279.5 53.5t-205 153t-104.5 236.5l218 33
q33 -132 138 -205.5t245 -73.5q87 0 160 27.5t117.5 79t44.5 123.5q0 39 -13.5 69t-37 52.5t-57 39t-73.5 28.5l-369 109q-54 16 -110 41.5t-102.5 67t-75.5 103t-29 149.5q0 133 68.5 225.5t185.5 140t262 47.5q146 -2 261.5 -52t192 -143.5t105.5 -226.5l-224 -38
q-15 81 -64 139.5t-120 90t-154 32.5q-80 2 -146.5 -24t-106 -73t-39.5 -108q0 -60 35 -97t86.5 -58.5t102.5 -35.5l266 -75q50 -14 113.5 -37.5t123 -65.5t98.5 -111.5t39 -174.5q0 -109 -44 -191.5t-120.5 -138t-176.5 -83.5t-211 -28z" />
    <glyph glyph-name="scedilla" unicode="&#x15f;" horiz-adv-x="1072" 
d="M522 -482q-39 0 -72.5 10t-62.5 25l48 128q43 -14 69 -14q33 0 51 19.5t18 42.5q0 41 -40 59.5t-92 34.5l72 204l134 2l-44 -124q57 -27 89.5 -72t32.5 -110q0 -90 -60.5 -147.5t-142.5 -57.5zM553 -29q-197 0 -321 87t-152 245l214 33q20 -84 92.5 -132.5t180.5 -48.5
q98 0 153.5 40t55.5 110q0 41 -19.5 66.5t-81.5 48.5t-189 57q-139 36 -220.5 77.5t-116 97t-34.5 134.5q0 98 52 171t146.5 113t221.5 40q124 0 221 -39t157 -110.5t72 -167.5l-214 -39q-11 78 -73 123t-161 49q-95 4 -154 -31.5t-59 -97.5q0 -36 22.5 -61t87.5 -48
t192 -55q136 -35 216 -77.5t114.5 -101t34.5 -141.5q0 -160 -116.5 -251t-321.5 -91z" />
    <glyph glyph-name="Scaron" unicode="&#x160;" horiz-adv-x="1287" 
d="M319 1900h200l149 -177l149 177h200l-259 -300h-180zM662 -30q-155 0 -279.5 53.5t-205 153t-104.5 236.5l218 33q33 -132 138 -205.5t245 -73.5q87 0 160 27.5t117.5 79t44.5 123.5q0 39 -13.5 69t-37 52.5t-57 39t-73.5 28.5l-369 109q-54 16 -110 41.5t-102.5 67
t-75.5 103t-29 149.5q0 133 68.5 225.5t185.5 140t262 47.5q146 -2 261.5 -52t192 -143.5t105.5 -226.5l-224 -38q-15 81 -64 139.5t-120 90t-154 32.5q-80 2 -146.5 -24t-106 -73t-39.5 -108q0 -60 35 -97t86.5 -58.5t102.5 -35.5l266 -75q50 -14 113.5 -37.5t123 -65.5
t98.5 -111.5t39 -174.5q0 -109 -44 -191.5t-120.5 -138t-176.5 -83.5t-211 -28z" />
    <glyph glyph-name="scaron" unicode="&#x161;" horiz-adv-x="1072" 
d="M203 1540h200l149 -177l149 177h200l-259 -300h-180zM553 -29q-197 0 -321 87t-152 245l214 33q20 -84 92.5 -132.5t180.5 -48.5q98 0 153.5 40t55.5 110q0 41 -19.5 66.5t-81.5 48.5t-189 57q-139 36 -220.5 77.5t-116 97t-34.5 134.5q0 98 52 171t146.5 113t221.5 40
q124 0 221 -39t157 -110.5t72 -167.5l-214 -39q-11 78 -73 123t-161 49q-95 4 -154 -31.5t-59 -97.5q0 -36 22.5 -61t87.5 -48t192 -55q136 -35 216 -77.5t114.5 -101t34.5 -141.5q0 -160 -116.5 -251t-321.5 -91z" />
    <glyph glyph-name="uni0162" unicode="&#x162;" horiz-adv-x="1207" 
d="M499 0v1243h-479v197h1167v-197h-479v-1243h-209zM550 -487q-39 0 -72.5 10t-62.5 25l48 128q43 -14 69 -14q33 0 50.5 19.5t17.5 42.5q0 41 -39.5 59.5t-91.5 34.5l72 204l133 2l-43 -124q56 -27 88.5 -72t32.5 -110q0 -90 -60 -147.5t-142 -57.5z" />
    <glyph glyph-name="uni0163" unicode="&#x163;" horiz-adv-x="845" 
d="M450 -482q-39 0 -72.5 10t-62.5 25l48 128q43 -14 69 -14q33 0 51 19.5t18 42.5q0 41 -40 59.5t-92 34.5l72 204l134 2l-44 -124q57 -27 89.5 -72t32.5 -110q0 -90 -60.5 -147.5t-142.5 -57.5zM758 0q-102 -20 -200 -17t-175 38t-116 110q-35 67 -37.5 136.5t-2.5 157.5
v955h210v-945q0 -65 1.5 -113t20.5 -81q36 -62 114.5 -70.5t184.5 6.5v-177zM20 912v168h738v-168h-738z" />
    <glyph glyph-name="Tcaron" unicode="&#x164;" horiz-adv-x="1207" 
d="M252 1900h200l149 -177l148 177h200l-258 -300h-180zM499 0v1243h-479v197h1167v-197h-479v-1243h-209z" />
    <glyph glyph-name="tcaron" unicode="&#x165;" horiz-adv-x="845" 
d="M758 0q-102 -20 -200 -17t-175 38t-116 110q-35 67 -37.5 136.5t-2.5 157.5v955h210v-945q0 -65 1.5 -113t20.5 -81q36 -62 114.5 -70.5t184.5 6.5v-177zM20 912v168h738v-168h-738zM659 1214l13 93q43 -3 67 16t32 53t3 77h-115v241h221v-261q0 -118 -56.5 -178
t-164.5 -41z" />
    <glyph glyph-name="Tbar" unicode="&#x166;" horiz-adv-x="1207" 
d="M143 615v210h920v-210h-920zM499 0v1243h-479v197h1167v-197h-479v-1243h-209z" />
    <glyph glyph-name="tbar" unicode="&#x167;" horiz-adv-x="885" 
d="M20 470v168h765v-168h-765zM758 0q-102 -20 -200 -17t-175 38t-116 110q-35 67 -37.5 136.5t-2.5 157.5v955h210v-945q0 -65 1.5 -113t20.5 -81q36 -62 114.5 -70.5t184.5 6.5v-177zM20 912v168h738v-168h-738z" />
    <glyph glyph-name="Utilde" unicode="&#x168;" horiz-adv-x="1428" 
d="M714 -30q-169 0 -298.5 69.5t-202.5 195t-73 295.5v909l212 1v-899q0 -92 31 -162t83 -117t116.5 -71t131.5 -24q68 0 132.5 24.5t116.5 71.5t82.5 117t30.5 161v899h212v-910q0 -169 -73 -295t-202.5 -195.5t-298.5 -69.5zM889 1604q-46 0 -88 20t-81 45.5t-73.5 45.5
t-63.5 20q-34 0 -45.5 -32.5t0.5 -75.5h-136q-26 111 15.5 187.5t148.5 76.5q46 0 88.5 -20t81.5 -45.5t73.5 -45.5t63.5 -20q33 0 45.5 31.5t-0.5 77.5h136q27 -109 -15 -187t-150 -78z" />
    <glyph glyph-name="utilde" unicode="&#x169;" 
d="M547 -29q-112 0 -188 36t-123.5 94.5t-72.5 127.5t-34 135t-9 116v600h212v-531q0 -63 10.5 -129.5t40 -123.5t83 -92t139.5 -35q56 0 106 18.5t87.5 59.5t59 108t21.5 163l130 -49q0 -147 -55 -259.5t-158 -175.5t-249 -63zM904 0v312h-25v768h211v-1080h-186zM787 1244
q-46 0 -88 20t-81 45.5t-73.5 45.5t-63.5 20q-34 0 -45.5 -32.5t0.5 -75.5h-136q-26 111 15.5 187.5t148.5 76.5q46 0 88.5 -20t81.5 -45.5t73.5 -45.5t63.5 -20q33 0 45.5 31.5t-0.5 77.5h136q27 -109 -15 -187t-150 -78z" />
    <glyph glyph-name="Umacron" unicode="&#x16a;" horiz-adv-x="1428" 
d="M453 1680v167h522v-167h-522zM714 -30q-169 0 -298.5 69.5t-202.5 195t-73 295.5v909l212 1v-899q0 -92 31 -162t83 -117t116.5 -71t131.5 -24q68 0 132.5 24.5t116.5 71.5t82.5 117t30.5 161v899h212v-910q0 -169 -73 -295t-202.5 -195.5t-298.5 -69.5z" />
    <glyph glyph-name="umacron" unicode="&#x16b;" 
d="M343 1320v167h523v-167h-523zM547 -29q-112 0 -188 36t-123.5 94.5t-72.5 127.5t-34 135t-9 116v600h212v-531q0 -63 10.5 -129.5t40 -123.5t83 -92t139.5 -35q56 0 106 18.5t87.5 59.5t59 108t21.5 163l130 -49q0 -147 -55 -259.5t-158 -175.5t-249 -63zM904 0v312h-25
v768h211v-1080h-186z" />
    <glyph glyph-name="Ubreve" unicode="&#x16c;" horiz-adv-x="1428" 
d="M714 1564q-80 0 -145 39t-104 104t-39 145h166q0 -50 36 -86t86 -36q51 0 86.5 36t35.5 86h166q0 -80 -39 -145t-104 -104t-145 -39zM714 -30q-169 0 -298.5 69.5t-202.5 195t-73 295.5v909l212 1v-899q0 -92 31 -162t83 -117t116.5 -71t131.5 -24q68 0 132.5 24.5
t116.5 71.5t82.5 117t30.5 161v899h212v-910q0 -169 -73 -295t-202.5 -195.5t-298.5 -69.5z" />
    <glyph glyph-name="ubreve" unicode="&#x16d;" 
d="M605 1204q-80 0 -145 39t-104 104t-39 145h166q0 -50 36 -86t86 -36q51 0 86.5 36t35.5 86h166q0 -80 -39 -145t-104 -104t-145 -39zM547 -29q-112 0 -188 36t-123.5 94.5t-72.5 127.5t-34 135t-9 116v600h212v-531q0 -63 10.5 -129.5t40 -123.5t83 -92t139.5 -35
q56 0 106 18.5t87.5 59.5t59 108t21.5 163l130 -49q0 -147 -55 -259.5t-158 -175.5t-249 -63zM904 0v312h-25v768h211v-1080h-186z" />
    <glyph glyph-name="Uring" unicode="&#x16e;" horiz-adv-x="1428" 
d="M719 1553q-67 0 -122.5 33t-88.5 89t-33 123q0 68 33 123t88.5 88.5t122.5 33.5q68 0 123.5 -33.5t88.5 -88.5t33 -123q0 -67 -33 -123t-88.5 -89t-123.5 -33zM719 1688q47 0 78.5 32.5t31.5 77.5q0 46 -31.5 78t-78.5 32q-45 0 -77.5 -32t-32.5 -78q0 -45 32.5 -77.5
t77.5 -32.5zM714 -30q-169 0 -298.5 69.5t-202.5 195t-73 295.5v909l212 1v-899q0 -92 31 -162t83 -117t116.5 -71t131.5 -24q68 0 132.5 24.5t116.5 71.5t82.5 117t30.5 161v899h212v-910q0 -169 -73 -295t-202.5 -195.5t-298.5 -69.5z" />
    <glyph glyph-name="uring" unicode="&#x16f;" 
d="M605 1193q-67 0 -122.5 33t-88.5 89t-33 123q0 68 33 123t88.5 88.5t122.5 33.5q68 0 123.5 -33.5t88.5 -88.5t33 -123q0 -67 -33 -123t-88.5 -89t-123.5 -33zM605 1328q47 0 78.5 32.5t31.5 77.5q0 46 -31.5 78t-78.5 32q-45 0 -77.5 -32t-32.5 -78q0 -45 32.5 -77.5
t77.5 -32.5zM547 -29q-112 0 -188 36t-123.5 94.5t-72.5 127.5t-34 135t-9 116v600h212v-531q0 -63 10.5 -129.5t40 -123.5t83 -92t139.5 -35q56 0 106 18.5t87.5 59.5t59 108t21.5 163l130 -49q0 -147 -55 -259.5t-158 -175.5t-249 -63zM904 0v312h-25v768h211v-1080h-186z
" />
    <glyph glyph-name="Uhungarumlaut" unicode="&#x170;" horiz-adv-x="1428" 
d="M975 1600h-164l143 350h164zM576 1600h-164l143 350h164zM714 -30q-169 0 -298.5 69.5t-202.5 195t-73 295.5v909l212 1v-899q0 -92 31 -162t83 -117t116.5 -71t131.5 -24q68 0 132.5 24.5t116.5 71.5t82.5 117t30.5 161v899h212v-910q0 -169 -73 -295t-202.5 -195.5
t-298.5 -69.5z" />
    <glyph glyph-name="uhungarumlaut" unicode="&#x171;" 
d="M875 1240h-164l143 350h164zM476 1240h-164l142 350h164zM547 -29q-112 0 -188 36t-123.5 94.5t-72.5 127.5t-34 135t-9 116v600h212v-531q0 -63 10.5 -129.5t40 -123.5t83 -92t139.5 -35q56 0 106 18.5t87.5 59.5t59 108t21.5 163l130 -49q0 -147 -55 -259.5
t-158 -175.5t-249 -63zM904 0v312h-25v768h211v-1080h-186z" />
    <glyph glyph-name="Uogonek" unicode="&#x172;" horiz-adv-x="1428" 
d="M714 -30q-169 0 -298.5 69.5t-202.5 195t-73 295.5v909l212 1v-899q0 -92 31 -162t83 -117t116.5 -71t131.5 -24q68 0 132.5 24.5t116.5 71.5t82.5 117t30.5 161v899h212v-910q0 -169 -73 -295t-202.5 -195.5t-298.5 -69.5zM868 -415q-59 0 -106 29.5t-73.5 77.5
t-26.5 104q0 69 39 140t106 133t149 106l97 -110q-61 -34 -112 -79.5t-81 -92t-30 -83.5q0 -29 19 -47.5t45 -18.5q19 0 39.5 10.5t40.5 28.5l79 -101q-35 -47 -84 -72t-101 -25z" />
    <glyph glyph-name="uogonek" unicode="&#x173;" 
d="M905 -480q-59 0 -106 29.5t-73.5 77.5t-26.5 104q0 69 39 140t106 133t149 106l97 -110q-61 -34 -112 -79.5t-81 -92t-30 -83.5q0 -29 19 -47.5t45 -18.5q19 0 39.5 10.5t40.5 28.5l79 -101q-35 -47 -84 -72t-101 -25zM547 -29q-112 0 -188 36t-123.5 94.5t-72.5 127.5
t-34 135t-9 116v600h212v-531q0 -63 10.5 -129.5t40 -123.5t83 -92t139.5 -35q56 0 106 18.5t87.5 59.5t59 108t21.5 163l130 -49q0 -147 -55 -259.5t-158 -175.5t-249 -63zM904 0v312h-25v768h211v-1080h-186z" />
    <glyph glyph-name="Wcircumflex" unicode="&#x174;" horiz-adv-x="1925" 
d="M612 1600l259 300h180l258 -300h-200l-148 177l-149 -177h-200zM445 0l-418 1440h219l303 -1089l303 1088l220 1l303 -1089l303 1089h220l-419 -1440h-208l-309 1077l-309 -1077h-208z" />
    <glyph glyph-name="wcircumflex" unicode="&#x175;" horiz-adv-x="1581" 
d="M439 1240l259 300h180l259 -300h-200l-149 177l-149 -177h-200zM370 0l-330 1081l207 -1l226 -741l228 741h180l228 -741l226 741h206l-330 -1080h-168l-252 782l-253 -782h-168z" />
    <glyph glyph-name="Ycircumflex" unicode="&#x176;" horiz-adv-x="1186" 
d="M242 1600l259 300h180l258 -300h-200l-148 177l-149 -177h-200zM487 0v595l-487 845h244l349 -605l349 605h244l-487 -845v-595h-212z" />
    <glyph glyph-name="ycircumflex" unicode="&#x177;" horiz-adv-x="1097" 
d="M213 1240l259 300h180l259 -300h-200l-149 177l-149 -177h-200zM286 -480l209 569l3 -168l-471 1159h218l352 -895h-64l336 895h212l-596 -1560h-199z" />
    <glyph glyph-name="Ydieresis" unicode="&#x178;" horiz-adv-x="1186" 
d="M695 1621v200h200v-200h-200zM292 1621v200h200v-200h-200zM487 0v595l-487 845h244l349 -605l349 605h244l-487 -845v-595h-212z" />
    <glyph glyph-name="Zacute" unicode="&#x179;" horiz-adv-x="1294" 
d="M732 1600h-164l142 350h164zM100 0v33l735 1210h-695v197h1054v-34l-731 -1208h718v-198h-1081z" />
    <glyph glyph-name="zacute" unicode="&#x17a;" horiz-adv-x="1065" 
d="M636 1240h-164l142 350h164zM40 0v33l613 860h-557v187h889v-34l-612 -859h582v-187h-915z" />
    <glyph glyph-name="Zdotaccent" unicode="&#x17b;" horiz-adv-x="1294" 
d="M574 1659v221h221v-221h-221zM100 0v33l735 1210h-695v197h1054v-34l-731 -1208h718v-198h-1081z" />
    <glyph glyph-name="zdotaccent" unicode="&#x17c;" horiz-adv-x="1065" 
d="M440 1299v221h221v-221h-221zM40 0v33l613 860h-557v187h889v-34l-612 -859h582v-187h-915z" />
    <glyph glyph-name="Zcaron" unicode="&#x17d;" horiz-adv-x="1294" 
d="M319 1900h200l149 -177l149 177h200l-259 -300h-180zM100 0v33l735 1210h-695v197h1054v-34l-731 -1208h718v-198h-1081z" />
    <glyph glyph-name="zcaron" unicode="&#x17e;" horiz-adv-x="1065" 
d="M202 1540h200l149 -177l148 177h200l-258 -300h-180zM40 0v33l613 860h-557v187h889v-34l-612 -859h582v-187h-915z" />
    <glyph glyph-name="florin" unicode="&#x192;" horiz-adv-x="1424" 
d="M337 -30q-51 0 -101 10t-92.5 24t-70.5 27l88 177q13 -7 39 -16t58 -16t64 -7q43 0 78 17.5t62.5 50.5t46.5 80t28 106l100 623q10 57 31 116.5t56 114.5t85.5 98.5t117.5 69t152 25.5q57 0 108.5 -9.5t93.5 -24t70 -29.5l-97 -173q2 0 -19.5 9.5t-57.5 18.5t-80 9
q-33 0 -70.5 -8.5t-71.5 -30t-59 -57.5t-34 -91l-114 -691q-18 -111 -57 -190.5t-93.5 -131.5t-120.5 -76.5t-140 -24.5zM261 637v168h946v-168h-946z" />
    <glyph glyph-name="Ohorn" unicode="&#x1a0;" horiz-adv-x="1481" 
d="M1129 1619l163 1q13 -100 -8.5 -169.5t-84.5 -104.5q-57 -30 -136 -28.5t-141 39.5v93q47 -12 80 -14.5t61 10.5q52 25 60 72.5t6 100.5zM741 -30q-216 0 -368 94.5t-232.5 263.5t-80.5 392t80.5 392t232.5 263.5t368 94.5q215 0 367.5 -94.5t232.5 -263.5t80 -392
t-80 -392t-232.5 -263.5t-367.5 -94.5zM741 169q153 -2 254.5 67.5t152.5 194t51 289.5t-51 288.5t-152.5 192.5t-254.5 70q-153 2 -254.5 -67t-152.5 -194t-52 -290t50 -288.5t153.5 -192.5t255.5 -70z" />
    <glyph glyph-name="ohorn" unicode="&#x1a1;" horiz-adv-x="1219" 
d="M970 1259l163 1q14 -100 -7.5 -169.5t-85.5 -104.5q-57 -30 -136 -28.5t-141 39.5v93q47 -12 80 -14.5t61 10.5q52 25 60.5 72.5t5.5 100.5zM609 -30q-162 0 -281 73t-183.5 201.5t-64.5 296.5q0 169 66 297.5t185 200t278 71.5q162 0 281 -73t184 -201t65 -295
q0 -169 -65.5 -297.5t-184.5 -201t-280 -72.5zM609 167q155 0 231.5 104.5t76.5 269.5q0 169 -77.5 270.5t-230.5 101.5q-105 0 -173 -47.5t-101 -131t-33 -193.5q0 -170 78 -272t229 -102z" />
    <glyph glyph-name="Uhorn" unicode="&#x1af;" horiz-adv-x="1428" 
d="M1352 1619l163 1q14 -100 -9 -167t-83 -104q-56 -33 -126 -34.5t-132 6.5v119q22 0 43.5 0.5t42.5 4.5q73 14 88.5 65.5t12.5 108.5zM714 -30q-169 0 -298.5 69.5t-202.5 195t-73 295.5v909l212 1v-899q0 -92 31 -162t83 -117t116.5 -71t131.5 -24q68 0 132.5 24.5
t116.5 71.5t82.5 117t30.5 161v899h212v-910q0 -169 -73 -295t-202.5 -195.5t-298.5 -69.5z" />
    <glyph glyph-name="uhorn" unicode="&#x1b0;" 
d="M1114 1259l163 1q14 -100 -9 -167t-83 -104q-56 -33 -126 -34.5t-132 6.5v119q22 0 43.5 0.5t42.5 4.5q73 14 88.5 65.5t12.5 108.5zM547 -29q-112 0 -188 36t-123.5 94.5t-72.5 127.5t-34 135t-9 116v600h212v-531q0 -63 10.5 -129.5t40 -123.5t83 -92t139.5 -35
q56 0 106 18.5t87.5 59.5t59 108t21.5 163l130 -49q0 -147 -55 -259.5t-158 -175.5t-249 -63zM904 0v312h-25v768h211v-1080h-186z" />
    <glyph glyph-name="uni0218" unicode="&#x218;" horiz-adv-x="1287" 
d="M585 -590v96q14 0 42 7t51 28t22 64h-115v211h210v-211q0 -91 -61 -143t-149 -52zM662 -30q-155 0 -279.5 53.5t-205 153t-104.5 236.5l218 33q33 -132 138 -205.5t245 -73.5q87 0 160 27.5t117.5 79t44.5 123.5q0 39 -13.5 69t-37 52.5t-57 39t-73.5 28.5l-369 109
q-54 16 -110 41.5t-102.5 67t-75.5 103t-29 149.5q0 133 68.5 225.5t185.5 140t262 47.5q146 -2 261.5 -52t192 -143.5t105.5 -226.5l-224 -38q-15 81 -64 139.5t-120 90t-154 32.5q-80 2 -146.5 -24t-106 -73t-39.5 -108q0 -60 35 -97t86.5 -58.5t102.5 -35.5l266 -75
q50 -14 113.5 -37.5t123 -65.5t98.5 -111.5t39 -174.5q0 -109 -44 -191.5t-120.5 -138t-176.5 -83.5t-211 -28z" />
    <glyph glyph-name="uni0219" unicode="&#x219;" horiz-adv-x="1072" 
d="M443 -590v96q14 0 42 7t51 28t22 64h-115v211h210v-211q0 -91 -61 -143t-149 -52zM553 -29q-197 0 -321 87t-152 245l214 33q20 -84 92.5 -132.5t180.5 -48.5q98 0 153.5 40t55.5 110q0 41 -19.5 66.5t-81.5 48.5t-189 57q-139 36 -220.5 77.5t-116 97t-34.5 134.5
q0 98 52 171t146.5 113t221.5 40q124 0 221 -39t157 -110.5t72 -167.5l-214 -39q-11 78 -73 123t-161 49q-95 4 -154 -31.5t-59 -97.5q0 -36 22.5 -61t87.5 -48t192 -55q136 -35 216 -77.5t114.5 -101t34.5 -141.5q0 -160 -116.5 -251t-321.5 -91z" />
    <glyph glyph-name="uni021A" unicode="&#x21a;" horiz-adv-x="1207" 
d="M498 -590v96q14 0 42 7t51 28t22 64h-115v211h211v-211q0 -91 -61.5 -143t-149.5 -52zM499 0v1243h-479v197h1167v-197h-479v-1243h-209z" />
    <glyph glyph-name="uni021B" unicode="&#x21b;" horiz-adv-x="845" 
d="M353 -590v96q14 0 42 7t51.5 28t22.5 64h-116v211h211v-211q0 -91 -61.5 -143t-149.5 -52zM758 0q-102 -20 -200 -17t-175 38t-116 110q-35 67 -37.5 136.5t-2.5 157.5v955h210v-945q0 -65 1.5 -113t20.5 -81q36 -62 114.5 -70.5t184.5 6.5v-177zM20 912v168h738v-168
h-738z" />
    <glyph glyph-name="uni0259" unicode="&#x259;" horiz-adv-x="1193" 
d="M573 1110q162 0 283.5 -70.5t189 -197t67.5 -293.5q0 -177 -66.5 -306.5t-185.5 -201t-277 -71.5q-165 0 -281 76.5t-173 217.5t-47 335h210v-76q2 -188 71.5 -278t211.5 -90q157 0 236 99t79 286q0 178 -79 275.5t-228 97.5q-97 0 -169 -44.5t-112 -127.5l-205 65
q63 145 191 224.5t284 79.5zM959 599v-163h-771v163h771z" />
    <glyph glyph-name="circumflex" unicode="&#x2c6;" horiz-adv-x="1124" 
d="M211 1600l258 300h180l259 -300h-200l-149 177l-148 -177h-200z" />
    <glyph glyph-name="caron" unicode="&#x2c7;" horiz-adv-x="1116" 
d="M211 1900h200l148 -177l149 177h200l-259 -300h-180z" />
    <glyph glyph-name="breve" unicode="&#x2d8;" horiz-adv-x="1056" 
d="M528 1564q-79 0 -144.5 39t-104.5 104t-39 145h166q0 -50 36 -86t86 -36q51 0 86.5 36t35.5 86h166q0 -80 -39 -145t-104.5 -104t-144.5 -39z" />
    <glyph glyph-name="dotaccent" unicode="&#x2d9;" horiz-adv-x="701" 
d="M240 1659v221h221v-221h-221z" />
    <glyph glyph-name="ring" unicode="&#x2da;" horiz-adv-x="1052" 
d="M526 1553q-67 0 -122.5 33t-89 89t-33.5 123q0 68 33.5 123t89 88.5t122.5 33.5q68 0 123.5 -33.5t88.5 -88.5t33 -123q0 -67 -33 -123t-88.5 -89t-123.5 -33zM526 1688q46 0 78 32.5t32 77.5q0 46 -32 78t-78 32q-45 0 -77.5 -32t-32.5 -78q0 -45 32.5 -77.5t77.5 -32.5
z" />
    <glyph glyph-name="ogonek" unicode="&#x2db;" horiz-adv-x="872" 
d="M445 -480q-59 0 -106 29.5t-73.5 77.5t-26.5 104q0 69 39 140t106 133t149 106l97 -110q-61 -34 -112 -79.5t-81 -92t-30 -83.5q0 -29 19 -47.5t45 -18.5q19 0 39.5 10.5t40.5 28.5l79 -101q-35 -47 -84 -72t-101 -25z" />
    <glyph glyph-name="tilde" unicode="&#x2dc;" horiz-adv-x="1130" 
d="M726 1604q-46 0 -88 20t-81 45.5t-73.5 45.5t-63.5 20q-34 0 -45.5 -32.5t0.5 -75.5h-136q-26 111 15.5 187.5t148.5 76.5q46 0 88.5 -20t81.5 -45.5t73.5 -45.5t63.5 -20q33 0 45.5 31.5t-0.5 77.5h136q27 -109 -15 -187t-150 -78z" />
    <glyph glyph-name="hungarumlaut" unicode="&#x2dd;" horiz-adv-x="1129" 
d="M771 1600h-164l143 350h164zM372 1600h-164l142 350h164z" />
    <glyph glyph-name="uni0374" unicode="&#x374;" horiz-adv-x="587" 
d="M284 1090h-164l143 350h164z" />
    <glyph glyph-name="uni0375" unicode="&#x375;" horiz-adv-x="587" 
d="M284 -472h-164l143 350h164z" />
    <glyph glyph-name="uni037E" unicode="&#x37e;" horiz-adv-x="661" 
d="M220 -239l13 93q43 -3 67 16t32 53t3 77h-115v241h221v-261q0 -118 -56.5 -178t-164.5 -41zM220 859v221h221v-221h-221z" />
    <glyph glyph-name="tonos" unicode="&#x384;" horiz-adv-x="1200" 
d="M599 1090h-164l143 350h164z" />
    <glyph glyph-name="dieresistonos" unicode="&#x385;" horiz-adv-x="1200" 
d="M808 1260v200h180v-200h-180zM213 1260v200h180v-200h-180zM635 1240h-164l143 350h164z" />
    <glyph glyph-name="Alphatonos" unicode="&#x386;" horiz-adv-x="1339" 
d="M63 0l468 1440h301l468 -1440h-217l-431 1314h54l-426 -1314h-217zM306 325v196h752v-196h-752zM236 1090h-164l143 350h164z" />
    <glyph glyph-name="anoteleia" unicode="&#x387;" horiz-adv-x="1200" 
d="M257 497q-58 0 -97.5 38t-39.5 95q0 58 39.5 95.5t97.5 37.5q52 0 91 -37.5t39 -95.5q0 -57 -39 -95t-91 -38z" />
    <glyph glyph-name="Epsilontonos" unicode="&#x388;" horiz-adv-x="1472" 
d="M452 0v1440h920v-197h-711v-404h591v-197h-591v-445h711v-197h-920zM198 1090h-164l143 350h164z" />
    <glyph glyph-name="Etatonos" unicode="&#x389;" horiz-adv-x="1713" 
d="M434 0v1440h209v-621h720v621h210v-1440h-210v622h-720v-622h-209zM184 1090h-164l143 350h164z" />
    <glyph glyph-name="Iotatonos" unicode="&#x38a;" horiz-adv-x="781" 
d="M432 0v1440h209v-1440h-209zM184 1090h-164l143 350h164z" />
    <glyph glyph-name="Omicrontonos" unicode="&#x38c;" horiz-adv-x="1693" 
d="M952 -30q-216 0 -368 94.5t-232.5 263.5t-80.5 392t80.5 392t232.5 263.5t368 94.5q215 0 367.5 -94.5t232.5 -263.5t80 -392t-80 -392t-232.5 -263.5t-367.5 -94.5zM952 169q153 -2 254.5 67.5t152.5 194t51 289.5t-51 288.5t-152.5 192.5t-254.5 70q-153 2 -254.5 -67
t-152.5 -194t-52 -290t50 -288.5t153.5 -192.5t255.5 -70zM196 1090h-164l143 350h164z" />
    <glyph glyph-name="Upsilontonos" unicode="&#x38e;" horiz-adv-x="1608" 
d="M909 0v595l-487 845h244l349 -605l349 605h244l-487 -845v-595h-212zM212 1090h-164l143 350h164z" />
    <glyph glyph-name="Omegatonos" unicode="&#x38f;" horiz-adv-x="1718" 
d="M296 0v197h229q-112 96 -177 240t-65 322q0 150 47.5 279.5t137 226t215 150.5t281.5 54t281 -54t214.5 -150.5t137 -226t47.5 -279.5q0 -178 -64.5 -322t-177.5 -240h228v-197h-492l1 197q67 35 131.5 107t107.5 178t44 242q2 112 -29 211t-91 174.5t-145.5 118.5
t-192.5 43t-192 -42.5t-145 -117.5t-91 -173t-31 -209q0 -106 26 -193t69 -153.5t93.5 -113t100.5 -72.5v-197h-498zM208 1090h-164l143 350h164z" />
    <glyph glyph-name="iotadieresistonos" unicode="&#x390;" horiz-adv-x="909" 
d="M549 -9q-61 11 -117 39.5t-97 96.5q-38 65 -40 133.5t-2 164.5v655h209v-645q0 -67 1 -113t21 -81q21 -35 53 -51.5t69 -20.5q41 -3 88 -1t89 9v-177q-38 -10 -88.5 -14t-99.5 -2.5t-86 7.5zM635 1260v200h180v-200h-180zM40 1260v200h180v-200h-180zM462 1240h-164
l143 350h164z" />
    <glyph glyph-name="Alpha" unicode="&#x391;" horiz-adv-x="1317" 
d="M40 0l468 1440h301l468 -1440h-217l-431 1314h54l-426 -1314h-217zM283 325v196h752v-196h-752z" />
    <glyph glyph-name="Beta" unicode="&#x392;" horiz-adv-x="1250" 
d="M140 0v1440h566q137 0 230 -56t140 -144.5t47 -186.5q0 -119 -58.5 -204t-157.5 -116l-2 49q138 -34 212 -132.5t74 -229.5q0 -127 -50.5 -221t-147 -146.5t-233.5 -52.5h-620zM352 199h376q71 0 127.5 27t89 77.5t32.5 120.5q0 65 -28.5 117.5t-82 83t-125.5 30.5h-389
v-456zM352 852h351q58 0 104.5 23.5t74 68t27.5 107.5q0 84 -56 138t-150 54h-351v-391z" />
    <glyph glyph-name="Gamma" unicode="&#x393;" horiz-adv-x="1080" 
d="M140 0v1440h920v-197h-711v-1243h-209z" />
    <glyph glyph-name="uni0394" unicode="&#x394;" horiz-adv-x="1317" 
d="M190 0v197h939v-197h-939zM508 1440h301l468 -1440h-217l-404 1229l-399 -1229h-217z" />
    <glyph glyph-name="Epsilon" unicode="&#x395;" horiz-adv-x="1160" 
d="M140 0v1440h920v-197h-711v-404h591v-197h-591v-445h711v-197h-920z" />
    <glyph glyph-name="Zeta" unicode="&#x396;" horiz-adv-x="1294" 
d="M100 0v33l735 1210h-695v197h1054v-34l-731 -1208h718v-198h-1081z" />
    <glyph glyph-name="Eta" unicode="&#x397;" horiz-adv-x="1419" 
d="M140 0v1440h209v-621h720v621h210v-1440h-210v622h-720v-622h-209z" />
    <glyph glyph-name="Theta" unicode="&#x398;" horiz-adv-x="1481" 
d="M479 637v166h523v-166h-523zM741 -30q-216 0 -368 94.5t-232.5 263.5t-80.5 392t80.5 392t232.5 263.5t368 94.5q215 0 367.5 -94.5t232.5 -263.5t80 -392t-80 -392t-232.5 -263.5t-367.5 -94.5zM741 169q153 -2 254.5 67.5t152.5 194t51 289.5t-51 288.5t-152.5 192.5
t-254.5 70q-153 2 -254.5 -67t-152.5 -194t-52 -290t50 -288.5t153.5 -192.5t255.5 -70z" />
    <glyph glyph-name="Iota" unicode="&#x399;" horiz-adv-x="529" 
d="M160 0v1440h209v-1440h-209z" />
    <glyph glyph-name="Kappa" unicode="&#x39a;" horiz-adv-x="1259" 
d="M140 0v1440h209v-672l603 672h260l-637 -703l684 -737h-268l-642 688v-688h-209z" />
    <glyph glyph-name="Lambda" unicode="&#x39b;" horiz-adv-x="1257" 
d="M478 1440h301l468 -1440h-217l-404 1229l-399 -1229h-217z" />
    <glyph glyph-name="Mu" unicode="&#x39c;" horiz-adv-x="1701" 
d="M140 0v1440h189l522 -1083l519 1083h191v-1439h-198v985l-465 -986h-95l-466 986v-986h-197z" />
    <glyph glyph-name="Nu" unicode="&#x39d;" horiz-adv-x="1413" 
d="M140 0v1440h212l709 -1070v1070h212v-1440h-212l-709 1071v-1071h-212z" />
    <glyph glyph-name="Xi" unicode="&#x39e;" horiz-adv-x="1425" 
d="M140 1243v197h1145v-197h-1145zM140 0v197h1145v-197h-1145zM240 622v197h945v-197h-945z" />
    <glyph glyph-name="Omicron" unicode="&#x39f;" horiz-adv-x="1481" 
d="M741 -30q-216 0 -368 94.5t-232.5 263.5t-80.5 392t80.5 392t232.5 263.5t368 94.5q215 0 367.5 -94.5t232.5 -263.5t80 -392t-80 -392t-232.5 -263.5t-367.5 -94.5zM741 169q153 -2 254.5 67.5t152.5 194t51 289.5t-51 288.5t-152.5 192.5t-254.5 70q-153 2 -254.5 -67
t-152.5 -194t-52 -290t50 -288.5t153.5 -192.5t255.5 -70z" />
    <glyph glyph-name="Pi" unicode="&#x3a0;" horiz-adv-x="1425" 
d="M140 0v1440h1145v-1440h-209v1243h-727v-1243h-209z" />
    <glyph glyph-name="Rho" unicode="&#x3a1;" horiz-adv-x="1254" 
d="M140 0v1440h582q21 0 52 -1.5t59 -6.5q120 -19 200.5 -82t120.5 -159t40 -212q0 -117 -40 -213t-120.5 -159t-200.5 -82q-28 -4 -59.5 -6t-51.5 -2h-373v-517h-209zM349 715h365q20 0 44.5 2t46.5 7q64 15 103 55.5t56 93.5t17 106t-17 105.5t-56 93t-103 55.5
q-22 6 -46.5 8t-44.5 2h-365v-528z" />
    <glyph glyph-name="Sigma" unicode="&#x3a3;" horiz-adv-x="1280" 
d="M140 0v189l522 531l-522 529v191h1000v-197h-729l498 -506v-34l-498 -506h716v-197h-987z" />
    <glyph glyph-name="Tau" unicode="&#x3a4;" horiz-adv-x="1207" 
d="M499 0v1243h-479v197h1167v-197h-479v-1243h-209z" />
    <glyph glyph-name="Upsilon" unicode="&#x3a5;" horiz-adv-x="1186" 
d="M487 0v595l-487 845h244l349 -605l349 605h244l-487 -845v-595h-212z" />
    <glyph glyph-name="Phi" unicode="&#x3a6;" horiz-adv-x="1459" 
d="M625 0v201q-111 -19 -212.5 9t-181 100t-125.5 186t-46 266q0 153 46 267.5t125.5 187.5t181 102.5t212.5 10.5v110h208v-110q111 19 212.5 -10.5t181 -102.5t126 -187.5t46.5 -267.5q0 -152 -46.5 -266t-126 -186t-181 -100t-212.5 -9v-201h-208zM625 395v744
q-90 14 -156.5 -12t-109.5 -80.5t-64 -128t-21 -156.5q0 -82 21 -154.5t64 -125t109.5 -76.5t156.5 -11zM833 395q90 -13 156 11t109.5 76t65 123.5t21.5 151.5t-21.5 154t-65 130.5t-109.5 84t-156 13.5v-744z" />
    <glyph glyph-name="Chi" unicode="&#x3a7;" horiz-adv-x="1278" 
d="M20 0l491 729l-478 711h256l351 -534l349 534h257l-478 -711l490 -729h-256l-362 551l-363 -551h-257z" />
    <glyph glyph-name="Psi" unicode="&#x3a8;" horiz-adv-x="1481" 
d="M636 0v326q-116 4 -212.5 41t-164.5 110.5t-97 185.5q-14 48 -18 93t-4 74v610h197v-558q0 -22 2 -61.5t13 -83.5q29 -113 104 -163.5t180 -52.5v919h209v-919q109 2 186 58t101 168q9 41 10.5 78.5t1.5 56.5v558h197v-610q0 -34 -3.5 -75.5t-18.5 -88.5
q-30 -114 -98.5 -187.5t-164.5 -110.5t-211 -42v-326h-209z" />
    <glyph glyph-name="uni03A9" unicode="&#x3a9;" horiz-adv-x="1481" 
d="M73 0v197h229q-112 96 -177 240t-65 322q0 150 47.5 279.5t137 226t215 150.5t281.5 54t281 -54t214.5 -150.5t137 -226t47.5 -279.5q0 -178 -64.5 -322t-177.5 -240h228v-197h-492l1 197q67 35 131.5 107t107.5 178t44 242q2 112 -29 211t-91 174.5t-145.5 118.5
t-192.5 43t-192 -42.5t-145 -117.5t-91 -173t-31 -209q0 -106 26 -193t69 -153.5t93.5 -113t100.5 -72.5v-197h-498z" />
    <glyph glyph-name="Iotadieresis" unicode="&#x3aa;" horiz-adv-x="529" 
d="M366 1621v200h200v-200h-200zM-37 1621v200h200v-200h-200zM160 0v1440h209v-1440h-209z" />
    <glyph glyph-name="Upsilondieresis" unicode="&#x3ab;" horiz-adv-x="1186" 
d="M695 1621v200h200v-200h-200zM292 1621v200h200v-200h-200zM487 0v595l-487 845h244l349 -605l349 605h244l-487 -845v-595h-212z" />
    <glyph glyph-name="alphatonos" unicode="&#x3ac;" horiz-adv-x="1244" 
d="M693 1240h-164l143 350h164zM573 -30q-153 0 -263.5 75t-170 204t-59.5 291q0 163 60 292t172 203.5t267 74.5q132 0 228 -61.5t144 -169.5l-33 -51v252h186v-1080h-186v255l33 -52q-48 -109 -147 -171t-231 -62zM602 159q100 0 164.5 49t94.5 135t30 198t-30.5 198
t-94 134t-161.5 48t-165.5 -47.5t-102.5 -133.5t-35 -201q0 -105 32 -191.5t98.5 -137.5t169.5 -51z" />
    <glyph glyph-name="epsilontonos" unicode="&#x3ad;" horiz-adv-x="1031" 
d="M563 1240h-164l143 350h164zM506 -30q-117 0 -213.5 40t-154.5 117t-58 186q0 63 21 119.5t62 98.5t101 61l-5 -71q-74 55 -110.5 122t-36.5 148q0 104 53.5 175t142 107.5t192.5 36.5q128 0 238.5 -46.5t196.5 -129.5l-122 -143q-59 52 -138.5 87.5t-163.5 35.5
q-74 0 -129 -33t-55 -108q0 -77 64 -104.5t162 -27.5h95v-168h-96q-74 0 -132.5 -9t-92 -38.5t-33.5 -90.5q0 -77 58.5 -122.5t158.5 -45.5q96 0 173 43t135 121l166 -109q-71 -118 -196 -185t-283 -67z" />
    <glyph glyph-name="etatonos" unicode="&#x3ae;" 
d="M712 1240h-164l143 350h164zM898 0v531q0 63 -10.5 129.5t-40 123.5t-83 92t-139.5 35q-56 0 -106 -18.5t-87.5 -59.5t-59 -108t-21.5 -163l-130 49q0 147 55 259.5t158 175.5t249 63q112 0 188 -36t123.5 -94.5t72.5 -127.5t34 -135t9 -116v-600h-212zM139 0v1080h187
v-312h25v-768h-212z" />
    <glyph glyph-name="iotatonos" unicode="&#x3af;" horiz-adv-x="778" 
d="M350 1240h-164l143 350h164zM417 -9q-61 11 -117 39.5t-97 96.5q-38 65 -40 133.5t-2 164.5v655h209v-645q0 -67 1 -113t21 -81q21 -35 53 -51.5t69 -20.5q41 -3 88 -1t89 9v-177q-38 -10 -88.5 -14t-99.5 -2.5t-86 7.5z" />
    <glyph glyph-name="upsilondieresistonos" unicode="&#x3b0;" horiz-adv-x="1209" 
d="M120 493v587h212v-531q0 -63 10.5 -129.5t40 -123.5t83 -92t139.5 -35t139.5 35t82.5 92t39.5 123.5t10.5 129.5v531h212v-587q0 -67 -10 -140t-38 -141t-81.5 -122.5t-140 -86.5t-214.5 -32t-214.5 32t-140.5 86.5t-82 122.5t-38 141t-10 140zM812 1260v200h180v-200
h-180zM217 1260v200h180v-200h-180zM639 1240h-164l143 350h164z" />
    <glyph glyph-name="alpha" unicode="&#x3b1;" horiz-adv-x="1244" 
d="M573 -30q-153 0 -263.5 75t-170 204t-59.5 291q0 163 60 292t172 203.5t267 74.5q132 0 228 -61.5t144 -169.5l-33 -51v252h186v-1080h-186v255l33 -52q-48 -109 -147 -171t-231 -62zM602 159q100 0 164.5 49t94.5 135t30 198t-30.5 198t-94 134t-161.5 48t-165.5 -47.5
t-102.5 -133.5t-35 -201q0 -105 32 -191.5t98.5 -137.5t169.5 -51z" />
    <glyph glyph-name="beta" unicode="&#x3b2;" horiz-adv-x="1183" 
d="M139 -480v1560q0 32 4.5 64.5t15.5 66.5q27 87 88 144.5t143 86t175 28.5q128 0 227 -50.5t155.5 -140.5t56.5 -210q0 -88 -34 -160.5t-105 -115.5q53 -16 99.5 -48.5t82.5 -81t56.5 -112t20.5 -140.5q0 -135 -61.5 -234t-175 -153t-268.5 -54q-81 0 -149.5 19t-120.5 53
v-522h-210zM629 167q83 0 147.5 31.5t100.5 88.5t36 134q0 125 -93.5 187t-248.5 64v185q66 6 115.5 31.5t77 70t27.5 107.5q0 99 -64 153t-158 54q-57 0 -112 -25.5t-82 -88.5q-16 -39 -20 -82.5t-4 -71.5v-569q0 -24 3 -60.5t12 -64.5q24 -72 101 -108t162 -36z" />
    <glyph glyph-name="gamma" unicode="&#x3b3;" horiz-adv-x="1076" 
d="M432 -360v360l-392 1080h211l287 -818l287 818h211l-392 -1080v-360h-212z" />
    <glyph glyph-name="delta" unicode="&#x3b4;" horiz-adv-x="1219" 
d="M605 -29q-160 0 -278 63t-182.5 177t-64.5 266q0 149 63 263.5t181.5 171.5t284.5 31v72q162 0 281 -66.5t184 -184t65 -270.5q0 -154 -65.5 -272t-185.5 -184.5t-283 -66.5zM610 168q145 0 218 89.5t73 237.5q0 150 -74 237t-217 87q-145 0 -218 -88t-73 -237
q0 -153 75 -239.5t216 -86.5zM756 835q-76 22 -165.5 47t-170 64t-132 101.5t-51.5 158.5q0 53 21 107.5t71 95.5t137 54q28 5 56 6t69 1h341v-172h-294q-32 0 -58 -1.5t-48 -7.5q-37 -10 -61.5 -32t-24.5 -60q0 -41 32 -70.5t86.5 -53t124 -47t144.5 -51.5z" />
    <glyph glyph-name="epsilon" unicode="&#x3b5;" horiz-adv-x="1031" 
d="M506 -30q-117 0 -213.5 40t-154.5 117t-58 186q0 63 21 119.5t62 98.5t101 61l-5 -71q-74 55 -110.5 122t-36.5 148q0 104 53.5 175t142 107.5t192.5 36.5q128 0 238.5 -46.5t196.5 -129.5l-122 -143q-59 52 -138.5 87.5t-163.5 35.5q-74 0 -129 -33t-55 -108
q0 -77 64 -104.5t162 -27.5h95v-168h-96q-74 0 -132.5 -9t-92 -38.5t-33.5 -90.5q0 -77 58.5 -122.5t158.5 -45.5q96 0 173 43t135 121l166 -109q-71 -118 -196 -185t-283 -67z" />
    <glyph glyph-name="zeta" unicode="&#x3b6;" horiz-adv-x="1037" 
d="M829 -240q2 89 -19 138.5t-60.5 71t-95 26t-123.5 4.5q-98 0 -180.5 18.5t-143 62.5t-94 118.5t-33.5 186.5q0 82 24 161t86 171t178 212q47 47 99.5 98t111 107t124.5 117h-563v188h884v-159q-31 -30 -59.5 -57.5t-61.5 -60t-77 -74.5t-106.5 -101t-150.5 -141
q-102 -98 -160.5 -174t-83 -140.5t-24.5 -127.5q0 -91 42.5 -136t118.5 -59t177 -14q27 0 60.5 -2t67.5 -7t63 -14q69 -22 116.5 -75t66 -137.5t0.5 -200.5h-184z" />
    <glyph glyph-name="eta" unicode="&#x3b7;" 
d="M898 0v531q0 63 -10.5 129.5t-40 123.5t-83 92t-139.5 35q-56 0 -106 -18.5t-87.5 -59.5t-59 -108t-21.5 -163l-130 49q0 147 55 259.5t158 175.5t249 63q112 0 188 -36t123.5 -94.5t72.5 -127.5t34 -135t9 -116v-600h-212zM139 0v1080h187v-312h25v-768h-212z" />
    <glyph glyph-name="theta" unicode="&#x3b8;" horiz-adv-x="1353" 
d="M249 637v166h865v-166h-865zM677 -30q-144 0 -255 55t-187 155.5t-115.5 238t-39.5 301.5q0 165 39.5 302t115.5 237.5t187 155t255 54.5q143 0 254 -54.5t187 -155t115.5 -237.5t39.5 -302q0 -167 -39.5 -304.5t-115.5 -237.5t-187 -154t-254 -54zM677 169
q94 0 164.5 41.5t116.5 116.5t69.5 175.5t23.5 217.5q1 117 -22 217.5t-69.5 175t-117.5 116.5t-165 42q-95 0 -165.5 -42t-116.5 -116.5t-69 -175t-24 -217.5q0 -117 23 -217.5t69 -175.5t117 -116.5t166 -41.5z" />
    <glyph glyph-name="iota" unicode="&#x3b9;" horiz-adv-x="778" 
d="M417 -9q-61 11 -117 39.5t-97 96.5q-38 65 -40 133.5t-2 164.5v655h209v-645q0 -67 1 -113t21 -81q21 -35 53 -51.5t69 -20.5q41 -3 88 -1t89 9v-177q-38 -10 -88.5 -14t-99.5 -2.5t-86 7.5z" />
    <glyph glyph-name="kappa" unicode="&#x3ba;" horiz-adv-x="1048" 
d="M139 0l1 1080h212v-520l424 520h266l-448 -540l494 -540h-284l-452 520v-520h-213z" />
    <glyph glyph-name="lambda" unicode="&#x3bb;" horiz-adv-x="1116" 
d="M80 0l392 1080q-28 72 -56.5 117.5t-71.5 67t-115 21.5h-52v184h72q19 0 63 -2t85 -11q83 -19 134.5 -75t86.5 -135t66 -167l392 -1080h-211l-287 818l-287 -818h-211z" />
    <glyph glyph-name="uni03BC" unicode="&#x3bc;" horiz-adv-x="1249" 
d="M139 -480v1560h212v-531q0 -63 10.5 -129.5t39.5 -123.5t82.5 -92t139.5 -35q57 0 106.5 18.5t87.5 59.5t59.5 108t21.5 163v562h211v-1080h-186v133q-59 -79 -150 -120.5t-207 -41.5q-76 0 -136.5 22t-104.5 63v-536h-186z" />
    <glyph glyph-name="nu" unicode="&#x3bd;" horiz-adv-x="1076" 
d="M432 0l-392 1080h211l287 -818l287 818h211l-392 -1080h-212z" />
    <glyph glyph-name="xi" unicode="&#x3be;" horiz-adv-x="1131" 
d="M933 -240q9 114 -23 164.5t-102.5 63t-178.5 12.5q-194 0 -315 53.5t-177.5 149.5t-56.5 223q0 123 52 212.5t159 127.5q-70 53 -113 133t-43 184q0 103 40.5 176.5t109.5 120t155 68.5t177 22q168 0 291 -65.5t199 -168.5l-154 -145q-50 81 -131 131.5t-205 50.5
q-112 0 -186 -47.5t-74 -148.5q0 -100 76.5 -152t200.5 -58q19 -1 49 -1.5t57.5 -0.5h38.5v-198h-19.5t-41.5 -1.5t-101 -3.5q-96 -4 -166.5 -23.5t-109.5 -66.5t-39 -129q0 -93 50 -146.5t140 -76.5t209 -24q35 -1 73.5 -2.5t76.5 -6t72 -14.5q70 -22 123.5 -73.5
t74.5 -136t-3 -203.5h-185z" />
    <glyph glyph-name="omicron" unicode="&#x3bf;" horiz-adv-x="1219" 
d="M609 -30q-162 0 -281 73t-183.5 201.5t-64.5 296.5q0 169 66 297.5t185 200t278 71.5q162 0 281 -73t184 -201t65 -295q0 -169 -65.5 -297.5t-184.5 -201t-280 -72.5zM609 167q155 0 231.5 104.5t76.5 269.5q0 169 -77.5 270.5t-230.5 101.5q-105 0 -173 -47.5t-101 -131
t-33 -193.5q0 -170 78 -272t229 -102z" />
    <glyph glyph-name="pi" unicode="&#x3c0;" horiz-adv-x="1336" 
d="M253 0v892h-186v188h1202v-188h-186v-892h-210v892h-410v-892h-210z" />
    <glyph glyph-name="rho" unicode="&#x3c1;" horiz-adv-x="1245" 
d="M139 -480v947q0 54 1.5 104t8.5 94q19 131 84 231.5t171.5 157t249.5 56.5q165 0 279 -74t173 -202.5t59 -290.5q0 -164 -59.5 -293.5t-169.5 -204.5t-261 -75q-105 0 -189.5 37.5t-136.5 99.5v-587h-210zM649 159q101 0 169 49t102 135.5t34 198.5q0 113 -34 198
t-101.5 133t-169.5 48q-104 0 -170.5 -48t-98.5 -133.5t-32 -198.5q0 -114 33 -200t100 -134t168 -48z" />
    <glyph glyph-name="uni03C2" unicode="&#x3c2;" horiz-adv-x="1137" 
d="M855 -240q4 116 -32.5 165t-107.5 60t-170 15q-93 3 -167 29.5t-130 72.5t-93.5 108.5t-56 140.5t-18.5 166q0 184 63.5 317t180 204.5t278.5 71.5q179 0 304.5 -87.5t166.5 -241.5l-208 -60q-31 91 -101 141.5t-169 50.5q-98 0 -159.5 -49t-90.5 -134.5t-30 -193.5
q0 -62 12 -122.5t43.5 -109t91.5 -78t156 -30.5q24 0 65.5 -1t87.5 -5.5t84 -16.5q72 -23 119.5 -77.5t65 -139t0.5 -196.5h-185z" />
    <glyph glyph-name="sigma" unicode="&#x3c3;" horiz-adv-x="1252" 
d="M609 -30q-160 0 -279 73.5t-184.5 199t-65.5 283.5q0 138 49.5 250.5t140 187.5t213.5 102q50 11 114.5 12.5t144.5 1.5h457v-188h-292l53 57q79 -66 129 -177t50 -246q0 -158 -66.5 -284t-186 -199t-277.5 -73zM609 167q153 0 230.5 102t77.5 257q0 154 -78 255
t-230 102q-104 0 -172 -48t-101.5 -129t-33.5 -180q0 -160 79 -259.5t228 -99.5z" />
    <glyph glyph-name="tau" unicode="&#x3c4;" horiz-adv-x="1083" 
d="M675 -9q-61 11 -117 39.5t-97 96.5q-38 65 -40 133.5t-2 164.5v467h-369v188h947v-188h-369v-457q0 -67 1 -113t21 -81q21 -35 53 -51.5t69 -20.5q41 -3 88 -1t89 9v-177q-38 -10 -88.5 -14t-99.5 -2.5t-86 7.5z" />
    <glyph glyph-name="upsilon" unicode="&#x3c5;" horiz-adv-x="1209" 
d="M120 493v587h212v-531q0 -63 10.5 -129.5t40 -123.5t83 -92t139.5 -35t139.5 35t82.5 92t39.5 123.5t10.5 129.5v531h212v-587q0 -67 -10 -140t-38 -141t-81.5 -122.5t-140 -86.5t-214.5 -32t-214.5 32t-140.5 86.5t-82 122.5t-38 141t-10 140z" />
    <glyph glyph-name="phi" unicode="&#x3c6;" horiz-adv-x="1497" 
d="M648 -450v431q-158 -25 -287 34t-205 192t-76 332t76 333t205 193t287 34v327h188v-327q158 25 287 -34t205 -193t76 -333t-76 -332t-205 -192t-287 -34v-431h-188zM648 170v739q-81 14 -146.5 -5t-111.5 -66.5t-71 -123t-25 -175.5t25.5 -175t73 -122.5t112.5 -66
t143 -5.5zM836 170q78 -13 143 5t112.5 65t73 122.5t25.5 176.5q0 102 -25 177.5t-71 123t-111.5 65.5t-146.5 4v-739z" />
    <glyph glyph-name="chi" unicode="&#x3c7;" horiz-adv-x="1090" 
d="M20 0l404 546l-395 534h248l269 -371l266 371h248l-395 -534l405 -546h-249l-275 383l-277 -383h-249z" />
    <glyph glyph-name="psi" unicode="&#x3c8;" horiz-adv-x="1441" 
d="M620 -450v401q-115 5 -213 41.5t-167 110t-98 186.5q-14 47 -18 92.5t-4 73.5v625h197v-573q0 -21 2 -61t13 -84q19 -76 61.5 -123t101 -69.5t125.5 -23.5v934h201v-934q70 1 130 26t102.5 75t58.5 126q9 40 10.5 78t1.5 56v573h197v-625q0 -33 -3.5 -74.5t-18.5 -89.5
q-30 -112 -98.5 -185.5t-166 -111.5t-213.5 -43v-401h-201z" />
    <glyph glyph-name="omega" unicode="&#x3c9;" horiz-adv-x="1581" 
d="M498 -31q-138 0 -231 71.5t-140 192.5t-47 269q0 198 80.5 356t238.5 252l140 -169q-125 -87 -181 -186.5t-56 -243.5q0 -97 25 -175t74.5 -123t122.5 -45q79 0 114.5 50t45 133.5t9.5 185.5v148h195v-148q0 -103 9.5 -186.5t45.5 -133t114 -49.5q75 0 124.5 46.5
t73.5 124.5t24 172q0 149 -56.5 247.5t-179.5 182.5l140 169q160 -96 239 -255t79 -354q0 -151 -48 -271t-141 -190.5t-228 -70.5q-104 0 -190.5 53.5t-120.5 181.5h36q-33 -128 -120 -181.5t-191 -53.5z" />
    <glyph glyph-name="iotadieresis" unicode="&#x3ca;" horiz-adv-x="765" 
d="M366 1261v200h200v-200h-200zM-37 1261v200h200v-200h-200zM417 -9q-61 11 -117 39.5t-97 96.5q-38 65 -40 133.5t-2 164.5v655h209v-645q0 -67 1 -113t21 -81q21 -35 53 -51.5t69 -20.5q41 -3 88 -1t89 9v-177q-38 -10 -88.5 -14t-99.5 -2.5t-86 7.5z" />
    <glyph glyph-name="upsilondieresis" unicode="&#x3cb;" horiz-adv-x="1209" 
d="M706 1261v200h200v-200h-200zM303 1261v200h200v-200h-200zM120 493v587h212v-531q0 -63 10.5 -129.5t40 -123.5t83 -92t139.5 -35t139.5 35t82.5 92t39.5 123.5t10.5 129.5v531h212v-587q0 -67 -10 -140t-38 -141t-81.5 -122.5t-140 -86.5t-214.5 -32t-214.5 32
t-140.5 86.5t-82 122.5t-38 141t-10 140z" />
    <glyph glyph-name="omicrontonos" unicode="&#x3cc;" horiz-adv-x="1219" 
d="M692 1240h-164l143 350h164zM609 -30q-162 0 -281 73t-183.5 201.5t-64.5 296.5q0 169 66 297.5t185 200t278 71.5q162 0 281 -73t184 -201t65 -295q0 -169 -65.5 -297.5t-184.5 -201t-280 -72.5zM609 167q155 0 231.5 104.5t76.5 269.5q0 169 -77.5 270.5t-230.5 101.5
q-105 0 -173 -47.5t-101 -131t-33 -193.5q0 -170 78 -272t229 -102z" />
    <glyph glyph-name="upsilontonos" unicode="&#x3cd;" horiz-adv-x="1209" 
d="M658 1240h-164l143 350h164zM120 493v587h212v-531q0 -63 10.5 -129.5t40 -123.5t83 -92t139.5 -35t139.5 35t82.5 92t39.5 123.5t10.5 129.5v531h212v-587q0 -67 -10 -140t-38 -141t-81.5 -122.5t-140 -86.5t-214.5 -32t-214.5 32t-140.5 86.5t-82 122.5t-38 141
t-10 140z" />
    <glyph glyph-name="omegatonos" unicode="&#x3ce;" horiz-adv-x="1581" 
d="M828 1240h-164l142 350h164zM498 -31q-138 0 -231 71.5t-140 192.5t-47 269q0 198 80.5 356t238.5 252l140 -169q-125 -87 -181 -186.5t-56 -243.5q0 -97 25 -175t74.5 -123t122.5 -45q79 0 114.5 50t45 133.5t9.5 185.5v148h195v-148q0 -103 9.5 -186.5t45.5 -133
t114 -49.5q75 0 124.5 46.5t73.5 124.5t24 172q0 149 -56.5 247.5t-179.5 182.5l140 169q160 -96 239 -255t79 -354q0 -151 -48 -271t-141 -190.5t-228 -70.5q-104 0 -190.5 53.5t-120.5 181.5h36q-33 -128 -120 -181.5t-191 -53.5z" />
    <glyph glyph-name="uni0400" unicode="&#x400;" horiz-adv-x="1160" 
d="M542 1600l-143 350h164l143 -350h-164zM140 0v1440h920v-197h-711v-404h591v-197h-591v-445h711v-197h-920z" />
    <glyph glyph-name="uni0401" unicode="&#x401;" horiz-adv-x="1160" 
d="M690 1621v200h200v-200h-200zM287 1621v200h200v-200h-200zM140 0v1440h920v-197h-711v-404h591v-197h-591v-445h711v-197h-920z" />
    <glyph glyph-name="uni0402" unicode="&#x402;" horiz-adv-x="1332" 
d="M153 0v1252h-153v188h660v-188h-321v-294q67 77 168 114.5t229 37.5q248 0 382 -138.5t134 -410.5q0 -170 -56 -296t-172.5 -195.5t-297.5 -69.5v212q113 0 182 45.5t100.5 124.5t31.5 183q0 124 -41 199t-115.5 109t-174.5 34q-131 0 -212.5 -52t-110.5 -147
q-13 -45 -17.5 -99.5t-4.5 -104.5v-504h-211z" />
    <glyph glyph-name="uni0403" unicode="&#x403;" horiz-adv-x="1080" 
d="M570 1600h-164l143 350h164zM140 0v1440h920v-197h-711v-1243h-209z" />
    <glyph glyph-name="uni0404" unicode="&#x404;" horiz-adv-x="1441" 
d="M742 -30q-213 0 -363 100t-228.5 270t-77.5 380q2 224 82 392.5t229 263t358 94.5q251 0 418 -129.5t221 -365.5l-210 -30q-38 149 -147.5 236.5t-269.5 89.5q-135 2 -231.5 -55.5t-152.5 -159.5t-71 -237h518v-197h-516q7 -79 29.5 -153t72.5 -140q61 -81 153.5 -119.5
t197.5 -40.5q152 -2 261 83.5t151 226.5l205 -52q-42 -150 -129.5 -252t-214 -153.5t-285.5 -51.5z" />
    <glyph glyph-name="uni0405" unicode="&#x405;" horiz-adv-x="1287" 
d="M662 -30q-155 0 -279.5 53.5t-205 153t-104.5 236.5l218 33q33 -132 138 -205.5t245 -73.5q87 0 160 27.5t117.5 79t44.5 123.5q0 39 -13.5 69t-37 52.5t-57 39t-73.5 28.5l-369 109q-54 16 -110 41.5t-102.5 67t-75.5 103t-29 149.5q0 133 68.5 225.5t185.5 140
t262 47.5q146 -2 261.5 -52t192 -143.5t105.5 -226.5l-224 -38q-15 81 -64 139.5t-120 90t-154 32.5q-80 2 -146.5 -24t-106 -73t-39.5 -108q0 -60 35 -97t86.5 -58.5t102.5 -35.5l266 -75q50 -14 113.5 -37.5t123 -65.5t98.5 -111.5t39 -174.5q0 -109 -44 -191.5
t-120.5 -138t-176.5 -83.5t-211 -28z" />
    <glyph glyph-name="uni0406" unicode="&#x406;" horiz-adv-x="529" 
d="M160 0v1440h209v-1440h-209z" />
    <glyph glyph-name="uni0407" unicode="&#x407;" horiz-adv-x="529" 
d="M366 1621v200h200v-200h-200zM-37 1621v200h200v-200h-200zM160 0v1440h209v-1440h-209z" />
    <glyph glyph-name="uni0408" unicode="&#x408;" horiz-adv-x="977" 
d="M414 -29q-158 0 -265.5 84t-148.5 226l207 49q14 -67 71.5 -114.5t128.5 -47.5q47 0 98 24t76 78q17 36 20 82.5t3 108.5v979h212v-979q0 -64 -0.5 -114t-10 -94t-36.5 -91q-57 -99 -150 -145t-205 -46z" />
    <glyph glyph-name="uni0409" unicode="&#x409;" horiz-adv-x="2193" 
d="M1059 0v1440h209v-517h373q20 0 51.5 -1.5t58.5 -6.5q120 -19 200.5 -82t121 -159t40.5 -213q0 -116 -40 -212t-120.5 -159t-201.5 -82q-27 -4 -58 -6t-52 -2h-582zM1268 197h365q19 0 43.5 2t46.5 8q65 15 103.5 55.5t56 93t17.5 105.5t-17.5 106t-56 93.5t-103.5 55.5
q-22 6 -46.5 7.5t-43.5 1.5h-365v-528zM20 0v179q51 -5 84.5 5.5t56.5 42t39.5 91.5t32.5 155q22 121 37 249t25.5 254.5t17.5 244.5t11 219h945v-1440h-209v1243h-540q-5 -80 -12 -179t-17 -210t-24.5 -229t-36.5 -237q-18 -102 -44 -184t-70 -136.5t-115 -73t-181 5.5z
" />
    <glyph glyph-name="uni040A" unicode="&#x40a;" horiz-adv-x="2175" 
d="M140 0v1440h209v-519h795v-197h-795v-724h-209zM1041 0v1440h210v-517h372q21 0 52 -1.5t59 -6.5q120 -19 200.5 -82t120.5 -159t40 -213q0 -116 -39.5 -212t-120 -159t-201.5 -82q-28 -4 -59 -6t-52 -2h-582zM1251 197h364q20 0 44.5 2t46.5 8q64 15 103 55.5t56.5 93
t17.5 105.5t-17.5 106t-56.5 93.5t-103 55.5q-22 6 -46.5 7.5t-44.5 1.5h-364v-528z" />
    <glyph glyph-name="uni040B" unicode="&#x40b;" horiz-adv-x="1333" 
d="M0 1252v188h660v-188h-660zM351 1440v-652l-40 63q63 50 164 78t218 28q183 0 293 -70.5t158.5 -194.5t48.5 -285v-407h-212v340q0 83 -12 158t-46.5 133.5t-99 92t-170.5 33.5q-122 0 -208 -39t-125 -85l31 120v-753h-211v1440h211z" />
    <glyph glyph-name="uni040C" unicode="&#x40c;" horiz-adv-x="1259" 
d="M140 0v1440h209v-672l603 672h260l-637 -703l684 -737h-268l-642 688v-688h-209zM726 1600h-164l143 350h164z" />
    <glyph glyph-name="uni040D" unicode="&#x40d;" horiz-adv-x="1413" 
d="M140 0v1440h212v-1070l709 1070h212v-1440h-212v1071l-709 -1071h-212zM647 1600l-142 350h164l142 -350h-164z" />
    <glyph glyph-name="uni040E" unicode="&#x40e;" horiz-adv-x="1264" 
d="M645 1564q-80 0 -145.5 39t-104 104t-38.5 145h166q0 -50 35.5 -86t86.5 -36t86.5 36t35.5 86h166q0 -80 -39 -145t-104.5 -104t-144.5 -39zM347 0l182 373l-502 1067h235l376 -845l386 845h223l-674 -1440h-226z" />
    <glyph glyph-name="uni040F" unicode="&#x40f;" horiz-adv-x="1513" 
d="M652 -240v240h-512v1440h209v-1243h815v1243h209v-1440h-512v-240h-209z" />
    <glyph glyph-name="uni0410" unicode="&#x410;" horiz-adv-x="1317" 
d="M40 0l468 1440h301l468 -1440h-217l-431 1314h54l-426 -1314h-217zM283 325v196h752v-196h-752z" />
    <glyph glyph-name="uni0411" unicode="&#x411;" horiz-adv-x="1254" 
d="M140 0v1440h939v-197h-730v-347h373q20 0 51.5 -1.5t59.5 -5.5q117 -14 197.5 -76t122 -157t41.5 -208t-41 -208t-121.5 -157t-198.5 -76q-28 -4 -59 -5.5t-52 -1.5h-582zM349 197h365q20 0 44.5 2t46.5 6q97 20 136.5 92t39.5 151q0 80 -39.5 151.5t-136.5 91.5
q-22 5 -46.5 6.5t-44.5 1.5h-365v-502z" />
    <glyph glyph-name="uni0412" unicode="&#x412;" horiz-adv-x="1250" 
d="M140 0v1440h566q137 0 230 -56t140 -144.5t47 -186.5q0 -119 -58.5 -204t-157.5 -116l-2 49q138 -34 212 -132.5t74 -229.5q0 -127 -50.5 -221t-147 -146.5t-233.5 -52.5h-620zM352 199h376q71 0 127.5 27t89 77.5t32.5 120.5q0 65 -28.5 117.5t-82 83t-125.5 30.5h-389
v-456zM352 852h351q58 0 104.5 23.5t74 68t27.5 107.5q0 84 -56 138t-150 54h-351v-391z" />
    <glyph glyph-name="uni0413" unicode="&#x413;" horiz-adv-x="1080" 
d="M140 0v1440h920v-197h-711v-1243h-209z" />
    <glyph glyph-name="uni0414" unicode="&#x414;" horiz-adv-x="1495" 
d="M67 -240v437q74 0 122 37.5t76.5 103t44 149.5t23.5 177q12 126 20.5 246.5t16 249.5t16.5 281l922 -1v-1243h107v-437h-210v240h-929v-240h-209zM410 197h689v1046l-520 1q-7 -110 -12 -209t-12.5 -199.5t-18.5 -215.5q-11 -110 -23 -186.5t-35.5 -132.5t-67.5 -104z
" />
    <glyph glyph-name="uni0415" unicode="&#x415;" horiz-adv-x="1160" 
d="M140 0v1440h920v-197h-711v-404h591v-197h-591v-445h711v-197h-920z" />
    <glyph glyph-name="uni0416" unicode="&#x416;" horiz-adv-x="1815" 
d="M20 0l574 737l-527 703h253l483 -659v659h209v-659l483 659h253l-527 -703l574 -737h-262l-521 675v-675h-209v675l-522 -675h-261z" />
    <glyph glyph-name="uni0417" unicode="&#x417;" horiz-adv-x="1263" 
d="M633 -30q-150 0 -261 44t-185.5 114.5t-113.5 150.5l182 118q24 -59 72.5 -111t126 -84.5t188.5 -32.5t183 33.5t107.5 90t35.5 127.5q0 83 -43.5 128.5t-115.5 64t-156 21.5q-70 2 -101 3.5t-41.5 1.5h-19.5v198h38.5t57.5 0.5t49 1.5q124 6 200.5 61t76.5 156
t-74.5 159t-195.5 58q-115 0 -198 -52.5t-128 -129.5l-154 145q72 100 197 167t289 67q93 0 180 -24.5t156 -74.5t109.5 -126.5t40.5 -181.5t-42.5 -190t-113.5 -135q99 -37 155 -116.5t56 -202.5q0 -138 -72.5 -238.5t-198 -155.5t-286.5 -55z" />
    <glyph glyph-name="uni0418" unicode="&#x418;" horiz-adv-x="1413" 
d="M1273 0h-212v1071l-709 -1071h-212v1440h212v-1070l709 1070h212v-1440z" />
    <glyph glyph-name="uni0419" unicode="&#x419;" horiz-adv-x="1413" 
d="M140 0v1440h212v-1070l709 1070h212v-1440h-212v1071l-709 -1071h-212zM710 1564q-80 0 -145 39t-104 104t-39 145h166q0 -50 36 -86t86 -36q51 0 86.5 36t35.5 86h166q0 -80 -39 -145t-104.5 -104t-144.5 -39z" />
    <glyph glyph-name="uni041A" unicode="&#x41a;" horiz-adv-x="1259" 
d="M140 0v1440h209v-672l603 672h260l-637 -703l684 -737h-268l-642 688v-688h-209z" />
    <glyph glyph-name="uni041B" unicode="&#x41b;" horiz-adv-x="1429" 
d="M40 0v179q51 -5 84.5 5.5t56.5 42t39.5 91.5t32.5 155q22 121 37 249t25.5 254.5t17.5 244.5t11 219h945v-1440h-209v1243h-540q-5 -80 -12 -179t-17 -210t-24.5 -229t-36.5 -237q-18 -102 -44 -184t-70 -136.5t-115 -73t-181 5.5z" />
    <glyph glyph-name="uni041C" unicode="&#x41c;" horiz-adv-x="1701" 
d="M140 0v1440h189l522 -1083l519 1083h191v-1439h-198v985l-465 -986h-95l-466 986v-986h-197z" />
    <glyph glyph-name="uni041D" unicode="&#x41d;" horiz-adv-x="1419" 
d="M140 0v1440h209v-621h720v621h210v-1440h-210v622h-720v-622h-209z" />
    <glyph glyph-name="uni041E" unicode="&#x41e;" horiz-adv-x="1481" 
d="M741 -30q-216 0 -368 94.5t-232.5 263.5t-80.5 392t80.5 392t232.5 263.5t368 94.5q215 0 367.5 -94.5t232.5 -263.5t80 -392t-80 -392t-232.5 -263.5t-367.5 -94.5zM741 169q153 -2 254.5 67.5t152.5 194t51 289.5t-51 288.5t-152.5 192.5t-254.5 70q-153 2 -254.5 -67
t-152.5 -194t-52 -290t50 -288.5t153.5 -192.5t255.5 -70z" />
    <glyph glyph-name="uni041F" unicode="&#x41f;" horiz-adv-x="1425" 
d="M140 0v1440h1145v-1440h-209v1243h-727v-1243h-209z" />
    <glyph glyph-name="uni0420" unicode="&#x420;" horiz-adv-x="1254" 
d="M140 0v1440h582q21 0 52 -1.5t59 -6.5q120 -19 200.5 -82t120.5 -159t40 -212q0 -117 -40 -213t-120.5 -159t-200.5 -82q-28 -4 -59.5 -6t-51.5 -2h-373v-517h-209zM349 715h365q20 0 44.5 2t46.5 7q64 15 103 55.5t56 93.5t17 106t-17 105.5t-56 93t-103 55.5
q-22 6 -46.5 8t-44.5 2h-365v-528z" />
    <glyph glyph-name="uni0421" unicode="&#x421;" horiz-adv-x="1461" 
d="M741 -30q-216 0 -368 94.5t-232.5 263.5t-80.5 392t80.5 392t232.5 263.5t368 94.5q249 0 412.5 -126t227.5 -339l-212 -57q-42 151 -149.5 237t-278.5 86q-153 0 -255 -69t-153.5 -193t-51.5 -289q-1 -165 50.5 -289t154 -193t255.5 -69q171 0 278.5 86.5t149.5 236.5
l212 -57q-64 -213 -227.5 -339t-412.5 -126z" />
    <glyph glyph-name="uni0422" unicode="&#x422;" horiz-adv-x="1207" 
d="M499 0v1243h-479v197h1167v-197h-479v-1243h-209z" />
    <glyph glyph-name="uni0423" unicode="&#x423;" horiz-adv-x="1264" 
d="M347 0l182 373l-502 1067h235l376 -845l386 845h223l-674 -1440h-226z" />
    <glyph glyph-name="uni0424" unicode="&#x424;" horiz-adv-x="1459" 
d="M625 0v201q-111 -19 -212.5 9t-181 100t-125.5 186t-46 266q0 153 46 267.5t125.5 187.5t181 102.5t212.5 10.5v110h208v-110q111 19 212.5 -10.5t181 -102.5t126 -187.5t46.5 -267.5q0 -152 -46.5 -266t-126 -186t-181 -100t-212.5 -9v-201h-208zM625 395v744
q-90 14 -156.5 -12t-109.5 -80.5t-64 -128t-21 -156.5q0 -82 21 -154.5t64 -125t109.5 -76.5t156.5 -11zM833 395q90 -13 156 11t109.5 76t65 123.5t21.5 151.5t-21.5 154t-65 130.5t-109.5 84t-156 13.5v-744z" />
    <glyph glyph-name="uni0425" unicode="&#x425;" horiz-adv-x="1278" 
d="M20 0l491 729l-478 711h256l351 -534l349 534h257l-478 -711l490 -729h-256l-362 551l-363 -551h-257z" />
    <glyph glyph-name="uni0426" unicode="&#x426;" horiz-adv-x="1477" 
d="M1248 -213v213h-1108v1440h209v-1252h742v1225h209v-1225h157v-401h-209z" />
    <glyph glyph-name="uni0427" unicode="&#x427;" horiz-adv-x="1333" 
d="M982 0v652l39 -63q-61 -49 -162 -77.5t-219 -28.5q-184 0 -293.5 70.5t-158 194.5t-48.5 285v407h212v-340q0 -83 12 -158t46 -133.5t99 -92t170 -33.5q122 0 209 39.5t125 84.5l-31 -120v753h211v-1440h-211z" />
    <glyph glyph-name="uni0428" unicode="&#x428;" horiz-adv-x="1867" 
d="M140 0v1440h209v-1243h480v1243h209v-1243h479v1243h210v-1440h-1587z" />
    <glyph glyph-name="uni0429" unicode="&#x429;" horiz-adv-x="1904" 
d="M1675 -213v213h-140v188h349v-401h-209zM140 0v1440h209v-1243h480v1243h209v-1243h479v1243h210v-1440h-1587z" />
    <glyph glyph-name="uni042A" unicode="&#x42a;" horiz-adv-x="1290" 
d="M187 0v1272h-194v168h403v-517h373q20 0 51.5 -1.5t58.5 -6.5q120 -19 200.5 -82t121 -159t40.5 -213q0 -116 -40 -212t-120.5 -159t-201.5 -82q-27 -4 -58 -6t-52 -2h-582zM396 197h365q19 0 43.5 2t46.5 8q65 15 103.5 55.5t56 93t17.5 105.5t-17.5 106t-56 93.5
t-103.5 55.5q-22 6 -46.5 7.5t-43.5 1.5h-365v-528z" />
    <glyph glyph-name="uni042B" unicode="&#x42b;" horiz-adv-x="1685" 
d="M139 0v1440h209v-517h373q20 0 51.5 -1.5t58.5 -6.5q120 -19 200.5 -82t121 -159t40.5 -213q0 -116 -40 -212t-120.5 -159t-201.5 -82q-27 -4 -58 -6t-52 -2h-582zM348 197h365q19 0 43.5 2t46.5 8q65 15 103.5 55.5t56 93t17.5 105.5t-17.5 106t-56 93.5t-103.5 55.5
q-22 6 -46.5 7.5t-43.5 1.5h-365v-528zM1335 0v1440h209v-1440h-209z" />
    <glyph glyph-name="uni042C" unicode="&#x42c;" horiz-adv-x="1273" 
d="M139 0v1440h209v-517h373q20 0 51.5 -1.5t58.5 -6.5q120 -19 200.5 -82t121 -159t40.5 -213q0 -116 -40 -212t-120.5 -159t-201.5 -82q-27 -4 -58 -6t-52 -2h-582zM348 197h365q19 0 43.5 2t46.5 8q65 15 103.5 55.5t56 93t17.5 105.5t-17.5 106t-56 93.5t-103.5 55.5
q-22 6 -46.5 7.5t-43.5 1.5h-365v-528z" />
    <glyph glyph-name="uni042D" unicode="&#x42d;" horiz-adv-x="1428" 
d="M699 -30q-159 0 -285.5 51.5t-214 153.5t-129.5 252l205 52q43 -141 151.5 -226.5t260.5 -83.5q105 2 198 40.5t153 119.5q51 66 73.5 140t29.5 153h-516v197h517q-14 135 -70.5 237t-153 159.5t-231.5 55.5q-160 -2 -269 -89.5t-147 -236.5l-211 30q54 236 221.5 365.5
t417.5 129.5q210 0 359 -94.5t228.5 -263t81.5 -392.5q2 -210 -76.5 -380t-229 -270t-363.5 -100z" />
    <glyph glyph-name="uni042E" unicode="&#x42e;" horiz-adv-x="1873" 
d="M140 0v1440h209v-615h316v-210h-316v-615h-209zM1217 -30q-144 0 -255 55t-187 155.5t-115.5 238t-39.5 301.5q0 165 39.5 302t115.5 237.5t187 155t255 54.5q143 0 254 -54.5t187 -155t115.5 -237.5t39.5 -302q0 -167 -39.5 -304.5t-115.5 -237.5t-187 -154t-254 -54z
M1217 169q94 0 164.5 41.5t116.5 116.5t69.5 175.5t23.5 217.5q1 117 -22 217.5t-69.5 175t-117.5 116.5t-165 42q-95 0 -165.5 -42t-116.5 -116.5t-69 -175t-24 -217.5q0 -117 23 -217.5t69 -175.5t117 -116.5t166 -41.5z" />
    <glyph glyph-name="uni042F" unicode="&#x42f;" horiz-adv-x="1301" 
d="M1161 0h-210v517h-407l-85 10q-176 31 -264 155.5t-88 296.5q0 116 40 212t120 159t201 82q28 5 59 6.5t52 1.5h582v-1440zM319 0h-239l312 640l211 -54zM951 715v528h-364q-20 0 -44.5 -2t-46.5 -8q-64 -15 -103 -55.5t-56.5 -93t-17.5 -105.5t17.5 -106t56.5 -93.5
t103 -55.5q22 -5 46.5 -7t44.5 -2h364z" />
    <glyph glyph-name="uni0430" unicode="&#x430;" horiz-adv-x="1139" 
d="M445 -30q-120 0 -201 44.5t-122.5 118t-41.5 161.5q0 82 29 144t86 105.5t140 70.5q72 21 163 37t191.5 30t199.5 28l-76 -42q2 127 -53.5 188.5t-190.5 61.5q-85 0 -156 -39.5t-99 -130.5l-195 60q40 139 152.5 221t299.5 82q145 0 252.5 -49.5t157.5 -156.5
q26 -53 32 -112t6 -127v-665h-185v247l36 -32q-67 -124 -170.5 -184.5t-254.5 -60.5zM482 141q89 0 153 31.5t103 80.5t51 102q17 48 19.5 108t2.5 96l68 -25q-99 -15 -180 -27t-146.5 -23.5t-116.5 -27.5q-43 -15 -76.5 -36t-53 -51t-19.5 -73q0 -42 21 -77.5t64 -56.5
t110 -21z" />
    <glyph glyph-name="uni0431" unicode="&#x431;" horiz-adv-x="1187" 
d="M584 -31q-154 1 -262 67t-168.5 190.5t-70.5 300.5q-5 85 1 188.5t22.5 200.5t42.5 162q29 72 79 132.5t110 101.5q64 44 142 68.5t163.5 38.5t173 24.5t170.5 26.5l20 -187q-55 -13 -129.5 -21t-154 -18t-151.5 -28t-125 -51q-75 -46 -114.5 -134t-47.5 -191
q62 94 158 135.5t199 41.5q144 0 248.5 -68t160.5 -185t56 -265q0 -160 -65.5 -279.5t-183.5 -186t-274 -64.5zM595 166q144 0 217.5 89t73.5 237q0 152 -76 239t-215 87q-141 0 -215.5 -87t-74.5 -239q0 -154 75 -240t215 -86z" />
    <glyph glyph-name="uni0432" unicode="&#x432;" horiz-adv-x="1103" 
d="M139 0v1080h475q47 0 94 -5.5t83 -15.5q82 -23 140 -91.5t58 -182.5q0 -65 -20 -109.5t-55 -76.5q-16 -14 -34 -25t-36 -17q37 -6 73 -26q55 -29 90.5 -83.5t35.5 -145.5q0 -109 -53 -182.5t-150 -100.5q-38 -11 -85.5 -15t-94.5 -4h-521zM351 165h296q21 0 48 4t48 11
q45 14 64.5 51t19.5 79q0 57 -30 91.5t-76 44.5q-20 7 -44 8t-41 1h-285v-290zM351 623h234q29 0 59 3.5t52 12.5q39 15 58 50.5t19 77.5q0 46 -21 82t-63 50q-29 10 -66.5 11.5t-47.5 1.5h-224v-289z" />
    <glyph glyph-name="uni0433" unicode="&#x433;" horiz-adv-x="950" 
d="M140 0v1080h760v-197h-551v-883h-209z" />
    <glyph glyph-name="uni0434" unicode="&#x434;" horiz-adv-x="1243" 
d="M60 -240v408q89 0 127.5 59.5t61.5 202.5q14 87 23.5 185t16.5 212.5t14 252.5h774v-912h106v-408h-198v240h-726v-240h-199zM359 168h508v744h-378q-4 -66 -8.5 -136t-10 -139t-12.5 -132t-16 -114q-12 -79 -28.5 -132t-54.5 -91z" />
    <glyph glyph-name="uni0435" unicode="&#x435;" horiz-adv-x="1193" 
d="M619 -30q-161 0 -282.5 70.5t-189 197t-67.5 293.5q0 177 66.5 307t185.5 201t277 71q165 0 281 -76.5t173.5 -217.5t45.5 -335h-209v76q-2 188 -71.5 278t-211.5 90q-157 0 -236 -99t-79 -286q0 -178 79 -275.5t228 -97.5q98 0 169.5 44.5t111.5 127.5l205 -65
q-63 -145 -191 -224.5t-285 -79.5zM234 481v163h771v-163h-771z" />
    <glyph glyph-name="uni0436" unicode="&#x436;" horiz-adv-x="1487" 
d="M20 0l416 540l-393 540h230l376 -527v527h188v-527l376 527h231l-393 -540l416 -540h-243l-387 527v-527h-188v527l-386 -527h-243z" />
    <glyph glyph-name="uni0437" unicode="&#x437;" horiz-adv-x="1031" 
d="M525 -30q-157 0 -281.5 67t-196.5 185l166 109q58 -78 134.5 -121t172.5 -43q100 0 158.5 45.5t58.5 122.5q0 61 -33.5 90.5t-92 38.5t-132.5 9h-96v168h96q98 0 161.5 27.5t63.5 104.5q0 75 -54.5 108t-129.5 33q-84 0 -163 -35.5t-138 -87.5l-122 143
q86 83 196.5 129.5t237.5 46.5q104 0 192.5 -36.5t142 -107.5t53.5 -175q0 -81 -36 -148t-110 -122l-6 71q61 -19 102 -61t61.5 -98.5t20.5 -119.5q0 -109 -57.5 -186t-154.5 -117t-214 -40z" />
    <glyph glyph-name="uni0438" unicode="&#x438;" horiz-adv-x="1190" 
d="M1050 1080v-1080h-201v751l-540 -751h-170v1080h201v-736l541 736h169z" />
    <glyph glyph-name="uni0439" unicode="&#x439;" horiz-adv-x="1190" 
d="M622 1204q-79 0 -144.5 39t-104.5 104t-39 145h166q0 -50 36 -86t86 -36q51 0 86.5 36t35.5 86h166q0 -80 -39 -145t-104.5 -104t-144.5 -39zM1050 1080v-1080h-201v751l-540 -751h-170v1080h201v-736l541 736h169z" />
    <glyph glyph-name="uni043A" unicode="&#x43a;" horiz-adv-x="1048" 
d="M139 0l1 1080h212v-520l424 520h266l-448 -540l494 -540h-284l-452 520v-520h-213z" />
    <glyph glyph-name="uni043B" unicode="&#x43b;" horiz-adv-x="1191" 
d="M40 0v177q60 -11 91.5 3.5t47 53.5t26.5 101q17 91 29.5 207.5t22.5 252.5t18 285h776v-1080h-210v883h-378q-6 -79 -13.5 -167.5t-16.5 -175.5t-19 -163t-21 -130q-20 -108 -58.5 -171.5t-108.5 -82t-186 6.5z" />
    <glyph glyph-name="uni043C" unicode="&#x43c;" horiz-adv-x="1427" 
d="M139 0v1080h175l399 -792l398 792h176v-1080h-202v652l-325 -652h-95l-325 652v-652h-201z" />
    <glyph glyph-name="uni043D" unicode="&#x43d;" horiz-adv-x="1224" 
d="M139 0v1080h209v-441h527v441h209v-1080h-209v442h-527v-442h-209z" />
    <glyph glyph-name="uni043E" unicode="&#x43e;" horiz-adv-x="1219" 
d="M609 -30q-162 0 -281 73t-183.5 201.5t-64.5 296.5q0 169 66 297.5t185 200t278 71.5q162 0 281 -73t184 -201t65 -295q0 -169 -65.5 -297.5t-184.5 -201t-280 -72.5zM609 167q155 0 231.5 104.5t76.5 269.5q0 169 -77.5 270.5t-230.5 101.5q-105 0 -173 -47.5t-101 -131
t-33 -193.5q0 -170 78 -272t229 -102z" />
    <glyph glyph-name="uni043F" unicode="&#x43f;" horiz-adv-x="1190" 
d="M139 0v1080h911v-1080h-209v883h-493v-883h-209z" />
    <glyph glyph-name="uni0440" unicode="&#x440;" horiz-adv-x="1216" 
d="M647 -30q-155 0 -260 75.5t-159 204.5t-54 291t53.5 291t158 203.5t257.5 74.5q152 0 262.5 -74.5t170.5 -203t60 -291.5q0 -162 -59.5 -291.5t-169 -204.5t-260.5 -75zM139 -480v1560h186v-777h24v-783h-210zM618 159q100 0 165.5 51t98 137.5t32.5 193.5
q0 106 -32.5 192t-99.5 137t-171 51q-98 0 -161.5 -48t-94 -134t-30.5 -198t30 -198t95 -135t168 -49z" />
    <glyph glyph-name="uni0441" unicode="&#x441;" horiz-adv-x="1137" 
d="M602 -30q-166 0 -282 74t-177.5 203t-62.5 293q1 167 64 295.5t180 201.5t281 73q177 0 302.5 -88t165.5 -241l-208 -60q-31 91 -101.5 141.5t-161.5 50.5q-103 0 -169 -48.5t-98 -132.5t-33 -192q1 -167 76.5 -270t223.5 -103q101 0 163.5 46.5t95.5 133.5l212 -50
q-53 -158 -175 -242.5t-296 -84.5z" />
    <glyph glyph-name="uni0442" unicode="&#x442;" horiz-adv-x="1047" 
d="M419 0v892h-369v188h947v-188h-369v-892h-209z" />
    <glyph glyph-name="uni0443" unicode="&#x443;" horiz-adv-x="1097" 
d="M286 -480l209 569l3 -168l-471 1159h218l352 -895h-64l336 895h212l-596 -1560h-199z" />
    <glyph glyph-name="uni0444" unicode="&#x444;" horiz-adv-x="1484" 
d="M648 -450v431q-158 -25 -287 34t-205 192t-76 332t76 333t205 193t287 34v327h188v-327q158 25 287 -34t205 -193t76 -333t-76 -332t-205 -192t-287 -34v-431h-188zM648 170v739q-81 14 -146.5 -5t-111.5 -66.5t-71 -123t-25 -175.5t25.5 -175t73 -122.5t112.5 -66
t143 -5.5zM836 170q78 -13 143 5t112.5 65t73 122.5t25.5 176.5q0 102 -25 177.5t-71 123t-111.5 65.5t-146.5 4v-739z" />
    <glyph glyph-name="uni0445" unicode="&#x445;" horiz-adv-x="1090" 
d="M20 0l404 546l-395 534h248l269 -371l266 371h248l-395 -534l405 -546h-249l-275 383l-277 -383h-249z" />
    <glyph glyph-name="uni0446" unicode="&#x446;" horiz-adv-x="1281" 
d="M1052 -213v213h-913v1080h209v-883h493v883h209v-892h211v-401h-209z" />
    <glyph glyph-name="uni0447" unicode="&#x447;" horiz-adv-x="1130" 
d="M779 0v376q-55 -28 -129 -45.5t-156 -17.5q-166 0 -266.5 74.5t-130.5 215.5q-8 42 -12 86.5t-4.5 81.5t-0.5 55v254h212v-254q0 -26 2 -68.5t11 -82.5q19 -90 76 -133.5t161 -43.5q75 0 135.5 19.5t101.5 50.5v512h211v-1080h-211z" />
    <glyph glyph-name="uni0448" unicode="&#x448;" horiz-adv-x="1559" 
d="M139 0v1080h201v-892h339v892h201v-892h338v892h201v-1080h-1280z" />
    <glyph glyph-name="uni0449" unicode="&#x449;" horiz-adv-x="1554" 
d="M1325 -213v213h-1186v1080h201v-892h339v892h201v-892h338v892h201v-892h115v-401h-209z" />
    <glyph glyph-name="uni044A" unicode="&#x44a;" horiz-adv-x="1169" 
d="M194 0l-1 912h-153v168h363v-375h214q46 0 98.5 -2t89.5 -10q88 -18 151.5 -60t98 -111.5t34.5 -170.5q0 -141 -73 -224.5t-198 -112.5q-40 -9 -94.5 -11.5t-100.5 -2.5h-429zM403 168h232q26 0 58 2t59 9q48 14 85.5 57t37.5 115q0 74 -37.5 118t-94.5 57q-26 7 -54.5 9
t-53.5 2h-232v-369z" />
    <glyph glyph-name="uni044B" unicode="&#x44b;" horiz-adv-x="1432" 
d="M139 0v1080h210v-375h142q46 0 99 -2t90 -10q87 -18 151 -60t98.5 -111.5t34.5 -170.5q0 -141 -73 -224.5t-198 -112.5q-40 -9 -94.5 -11.5t-100.5 -2.5h-359zM349 168h161q26 0 58 2t59 9q47 14 85 57t38 115q0 74 -37.5 118t-94.5 57q-26 7 -54.5 9t-53.5 2h-161v-369z
M1083 0v1080h209v-1080h-209z" />
    <glyph glyph-name="uni044C" unicode="&#x44c;" horiz-adv-x="1115" 
d="M139 0v1080h210v-375h213q46 0 98.5 -2t90.5 -10q87 -18 150.5 -60t98.5 -111.5t35 -170.5q0 -141 -73.5 -224.5t-198.5 -112.5q-40 -9 -94.5 -11.5t-99.5 -2.5h-430zM349 168h232q25 0 57 2t59 9q48 14 86 57t38 115q0 74 -37.5 118t-94.5 57q-27 7 -55 9t-53 2h-232
v-369z" />
    <glyph glyph-name="uni044D" unicode="&#x44d;" horiz-adv-x="1138" 
d="M537 -30q-174 0 -296 84.5t-176 242.5l212 50q33 -87 96 -133.5t163 -46.5q130 0 203 79t90 211h-401v168h401q-16 126 -87 207t-201 81q-94 0 -165 -49.5t-103 -142.5l-208 60q40 153 166 241t305 88q162 0 279 -73t180 -202t63 -296q0 -166 -62 -294.5t-179 -201.5
t-280 -73z" />
    <glyph glyph-name="uni044E" unicode="&#x44e;" horiz-adv-x="1662" 
d="M1052 -30q-134 0 -238.5 56t-170.5 160.5t-84 248.5h-211v-435h-209v1080h209v-435h210q18 147 85 251t172.5 159t239.5 55q161 0 279 -73t183 -201.5t65 -293.5q0 -169 -65.5 -298t-184.5 -201.5t-280 -72.5zM1049 167q157 0 234 104t77 270q0 171 -77.5 271.5
t-232.5 100.5q-151 0 -228 -100.5t-77 -270.5q0 -171 77.5 -273t226.5 -102z" />
    <glyph glyph-name="uni044F" unicode="&#x44f;" horiz-adv-x="1147" 
d="M797 0v375h-214q-38 0 -90.5 3t-98.5 11q-121 22 -202 105.5t-81 230.5q0 142 76.5 228.5t194.5 111.5q51 12 104.5 13.5t90.5 1.5h429l1 -1080h-210zM80 0l273 427h221l-271 -427h-223zM565 543h232v369h-232q-22 0 -54 -2t-62 -11q-31 -9 -59.5 -32t-46.5 -58.5
t-18 -81.5q0 -69 39 -113.5t93 -58.5q29 -8 58 -10t50 -2z" />
    <glyph glyph-name="uni0450" unicode="&#x450;" horiz-adv-x="1193" 
d="M533 1240l-143 350h164l143 -350h-164zM619 -30q-161 0 -282.5 70.5t-189 197t-67.5 293.5q0 177 66.5 307t185.5 201t277 71q165 0 281 -76.5t173.5 -217.5t45.5 -335h-209v76q-2 188 -71.5 278t-211.5 90q-157 0 -236 -99t-79 -286q0 -178 79 -275.5t228 -97.5
q98 0 169.5 44.5t111.5 127.5l205 -65q-63 -145 -191 -224.5t-285 -79.5zM234 481v163h771v-163h-771z" />
    <glyph glyph-name="uni0451" unicode="&#x451;" horiz-adv-x="1193" 
d="M710 1261v200h200v-200h-200zM307 1261v200h200v-200h-200zM619 -30q-161 0 -282.5 70.5t-189 197t-67.5 293.5q0 177 66.5 307t185.5 201t277 71q165 0 281 -76.5t173.5 -217.5t45.5 -335h-209v76q-2 188 -71.5 278t-211.5 90q-157 0 -236 -99t-79 -286
q0 -178 79 -275.5t228 -97.5q98 0 169.5 44.5t111.5 127.5l205 -65q-63 -145 -191 -224.5t-285 -79.5zM234 481v163h771v-163h-771z" />
    <glyph glyph-name="uni0452" unicode="&#x452;" 
d="M935 -431q-56 -12 -115 -5.5t-95 15.5v154q32 -3 63 -3t55.5 12t39.5 43.5t15 89.5v656q0 63 -10.5 129.5t-40 123.5t-83 92t-139.5 35q-56 0 -106 -18.5t-87.5 -59.5t-59 -108t-21.5 -163v-562h-211v1173h-116v167h116v100h186v-100h221v-167h-221v-226q59 79 150 120.5
t207 41.5q112 0 188 -36t123.5 -94.5t72.5 -127.5t34 -135t9 -116v-781q0 -106 -45 -168.5t-130 -81.5z" />
    <glyph glyph-name="uni0453" unicode="&#x453;" horiz-adv-x="950" 
d="M544 1240h-164l142 350h164zM140 0v1080h760v-197h-551v-883h-209z" />
    <glyph glyph-name="uni0454" unicode="&#x454;" horiz-adv-x="1138" 
d="M601 -30q-163 0 -280 73t-179 201.5t-62 294.5q0 167 63.5 296t180 202t278.5 73q180 0 305.5 -88t165.5 -241l-208 -60q-31 93 -102.5 142.5t-165.5 49.5q-129 0 -200.5 -81t-87.5 -207h401v-168h-401q18 -132 91 -211t202 -79q101 0 163.5 46.5t95.5 133.5l212 -50
q-53 -158 -175 -242.5t-297 -84.5z" />
    <glyph glyph-name="uni0455" unicode="&#x455;" horiz-adv-x="1072" 
d="M553 -29q-197 0 -321 87t-152 245l214 33q20 -84 92.5 -132.5t180.5 -48.5q98 0 153.5 40t55.5 110q0 41 -19.5 66.5t-81.5 48.5t-189 57q-139 36 -220.5 77.5t-116 97t-34.5 134.5q0 98 52 171t146.5 113t221.5 40q124 0 221 -39t157 -110.5t72 -167.5l-214 -39
q-11 78 -73 123t-161 49q-95 4 -154 -31.5t-59 -97.5q0 -36 22.5 -61t87.5 -48t192 -55q136 -35 216 -77.5t114.5 -101t34.5 -141.5q0 -160 -116.5 -251t-321.5 -91z" />
    <glyph glyph-name="uni0456" unicode="&#x456;" horiz-adv-x="529" 
d="M160 1257v203h209v-203h-209zM160 0v1080h209v-1080h-209z" />
    <glyph glyph-name="uni0457" unicode="&#x457;" horiz-adv-x="529" 
d="M366 1261v200h200v-200h-200zM-37 1261v200h200v-200h-200zM160 0v1080h209v-1080h-209z" />
    <glyph glyph-name="uni0458" unicode="&#x458;" horiz-adv-x="551" 
d="M-20 -480v198h55q83 0 121.5 40t38.5 123v1199h210v-1284q0 -132 -72.5 -204t-207.5 -72h-145zM195 1257v203h210v-203h-210z" />
    <glyph glyph-name="uni0459" unicode="&#x459;" horiz-adv-x="1699" 
d="M40 0v177q60 -11 91.5 3.5t47 53t26.5 101.5q17 91 29.5 207.5t22.5 252.5t18 285h729v-375h143q49 0 96 -1.5t92 -10.5q81 -15 145.5 -56t101.5 -111t37 -171q0 -146 -76 -231.5t-195 -109.5q-51 -10 -106 -12t-89 -2h-358l-1 883h-331q-6 -79 -13.5 -167.5
t-16.5 -175.5t-19 -163t-21 -130q-20 -108 -58.5 -171.5t-108.5 -82t-186 6.5zM1004 168h161q28 0 58.5 2t58.5 9q31 9 59 31t46 58t18 86q0 73 -38 116t-94 56q-29 7 -59 9t-49 2h-161v-369z" />
    <glyph glyph-name="uni045A" unicode="&#x45a;" horiz-adv-x="1649" 
d="M139 0v1080h209v-375h396v375h210v-375h143q49 0 96 -1.5t92 -10.5q81 -15 145.5 -56t101.5 -111t37 -171q0 -146 -76 -231.5t-195 -109.5q-51 -10 -106 -12t-89 -2h-358l-1 537h-396v-537h-209zM954 168h161q28 0 58.5 2t58.5 9q31 9 59 31t46 58t18 86q0 73 -38 116
t-94 56q-29 7 -59 9t-49 2h-161v-369z" />
    <glyph glyph-name="uni045B" unicode="&#x45b;" 
d="M24 1173v167h523v-167h-523zM898 0v531q0 63 -10.5 129.5t-40 123.5t-83 92t-139.5 35q-56 0 -106 -18.5t-87.5 -59.5t-59 -108t-21.5 -163l-130 49q0 147 55 259.5t158 175.5t249 63q112 0 188 -36t123.5 -94.5t72.5 -127.5t34 -135t9 -116v-600h-212zM139 0v1440h187
v-777h25v-663h-212z" />
    <glyph glyph-name="uni045C" unicode="&#x45c;" horiz-adv-x="1048" 
d="M579 1240h-164l143 350h164zM139 0l1 1080h212v-520l424 520h266l-448 -540l494 -540h-284l-452 520v-520h-213z" />
    <glyph glyph-name="uni045D" unicode="&#x45d;" horiz-adv-x="1190" 
d="M596 1240l-142 350h164l142 -350h-164zM1050 1080v-1080h-201v751l-540 -751h-170v1080h201v-736l541 736h169z" />
    <glyph glyph-name="uni045E" unicode="&#x45e;" horiz-adv-x="1097" 
d="M577 1204q-79 0 -144.5 39t-104.5 104t-39 145h166q0 -50 36 -86t86 -36q51 0 86.5 36t35.5 86h166q0 -80 -38.5 -145t-104 -104t-145.5 -39zM286 -480l209 569l3 -168l-471 1159h218l352 -895h-64l336 895h212l-596 -1560h-199z" />
    <glyph glyph-name="uni045F" unicode="&#x45f;" horiz-adv-x="1190" 
d="M507 -240v240h-368v1080h209v-883h493v883h209v-1080h-334v-240h-209z" />
    <glyph glyph-name="uni0490" unicode="&#x490;" horiz-adv-x="1100" 
d="M140 0v1440h731v213h209v-410h-731v-1243h-209z" />
    <glyph glyph-name="uni0491" unicode="&#x491;" horiz-adv-x="950" 
d="M140 0v1080h551v213h209v-410h-551v-883h-209z" />
    <glyph glyph-name="Ustraitcy" unicode="&#x4ae;" horiz-adv-x="1186" 
d="M487 0v595l-487 845h244l349 -605l349 605h244l-487 -845v-595h-212z" />
    <glyph glyph-name="ustraitcy" unicode="&#x4af;" horiz-adv-x="1076" 
d="M432 -360v360l-392 1080h211l287 -818l287 818h211l-392 -1080v-360h-212z" />
    <glyph glyph-name="uni04BA" unicode="&#x4ba;" horiz-adv-x="1333" 
d="M351 1440v-652l-40 63q63 50 164 78t218 28q183 0 293 -70.5t158.5 -194.5t48.5 -285v-407h-212v340q0 83 -12 158t-46.5 133.5t-99 92t-170.5 33.5q-122 0 -208 -39t-125 -85l31 120v-753h-211v1440h211z" />
    <glyph glyph-name="uni04BB" unicode="&#x4bb;" horiz-adv-x="1143" 
d="M364 1080v-376q56 28 130 45.5t155 17.5q166 0 267 -74.5t130 -215.5q9 -42 12.5 -86.5t4 -81.5t0.5 -55v-254h-212v254q0 27 -1.5 69t-10.5 82q-19 91 -76 134t-162 43q-74 0 -134.5 -19.5t-102.5 -50.5v-512h-211v1080h211z" />
    <glyph glyph-name="uni04E8" unicode="&#x4e8;" horiz-adv-x="1521" 
d="M237 615v210h1033v-210h-1033zM741 -30q-216 0 -368 94.5t-232.5 263.5t-80.5 392t80.5 392t232.5 263.5t368 94.5q215 0 367.5 -94.5t232.5 -263.5t80 -392t-80 -392t-232.5 -263.5t-367.5 -94.5zM741 169q153 -2 254.5 67.5t152.5 194t51 289.5t-51 288.5t-152.5 192.5
t-254.5 70q-153 2 -254.5 -67t-152.5 -194t-52 -290t50 -288.5t153.5 -192.5t255.5 -70z" />
    <glyph glyph-name="uni04E9" unicode="&#x4e9;" horiz-adv-x="1219" 
d="M187 457v168h852v-168h-852zM609 -30q-162 0 -281 73t-183.5 201.5t-64.5 296.5q0 169 66 297.5t185 200t278 71.5q162 0 281 -73t184 -201t65 -295q0 -169 -65.5 -297.5t-184.5 -201t-280 -72.5zM609 167q155 0 231.5 104.5t76.5 269.5q0 169 -77.5 270.5t-230.5 101.5
q-105 0 -173 -47.5t-101 -131t-33 -193.5q0 -170 78 -272t229 -102z" />
    <glyph glyph-name="uni2011" unicode="&#x2011;" horiz-adv-x="840" 
d="M120 547v168h600v-168h-600z" />
    <glyph glyph-name="endash" unicode="&#x2013;" horiz-adv-x="1080" 
d="M120 547v168h840v-168h-840z" />
    <glyph glyph-name="emdash" unicode="&#x2014;" horiz-adv-x="1560" 
d="M120 547v168h1320v-168h-1320z" />
    <glyph glyph-name="quoteleft" unicode="&#x2018;" horiz-adv-x="527" 
d="M367 959q-108 -18 -165 42t-57 178v261h222v-241h-116q-4 -43 3.5 -77t31.5 -53.5t68 -15.5z" />
    <glyph glyph-name="quoteright" unicode="&#x2019;" horiz-adv-x="527" 
d="M160 960l13 93q43 -3 67 16t32 53t3 77h-115v241h221v-261q0 -118 -56.5 -178t-164.5 -41z" />
    <glyph glyph-name="quotesinglbase" unicode="&#x201a;" horiz-adv-x="581" 
d="M120 -239l13 93q43 -3 67 16t32 53t3 77h-115v241h221v-261q0 -118 -56.5 -178t-164.5 -41z" />
    <glyph glyph-name="quotedblleft" unicode="&#x201c;" horiz-adv-x="849" 
d="M689 1445l-12 -93q-44 3 -68 -16t-32 -53t-3 -77h115v-241h-221v261q0 118 56.5 178.5t164.5 40.5zM381 1445l-12 -93q-44 3 -68 -16t-32 -53t-3 -77h115v-241h-221v261q0 118 56.5 178.5t164.5 40.5z" />
    <glyph glyph-name="quotedblright" unicode="&#x201d;" horiz-adv-x="849" 
d="M160 966l13 93q43 -3 67 16t32 53t3 77h-115v241h221v-261q0 -118 -56.5 -178t-164.5 -41zM468 966l13 93q43 -3 67 16t32 53t3 77h-115v241h221v-261q0 -118 -56.5 -178t-164.5 -41z" />
    <glyph glyph-name="quotedblbase" unicode="&#x201e;" horiz-adv-x="849" 
d="M160 -239l13 93q43 -3 67 16t32 53t3 77h-115v241h221v-261q0 -118 -56.5 -178t-164.5 -41zM468 -239l13 93q43 -3 67 16t32 53t3 77h-115v241h221v-261q0 -118 -56.5 -178t-164.5 -41z" />
    <glyph glyph-name="uni201F" unicode="&#x201f;" horiz-adv-x="849" 
d="M689 966q-108 -19 -164.5 41t-56.5 178v262h221v-242h-115q-5 -42 3 -76.5t32 -53.5t68 -16zM381 966q-108 -19 -164.5 41t-56.5 178v262h221v-242h-115q-5 -42 3 -76.5t32 -53.5t68 -16z" />
    <glyph glyph-name="dagger" unicode="&#x2020;" horiz-adv-x="1080" 
d="M435 0v1440h209v-1440h-209zM120 912v168h840v-168h-840z" />
    <glyph glyph-name="daggerdbl" unicode="&#x2021;" horiz-adv-x="889" 
d="M340 0v538l90 -90h-309v168h309l-90 -90v443l90 -90h-309v168h309l-90 -90v483h209v-483l-90 90h310v-168h-310l90 90v-443l-90 90h310v-168h-310l90 90v-538h-209z" />
    <glyph glyph-name="bullet" unicode="&#x2022;" horiz-adv-x="1373" 
d="M692 363q-76 0 -137.5 35t-98 95.5t-36.5 136.5t36.5 136.5t98 95.5t137.5 35q71 0 130.5 -35t95 -95.5t35.5 -136.5t-35.5 -136.5t-95 -95.5t-130.5 -35z" />
    <glyph glyph-name="ellipsis" unicode="&#x2026;" horiz-adv-x="1368" 
d="M160 0v221h221v-221h-221zM573 0v221h221v-221h-221zM987 0v221h221v-221h-221z" />
    <glyph glyph-name="perthousand" unicode="&#x2030;" horiz-adv-x="2628" 
d="M320 0l-140 140l1301 1300l140 -141zM1321 -30q-99 0 -180.5 48.5t-130.5 130t-49 181.5q0 98 50 180t132 131t178 49q99 0 181 -48.5t130.5 -130t48.5 -181.5t-48.5 -181.5t-130.5 -130t-181 -48.5zM1321 151q49 0 89.5 24.5t65 65.5t24.5 89t-24.5 89t-65 65.5
t-89.5 24.5q-48 0 -88.5 -24.5t-65 -65.5t-24.5 -89t24.5 -89t65 -65.5t88.5 -24.5zM480 750q-99 0 -181 48.5t-130.5 130t-48.5 181.5q0 98 50 180t132 131t178 49q99 0 180.5 -48.5t130.5 -130t49 -181.5t-49 -181.5t-130.5 -130t-180.5 -48.5zM480 931q48 0 89 24.5
t65.5 65.5t24.5 89t-24.5 89t-65.5 65.5t-89 24.5t-88.5 -24.5t-65.5 -65.5t-25 -89t25 -89t65 -65.5t89 -24.5zM2148 -30q-99 0 -180.5 48.5t-130.5 130t-49 181.5q0 98 50 180t132 131t178 49q99 0 181 -48.5t130.5 -130t48.5 -181.5t-48.5 -181.5t-130.5 -130t-181 -48.5
zM2148 151q48 0 89 24.5t65.5 65.5t24.5 89t-24.5 89t-65.5 65.5t-89 24.5t-88.5 -24.5t-65.5 -65.5t-25 -89t25 -89t65 -65.5t89 -24.5z" />
    <glyph glyph-name="guilsinglleft" unicode="&#x2039;" horiz-adv-x="1259" 
d="M757 153l-477 477l477 477l130 -130l-354 -347l354 -347z" />
    <glyph glyph-name="guilsinglright" unicode="&#x203a;" horiz-adv-x="1259" 
d="M503 153l-131 130l355 347l-355 347l131 130l476 -477z" />
    <glyph glyph-name="fraction" unicode="&#x2044;" horiz-adv-x="486" 
d="M-197 0l-127 96l1007 1353l127 -96z" />
    <glyph glyph-name="uni2060" unicode="&#x2060;" horiz-adv-x="0" 
 />
    <glyph glyph-name="uni2070" horiz-adv-x="921" 
d="M461 517q-96 0 -168.5 41.5t-112.5 116.5t-40 178v270q0 100 40 175.5t112.5 117.5t168.5 42q95 0 167 -41t112.5 -116.5t40.5 -177.5v-270q0 -102 -39 -177.5t-111 -117t-170 -41.5zM461 651q80 0 128.5 54.5t48.5 146.5v272q0 89 -47.5 145t-129.5 56
q-79 0 -127.5 -54.5t-48.5 -146.5v-272q0 -88 46.5 -144.5t129.5 -56.5z" />
    <glyph glyph-name="uni2074" unicode="&#x2074;" horiz-adv-x="832" 
d="M503 540v153h-403v133l291 614h161l-291 -614h242v239h142v-239h87v-133h-87v-153h-142z" />
    <glyph glyph-name="uni2075" horiz-adv-x="807" 
d="M392 520q-103 0 -183.5 62t-108.5 161l135 36q15 -57 61.5 -90.5t100.5 -33.5q70 0 119 49.5t49 117.5q0 47 -23 85.5t-61 61t-84 22.5q-53 0 -89.5 -21t-56.5 -47l-121 42l27 475h488v-131h-414l53 48l-19 -352l-31 39q36 37 84.5 55t97.5 18q84 0 149.5 -38t103.5 -105
t38 -152q0 -84 -43.5 -152.5t-115 -109t-156.5 -40.5z" />
    <glyph glyph-name="uni2076" horiz-adv-x="880" 
d="M454 514q-89 0 -160 42t-112.5 115t-41.5 168v282q0 102 41.5 178t115.5 117.5t172 41.5q70 0 132 -25t110 -77l-103 -99q-26 32 -62 50t-77 18q-55 0 -96.5 -26t-64.5 -68t-23 -90v-170l-30 34q38 52 96 81t122 29q86 0 152 -39t104 -106t38 -152t-42.5 -154
t-114 -109.5t-156.5 -40.5zM454 649q70 0 119.5 49t49.5 120q0 70 -49.5 119t-119.5 49t-119.5 -49t-49.5 -119q0 -69 49 -119t120 -50z" />
    <glyph glyph-name="uni2077" horiz-adv-x="729" 
d="M163 540l315 767h-398v133h549v-133l-313 -767h-153z" />
    <glyph glyph-name="uni2078" horiz-adv-x="853" 
d="M426 514q-89 0 -158.5 36t-108.5 100t-39 147q0 79 37.5 144.5t110.5 102.5l-3 -52q-59 37 -90.5 91t-31.5 121q0 116 79.5 185t203.5 69q125 0 204 -69t79 -185q0 -67 -30.5 -121t-94.5 -91l1 51q72 -35 110 -101t38 -145q0 -83 -39.5 -147t-109 -100t-158.5 -36z
M426 649q70 0 113.5 38t43.5 110q0 75 -43.5 113.5t-113.5 38.5t-113 -38.5t-43 -113.5q0 -72 43.5 -110t112.5 -38zM426 1084q60 0 96.5 30t36.5 90q0 61 -36.5 90.5t-96.5 29.5q-59 0 -95.5 -29.5t-36.5 -90.5q0 -60 36.5 -90t95.5 -30z" />
    <glyph glyph-name="uni2079" horiz-adv-x="880" 
d="M426 1458q89 0 160 -41.5t112.5 -115t41.5 -168.5v-282q0 -102 -41.5 -178t-115.5 -117.5t-172 -41.5q-70 0 -132 25.5t-110 76.5l103 99q26 -31 62.5 -49.5t76.5 -18.5q55 0 96.5 26t64.5 68t23 90v170l30 -34q-38 -51 -95.5 -80.5t-122.5 -29.5q-86 0 -152 39t-104 106
t-38 152t42.5 154t114 109.5t156.5 40.5zM426 1323q-70 0 -119.5 -49t-49.5 -120q0 -69 49.5 -118.5t119.5 -49.5t119.5 49.5t49.5 118.5t-49 119t-120 50z" />
    <glyph glyph-name="uni2080" horiz-adv-x="921" 
d="M461 -23q-96 0 -168.5 41.5t-112.5 116.5t-40 178v270q0 100 40 175.5t112.5 117.5t168.5 42q95 0 167 -41t112.5 -116.5t40.5 -177.5v-270q0 -102 -39 -177.5t-111 -117t-170 -41.5zM461 111q80 0 128.5 54.5t48.5 146.5v272q0 89 -47.5 145t-129.5 56
q-79 0 -127.5 -54.5t-48.5 -146.5v-272q0 -88 46.5 -144.5t129.5 -56.5z" />
    <glyph glyph-name="uni2081" horiz-adv-x="673" 
d="M289 0v746l-169 -103v156l169 101h144v-900h-144z" />
    <glyph glyph-name="uni2082" horiz-adv-x="816" 
d="M100 0l1 124l388 349q46 41 64 77.5t18 71.5q0 71 -44.5 118t-114.5 47q-48 0 -86 -22.5t-59 -60t-20 -80.5h-145q0 89 40 155.5t110.5 103.5t162.5 37q86 0 154 -38.5t107.5 -106t39.5 -154.5q0 -63 -17 -106.5t-51 -80.5t-84 -81l-296 -265l-17 45h465v-133h-616z" />
    <glyph glyph-name="uni2083" horiz-adv-x="799" 
d="M373 -21q-101 0 -182.5 57.5t-110.5 155.5l137 37q17 -57 60.5 -86.5t95.5 -29.5q71 1 116.5 47.5t45.5 116.5q0 72 -45 119t-117 47q-21 0 -42.5 -6t-39.5 -16l-66 111l320 280l17 -46h-446v134h549v-135l-263 -252l-3 50q87 0 149.5 -38.5t96.5 -103t34 -144.5
q0 -86 -41 -153.5t-110.5 -106t-154.5 -38.5z" />
    <glyph glyph-name="uni2084" horiz-adv-x="832" 
d="M503 0v153h-403v133l291 614h161l-291 -614h242v239h142v-239h87v-133h-87v-153h-142z" />
    <glyph glyph-name="uni2085" horiz-adv-x="807" 
d="M392 -20q-103 0 -183.5 62t-108.5 161l135 36q15 -57 61.5 -90.5t100.5 -33.5q70 0 119 49.5t49 117.5q0 47 -23 85.5t-61 61t-84 22.5q-53 0 -89.5 -21t-56.5 -47l-121 42l27 475h488v-131h-414l53 48l-19 -352l-31 39q36 37 84.5 55t97.5 18q84 0 149.5 -38t103.5 -105
t38 -152q0 -84 -43.5 -152.5t-115 -109t-156.5 -40.5z" />
    <glyph glyph-name="uni2086" horiz-adv-x="880" 
d="M454 -26q-89 0 -160 42t-112.5 115t-41.5 168v282q0 102 41.5 178t115.5 117.5t172 41.5q70 0 132 -25t110 -77l-103 -99q-26 32 -62 50t-77 18q-55 0 -96.5 -26t-64.5 -68t-23 -90v-170l-30 34q38 52 96 81t122 29q86 0 152 -39t104 -106t38 -152t-42.5 -154
t-114 -109.5t-156.5 -40.5zM454 109q70 0 119.5 49t49.5 120q0 70 -49.5 119t-119.5 49t-119.5 -49t-49.5 -119q0 -69 49 -119t120 -50z" />
    <glyph glyph-name="uni2087" horiz-adv-x="729" 
d="M163 0l315 767h-398v133h549v-133l-313 -767h-153z" />
    <glyph glyph-name="uni2088" horiz-adv-x="853" 
d="M426 -26q-89 0 -158.5 36t-108.5 100t-39 147q0 79 37.5 144.5t110.5 102.5l-3 -52q-59 37 -90.5 91t-31.5 121q0 116 79.5 185t203.5 69q125 0 204 -69t79 -185q0 -67 -30.5 -121t-94.5 -91l1 51q72 -35 110 -101t38 -145q0 -83 -39.5 -147t-109 -100t-158.5 -36z
M426 109q70 0 113.5 38t43.5 110q0 75 -43.5 113.5t-113.5 38.5t-113 -38.5t-43 -113.5q0 -72 43.5 -110t112.5 -38zM426 544q60 0 96.5 30t36.5 90q0 61 -36.5 90.5t-96.5 29.5q-59 0 -95.5 -29.5t-36.5 -90.5q0 -60 36.5 -90t95.5 -30z" />
    <glyph glyph-name="uni2089" horiz-adv-x="880" 
d="M426 918q89 0 160 -41.5t112.5 -115t41.5 -168.5v-282q0 -102 -41.5 -178t-115.5 -117.5t-172 -41.5q-70 0 -132 25.5t-110 76.5l103 99q26 -31 62.5 -49.5t76.5 -18.5q55 0 96.5 26t64.5 68t23 90v170l30 -34q-38 -51 -95.5 -80.5t-122.5 -29.5q-86 0 -152 39t-104 106
t-38 152t42.5 154t114 109.5t156.5 40.5zM426 783q-70 0 -119.5 -49t-49.5 -120q0 -69 49.5 -118.5t119.5 -49.5t119.5 49.5t49.5 118.5t-49 119t-120 50z" />
    <glyph glyph-name="Euro" unicode="&#x20ac;" horiz-adv-x="1343" 
d="M899 -30q-213 0 -365 96.5t-234 266t-83 387.5q5 226 86.5 394.5t232.5 262t363 93.5q99 0 191.5 -24t171.5 -73l-111 -174q-55 36 -120 54.5t-132 18.5q-154 1 -255.5 -69t-152 -195t-52.5 -288q2 -166 53 -290.5t153 -193t254 -67.5q140 -3 254 71l110 -172
q-80 -49 -173 -73.5t-191 -24.5zM60 470v168h933v-168h-933zM60 799v168h933v-168h-933z" />
    <glyph glyph-name="trademark" unicode="&#x2122;" horiz-adv-x="1823" 
d="M921 690v750h125l266 -431l266 431h125v-750h-146v460l-200 -332h-90l-199 332v-460h-147zM374 690v610h-254v140h661v-140h-254v-610h-153z" />
    <glyph glyph-name="arrowup" unicode="&#x2191;" horiz-adv-x="1433" 
d="M633 0v1167l-290 -290l-103 102l477 477l476 -477l-103 -102l-289 288v-1165h-168z" />
    <glyph glyph-name="arrowdown" unicode="&#x2193;" horiz-adv-x="1433" 
d="M633 1300h168v-1165l289 288l103 -102l-476 -477l-477 477l103 102l290 -290v1167z" />
    <glyph glyph-name="minus" unicode="&#x2212;" horiz-adv-x="1080" 
d="M120 637v168h840v-168h-840z" />
    <glyph glyph-name="uni2215" unicode="&#x2215;" horiz-adv-x="835" 
d="M504 1440h211l-384 -1440h-211z" />
    <glyph glyph-name="i.loclTRK" horiz-adv-x="529" 
d="M160 1257v203h209v-203h-209zM160 0v1080h209v-1080h-209z" />
    <glyph glyph-name="uni0414.loclBGR" horiz-adv-x="1507" 
d="M73 -173v370h1347v-370h-199v173h-950v-173h-198zM597 1440h300l468 -1440h-216l-404 1229l-400 -1229h-216z" />
    <glyph glyph-name="uni0416.loclBGR" horiz-adv-x="1815" 
d="M20 0l574 737l-527 703h253l483 -659v659h209v-659l483 659h253l-527 -703l574 -737h-262l-521 675v-675h-209v675l-522 -675h-261z" />
    <glyph glyph-name="uni041A.loclBGR" horiz-adv-x="1259" 
d="M140 0v1440h209v-672l603 672h260l-637 -703l684 -737h-268l-642 688v-688h-209z" />
    <glyph glyph-name="uni041B.loclBGR" horiz-adv-x="1257" 
d="M478 1440h301l468 -1440h-217l-404 1229l-399 -1229h-217z" />
    <glyph glyph-name="uni0432.loclBGR" horiz-adv-x="1184" 
d="M620 -30q-176 0 -299.5 74.5t-163.5 222.5q-12 47 -15 92.5t-3 89.5v612q0 34 3.5 72.5t16.5 77.5q28 87 88.5 144.5t143 86t174.5 28.5q128 0 227 -50.5t156 -140.5t57 -210q0 -104 -48 -186t-147 -120l4 42q61 -8 117 -38.5t99.5 -81t69 -119t25.5 -155.5
q0 -135 -62 -234t-175 -153t-268 -54zM629 167q84 0 148 31.5t100 88.5t36 134q0 125 -93.5 187t-247.5 64v185q66 6 115.5 31.5t77 70t27.5 107.5q0 99 -64 153t-158 54q-58 0 -112.5 -25.5t-81.5 -88.5q-17 -39 -20.5 -82.5t-3.5 -71.5v-569q0 -24 3 -60.5t12 -64.5
q24 -72 101 -108t161 -36z" />
    <glyph glyph-name="uni0433.loclBGR" horiz-adv-x="1072" 
d="M519 -29q-204 0 -321 91t-117 251q0 83 34.5 141.5t114.5 101t216 77.5q127 32 192 55t87.5 48t22.5 61q0 62 -59 97.5t-154 31.5q-98 -4 -160 -49t-74 -123l-214 39q12 96 72 167.5t157 110.5t221 39q127 0 221.5 -40t146.5 -113t52 -171q0 -79 -34.5 -134.5t-116 -97
t-220.5 -77.5q-127 -34 -188.5 -57t-81.5 -48.5t-20 -66.5q0 -70 56 -110t153 -40q108 0 180.5 48.5t92.5 132.5l214 -33q-27 -158 -151.5 -245t-321.5 -87z" />
    <glyph glyph-name="uni0434.loclBGR" horiz-adv-x="1216" 
d="M585 -510q-87 0 -168.5 27t-148.5 79.5t-111 129.5l193 98q35 -69 100 -101t137 -32q89 0 152 31.5t95.5 94.5t31.5 156v302h25v805h185v-1109q0 -43 -3 -82t-11 -78q-23 -109 -87.5 -180t-164 -106t-225.5 -35zM569 -30q-151 0 -260.5 75t-169 204.5t-59.5 291.5
q0 163 60 291.5t170.5 203t262.5 74.5q153 0 257.5 -74.5t158 -203.5t53.5 -291t-54 -291t-159 -204.5t-260 -75.5zM598 159q103 0 168 49t95 135t30 198t-30.5 198t-94 134t-161.5 48q-104 0 -171 -51t-99.5 -137t-32.5 -192q0 -107 32.5 -193.5t98 -137.5t165.5 -51z" />
    <glyph glyph-name="uni0436.loclBGR" horiz-adv-x="1520" 
d="M21 0l416 540l-394 540h231l375 -526v886h188v-886l376 526h230l-393 -540l416 -540h-243l-386 526v-526h-188v526l-386 -526h-242z" />
    <glyph glyph-name="uni0437.loclBGR" horiz-adv-x="1277" 
d="M640 -390q-150 0 -261 44t-185.5 114.5t-113.5 150.5l182 118q24 -59 72.5 -111t126 -84.5t188.5 -32.5t183 33.5t107.5 90t35.5 127.5q0 83 -43.5 128.5t-115.5 64t-156 21.5q-70 2 -101 3.5t-41.5 1.5h-19.5v198h38.5t57.5 0.5t49 1.5q124 6 200.5 61t76.5 156
t-74.5 159t-195.5 58q-115 0 -198 -52.5t-128 -129.5l-154 145q72 100 197 167t289 67q93 0 180 -24.5t156 -74.5t109.5 -126.5t40.5 -181.5t-42.5 -190t-113.5 -135q99 -37 155 -116.5t56 -202.5q0 -138 -72.5 -238.5t-198 -155.5t-286.5 -55z" />
    <glyph glyph-name="uni0438.loclBGR" 
d="M547 -29q-112 0 -188 36t-123.5 94.5t-72.5 127.5t-34 135t-9 116v600h212v-531q0 -63 10.5 -129.5t40 -123.5t83 -92t139.5 -35q56 0 106 18.5t87.5 59.5t59 108t21.5 163l130 -49q0 -147 -55 -259.5t-158 -175.5t-249 -63zM904 0v312h-25v768h211v-1080h-186z" />
    <glyph glyph-name="uni0439.loclBGR" 
d="M605 1204q-80 0 -145.5 39t-104 104t-38.5 145h166q0 -50 35.5 -86t86.5 -36t86.5 36t35.5 86h166q0 -80 -39 -145t-104.5 -104t-144.5 -39zM547 -29q-112 0 -188 36t-123.5 94.5t-72.5 127.5t-34 135t-9 116v600h212v-531q0 -63 10.5 -129.5t40 -123.5t83 -92t139.5 -35
q56 0 106 18.5t87.5 59.5t59 108t21.5 163l130 -49q0 -147 -55 -259.5t-158 -175.5t-249 -63zM904 0v312h-25v768h211v-1080h-186z" />
    <glyph glyph-name="uni045D.loclBGR" horiz-adv-x="1210" 
d="M588 1240l-143 350h164l143 -350h-164zM547 -29q-112 0 -188 36t-123.5 94.5t-72.5 127.5t-34 135t-9 116v600h212v-531q0 -63 10.5 -129.5t40 -123.5t83 -92t139.5 -35q56 0 106 18.5t87.5 59.5t59 108t21.5 163l130 -49q0 -147 -55 -259.5t-158 -175.5t-249 -63zM904 0
v312h-25v768h211v-1080h-186z" />
    <glyph glyph-name="uni043A.loclBGR" horiz-adv-x="1048" 
d="M139 0l1 1440h212v-880l424 520h266l-448 -540l494 -540h-284l-452 520v-520h-213z" />
    <glyph glyph-name="uni043B.loclBGR" horiz-adv-x="1076" 
d="M432 1080h212l392 -1080h-211l-287 818l-287 -818h-211z" />
    <glyph glyph-name="uni043D.loclBGR" horiz-adv-x="1224" 
d="M139 0v1080h209v-441h527v441h209v-1080h-209v442h-527v-442h-209z" />
    <glyph glyph-name="uni043F.loclBGR" 
d="M898 0v531q0 63 -10.5 129.5t-40 123.5t-83 92t-139.5 35q-56 0 -106 -18.5t-87.5 -59.5t-59 -108t-21.5 -163l-130 49q0 147 55 259.5t158 175.5t249 63q112 0 188 -36t123.5 -94.5t72.5 -127.5t34 -135t9 -116v-600h-212zM139 0v1080h187v-312h25v-768h-212z" />
    <glyph glyph-name="uni0442.loclBGR" horiz-adv-x="1764" 
d="M1434 0l1 673q0 117 -60 182.5t-158 65.5q-60 0 -109.5 -27.5t-80 -82t-30.5 -136.5l-101 51q-2 114 48.5 200t137.5 133.5t195 47.5q175 0 271 -105t96 -279l-1 -723h-209zM139 0v1080h186v-312h24v-768h-210zM787 0l1 669q0 118 -59.5 185t-159.5 67q-99 0 -159.5 -68
t-60.5 -178l-100 64q0 106 51 189t138 131t197 48q115 0 196 -48.5t123.5 -135.5t42.5 -202l-1 -721h-209z" />
    <glyph glyph-name="uni0447.loclBGR" horiz-adv-x="1130" 
d="M779 0v376q-55 -28 -129 -45.5t-156 -17.5q-166 0 -266.5 74.5t-130.5 215.5q-8 42 -12 86.5t-4.5 81.5t-0.5 55v254h212v-254q0 -26 2 -68.5t11 -82.5q19 -90 76 -133.5t161 -43.5q75 0 135.5 19.5t101.5 50.5v512h211v-1080h-211z" />
    <glyph glyph-name="uni0446.loclBGR" horiz-adv-x="1273" 
d="M904 0v188h349v-361h-209v173h-140zM547 -29q-112 0 -188 36t-123.5 94.5t-72.5 127.5t-34 135t-9 116v600h212v-531q0 -63 10.5 -129.5t40 -123.5t83 -92t139.5 -35q56 0 106 18.5t87.5 59.5t59 108t21.5 163l130 -49q0 -147 -55 -259.5t-158 -175.5t-249 -63zM904 0
v312h-25v768h211v-1080h-186z" />
    <glyph glyph-name="uni0448.loclBGR" horiz-adv-x="1764" 
d="M330 1080l-1 -673q0 -116 60.5 -182t157.5 -66q60 0 110 27.5t80 82t30 136.5l101 -51q2 -114 -48.5 -199.5t-137.5 -133.5t-195 -48q-174 0 -270.5 105t-96.5 279l1 723h209zM1625 1080v-1080h-186v312h-24v768h210zM977 1080l-1 -669q0 -117 60 -184.5t159 -67.5
q100 0 160 68t60 178l100 -64q0 -106 -50.5 -189t-138 -131t-197.5 -48q-115 0 -196 48.5t-123.5 135.5t-42.5 202l1 721h209z" />
    <glyph glyph-name="uni0449.loclBGR" horiz-adv-x="1807" 
d="M1438 0v188h349v-401h-209v213h-140zM330 1080l-1 -673q0 -116 60.5 -182t157.5 -66q60 0 110 27.5t80 82t30 136.5l101 -51q2 -114 -48.5 -199.5t-137.5 -133.5t-195 -48q-174 0 -270.5 105t-96.5 279l1 723h209zM1625 1080v-1080h-186v312h-24v768h210zM977 1080
l-1 -669q0 -117 60 -184.5t159 -67.5q100 0 160 68t60 178l100 -64q0 -106 -50.5 -189t-138 -131t-197.5 -48q-115 0 -196 48.5t-123.5 135.5t-42.5 202l1 721h209z" />
    <glyph glyph-name="uni044C.loclBGR" horiz-adv-x="1115" 
d="M139 0v1080h210v-375h213q46 0 98.5 -2t90.5 -10q87 -18 150.5 -60t98.5 -111.5t35 -170.5q0 -141 -73.5 -224.5t-198.5 -112.5q-40 -9 -94.5 -11.5t-99.5 -2.5h-430zM349 168h232q25 0 57 2t59 9q48 14 86 57t38 115q0 74 -37.5 118t-94.5 57q-27 7 -55 9t-53 2h-232
v-369z" />
    <glyph glyph-name="uni044E.loclBGR" horiz-adv-x="1657" 
d="M140 0v1440h209v-1440h-209zM1052 -30q-134 0 -238.5 56t-170.5 160.5t-84 248.5h-211v-435h-209v1080h209v-435h210q18 147 85 251t172.5 159t239.5 55q161 0 279 -73t183 -201.5t65 -293.5q0 -169 -65.5 -298t-184.5 -201.5t-280 -72.5zM1049 167q157 0 234 104t77 270
q0 171 -77.5 271.5t-232.5 100.5q-151 0 -228 -100.5t-77 -270.5q0 -171 77.5 -273t226.5 -102z" />
    <glyph glyph-name="uni0431.loclSRB" horiz-adv-x="1187" 
d="M584 -31q-154 1 -262 67t-168.5 190.5t-70.5 300.5q-5 85 1 188.5t22.5 200.5t42.5 162q29 72 79 132.5t110 101.5q64 44 142 68.5t163.5 38.5t173 24.5t170.5 26.5l20 -187q-55 -13 -129.5 -21t-154 -18t-151.5 -28t-125 -51q-75 -46 -114.5 -134t-47.5 -191
q62 94 158 135.5t199 41.5q144 0 248.5 -68t160.5 -185t56 -265q0 -160 -65.5 -279.5t-183.5 -186t-274 -64.5zM595 166q144 0 217.5 89t73.5 237q0 152 -76 239t-215 87q-141 0 -215.5 -87t-74.5 -239q0 -154 75 -240t215 -86z" />
    <glyph glyph-name="colon.case" horiz-adv-x="656" 
d="M220 260v221h221v-221h-221zM221 959v221h221v-221h-221z" />
    <glyph glyph-name="exclamdown.case" horiz-adv-x="689" 
d="M240 1440h209v-203h-209v203zM240 1080h209v-1080h-209v1080z" />
    <glyph glyph-name="questiondown.case" horiz-adv-x="1087" 
d="M679 1049q0 -72 -11.5 -135t-43.5 -120q-27 -54 -64 -87.5t-80 -66t-91 -83.5q-39 -44 -53 -88.5t-14 -97.5q0 -38 9 -70.5t30 -57.5q32 -40 81 -56.5t102 -16.5q49 0 92 13t71 40q32 26 46.5 64.5t13.5 83.5h220q-8 -93 -48 -175.5t-108 -133.5q-58 -45 -132 -68
t-148 -23q-106 0 -200.5 33t-157.5 107q-45 52 -69 119t-24 137q0 96 40.5 177t103.5 147q33 35 66.5 63.5t63 55.5t47.5 59q28 47 32 83.5t4 96.5h222zM677 1440v-242h-220v242h220z" />
    <glyph glyph-name="periodcentered.case" horiz-adv-x="507" 
d="M257 587q-58 0 -97.5 38t-39.5 95q0 58 39.5 95.5t97.5 37.5q52 0 91 -37.5t39 -95.5q0 -57 -39 -95t-91 -38z" />
    <glyph glyph-name="parenleft.case" horiz-adv-x="888" 
d="M649 -313q-116 135 -200 304.5t-128 356t-41 372.5q-3 186 41 372.5t128 356t200 304.5l156 -116q-120 -142 -193 -291.5t-107 -306t-34 -319.5q0 -162 34 -319t107.5 -307t192.5 -291z" />
    <glyph glyph-name="parenright.case" horiz-adv-x="888" 
d="M239 -313l-156 116q119 141 192.5 291t107.5 307t34 319q0 163 -34 319.5t-107 306t-193 291.5l156 116q116 -135 200 -304.5t128 -356t41 -372.5q3 -186 -41 -372.5t-128 -356t-200 -304.5z" />
    <glyph glyph-name="braceleft.case" horiz-adv-x="878" 
d="M664 -388q-121 0 -193.5 72.5t-72.5 192.5v618q0 25 -14 46l-87 123q-17 26 -17 56.5t17 55.5l87 123q14 23 14 46v617q0 120 72.5 193t193.5 73h131v-199h-117q-34 0 -57.5 -23.5t-23.5 -56.5v-604q0 -88 -51 -160l-47 -65l47 -65q51 -72 51 -160v-604q0 -34 23.5 -58
t57.5 -24h117v-197h-131z" />
    <glyph glyph-name="braceright.case" horiz-adv-x="878" 
d="M214 -388h-131v197h118q33 0 56.5 24t23.5 58v604q0 88 52 160l46 65l-46 65q-52 72 -52 160v604q0 33 -23.5 56.5t-56.5 23.5h-118v199h131q121 0 193.5 -73t72.5 -193v-617q0 -23 14 -46l87 -123q18 -25 18 -55.5t-18 -56.5l-87 -123q-14 -21 -14 -46v-618
q0 -120 -72.5 -192.5t-193.5 -72.5z" />
    <glyph glyph-name="bracketleft.case" horiz-adv-x="836" 
d="M280 -388v2216h416v-188h-228v-1840h228v-188h-416z" />
    <glyph glyph-name="bracketright.case" horiz-adv-x="836" 
d="M556 -388h-416v188h228v1840h-228v188h416v-2216z" />
    <glyph glyph-name="hyphen.case" horiz-adv-x="840" 
d="M120 637v168h600v-168h-600z" />
    <glyph glyph-name="endash.case" horiz-adv-x="1080" 
d="M120 637v168h840v-168h-840z" />
    <glyph glyph-name="emdash.case" horiz-adv-x="1560" 
d="M120 637v168h1320v-168h-1320z" />
    <glyph glyph-name="guillemotleft.case" horiz-adv-x="1139" 
d="M897 280l-350 441l350 440l115 -91l-279 -349l279 -350zM510 280l-350 441l350 440l115 -91l-278 -349l278 -350z" />
    <glyph glyph-name="guillemotright.case" horiz-adv-x="1139" 
d="M242 280l-115 91l278 350l-278 349l115 91l350 -440zM629 280l-116 91l279 350l-279 349l116 91l350 -440z" />
    <glyph glyph-name="greater.case" horiz-adv-x="1259" 
d="M503 243l-131 130l355 347l-355 347l131 130l476 -477z" />
    <glyph glyph-name="less.case" horiz-adv-x="1259" 
d="M757 243l-477 477l477 477l130 -130l-354 -347l354 -347z" />
    <glyph glyph-name="at.case" horiz-adv-x="1821" 
d="M909 -30q-163 0 -300 54t-238 152.5t-156 231.5t-55 289q0 186 57.5 330t160 242.5t238 149.5t290.5 51q190 0 333 -59t238 -160t141 -230.5t42 -270.5q-5 -194 -81 -297.5t-236 -103.5q-85 0 -156.5 39t-98.5 115l58 -3q-41 -77 -112 -108t-145 -31q-101 0 -178 43.5
t-121 122.5t-44 183q0 107 46 185.5t124 121.5t176 43q65 0 135.5 -27t109.5 -76l-41 -52v127h134l-3 -359q0 -77 30 -116t89 -39q52 0 80.5 29.5t40 80.5t13.5 117q3 155 -46 261t-132.5 171.5t-183.5 95t-199 29.5q-140 0 -249 -44.5t-183.5 -125t-112 -190t-35.5 -240.5
q4 -130 47 -234t120 -178t182 -113t230 -39q70 0 139.5 15.5t127.5 43.5l57 -156q-77 -36 -161.5 -53.5t-171.5 -17.5zM901 531q71 0 119 41t48 139q0 89 -42.5 134.5t-119.5 45.5q-91 0 -136 -48t-45 -132q0 -86 46.5 -133t129.5 -47z" />
    </font>
</defs>
</svg>
