<?xml version="1.0" standalone="no"?>
<!DOCTYPE svg PUBLIC "-//W3C//DTD SVG 1.1//EN" "http://www.w3.org/Graphics/SVG/1.1/DTD/svg11.dtd" >
<svg xmlns="http://www.w3.org/2000/svg" xmlns:xlink="http://www.w3.org/1999/xlink" version="1.1">
<metadata>
Created by FontForge 20170731 at Thu Jul 22 19:47:27 2021
 By Aleksey,,,
Copyright 2019 The Manrope Project Authors (https://github.com/sharanda/manrope)
</metadata>
<defs>
<font id="Manrope-Regular" horiz-adv-x="467" >
  <font-face 
    font-family="Manrope"
    font-weight="400"
    font-stretch="normal"
    units-per-em="2000"
    panose-1="0 0 0 0 0 0 0 0 0 0"
    ascent="1600"
    descent="-400"
    x-height="1080"
    cap-height="1440"
    bbox="-362 -550 2516 1995"
    underline-thickness="50"
    underline-position="-175"
    unicode-range="U+000D-2215"
  />
<missing-glyph horiz-adv-x="1480" 
d="M200 0v114h1080v-114h-1080zM200 144v80h1080v-80h-1080zM200 260v74h1080v-74h-1080zM200 374v70h1080v-70h-1080zM200 490v66h1080v-66h-1080zM200 606v60h1080v-60h-1080zM200 720v56h1080v-56h-1080zM200 838v48h1080v-48h-1080zM200 952v44h1080v-44h-1080z
M200 1066v42h1080v-42h-1080zM200 1184v36h1080v-36h-1080zM200 1298v32h1080v-32h-1080zM200 1414v26h1080v-26h-1080z" />
    <glyph glyph-name="parenleft_c_parenright.liga" unicode="&#x28;c&#x29;" horiz-adv-x="1807" 
d="M903 -53q-153 0 -288 57.5t-237 159.5t-160 237t-58 289t58 289t160 237t237 159.5t288 57.5q155 0 289.5 -57.5t236.5 -159.5t160 -237t58 -289t-58 -289t-160 -237t-236.5 -159.5t-289.5 -57.5zM912 269q-91 0 -163 31t-126 99q-52 66 -71.5 142t-19.5 152
q1 78 21.5 153t69.5 137q54 67 127 99t168 32q54 0 102 -11.5t95 -39.5q48 -30 85 -75t53 -104l-123 -37q-12 31 -34 60t-51 50q-28 20 -62.5 29.5t-69.5 9.5q-58 0 -106 -23.5t-82 -65.5q-34 -44 -47 -100.5t-13 -112.5q0 -61 14.5 -118t45.5 -99q32 -44 80.5 -67
t107.5 -23q78 0 134 38q29 21 48 47t32 58l126 -34q-22 -57 -56 -99t-71 -68q-45 -30 -96.5 -45t-117.5 -15zM903 90q125 0 233 46.5t190.5 129t129 192t46.5 233.5q0 125 -46.5 233t-129 190.5t-190.5 129t-233 46.5q-124 0 -233.5 -46.5t-192 -129t-129 -190.5t-46.5 -233
q0 -124 46.5 -233.5t129 -192t192 -129t233.5 -46.5z" />
    <glyph glyph-name="space_less_three_space.liga" unicode="&#x20;&#x3c;&#x33;&#x20;" horiz-adv-x="2334" 
d="M1167 -30q-56 0 -92 39l-408 430q-70 75 -93.5 165t-8 179t64 163t124.5 119t172 45q122 0 241 -90q60 47 121.5 68.5t118.5 21.5q97 0 173 -45.5t125 -120t63.5 -163.5t-9.5 -178.5t-93 -163.5l-407 -430q-37 -39 -92 -39zM1167 97l408 429q59 62 70 140.5t-16.5 151
t-85.5 119.5t-136 47q-58 0 -119 -32t-121 -98q-127 130 -241 130q-80 0 -137 -47.5t-83.5 -120.5t-15 -151t68.5 -139z" />
    <glyph glyph-name="prnleft_grtr_prnright.liga" unicode="&#x28;&#x3e;&#x29;" horiz-adv-x="2300" 
d="M1021 1040l384 -320l-384 -320v640zM1153 -127q-177 0 -331.5 66t-270.5 182t-182 270.5t-66 331.5q0 175 66 328t182 268.5t270.5 181.5t331.5 66q175 0 328 -66t268.5 -181.5t181.5 -268.5t66 -328q0 -177 -66 -331.5t-181.5 -270.5t-268.5 -182t-328 -66zM1150 -270
q205 0 384.5 77t315.5 213t213 315.5t77 384.5t-77 384.5t-213 315.5t-315.5 213t-384.5 77t-384.5 -77t-315.5 -213t-213 -315.5t-77 -384.5t77 -384.5t213 -315.5t315.5 -213t384.5 -77z" />
    <glyph glyph-name="f_f" unicode="ff" horiz-adv-x="1325" 
d="M247 0v1160q0 42 4.5 83t18.5 78.5t44 69.5q33 36 72 52.5t81.5 21.5t83.5 5h138v-124h-128q-84 0 -125.5 -41t-41.5 -129v-1176h-147zM60 954v126h629v-126h-629zM863 0v1160q0 42 4.5 83t18.5 78.5t44 69.5q33 36 72 52.5t81.5 21.5t83.5 5h138v-124h-128
q-84 0 -125.5 -41t-41.5 -129v-1176h-147zM676 954v126h629v-126h-629z" />
    <glyph glyph-name="f_f_l" unicode="ffl" horiz-adv-x="1865" 
d="M1275 954v126h300v-126h-300zM863 0v1160q0 42 4.5 83t18.5 78.5t44 69.5q33 36 72 52.5t81.5 21.5t83.5 5h138v-124h-128q-84 0 -125.5 -41t-41.5 -129v-1176h-147zM676 954v126h629v-126h-629zM1558 0v1470h147v-1470h-147zM247 0v1160q0 42 4.5 83t18.5 78.5t44 69.5
q33 36 72 52.5t81.5 21.5t83.5 5h138v-124h-128q-84 0 -125.5 -41t-41.5 -129v-1176h-147zM60 954v126h629v-126h-629z" />
    <glyph glyph-name="t_t.liga" unicode="tt" horiz-adv-x="1483" 
d="M728 0q-91 -19 -179.5 -15t-158 38t-105.5 106q-29 60 -31.5 121.5t-2.5 140.5v989h146v-983q0 -68 1.5 -113.5t20.5 -80.5q36 -67 114.5 -80t194.5 6v-129zM20 954v126h708v-126h-708zM1409 0q-91 -19 -179.5 -15t-158 38t-105.5 106q-29 60 -31.5 121.5t-2.5 140.5v989
h146v-983q0 -68 1.5 -113.5t20.5 -80.5q36 -67 114.5 -80t194.5 6v-129zM701 954v126h708v-126h-708z" />
    <glyph glyph-name="fi" unicode="fi" horiz-adv-x="1206" 
d="M247 0v1160q0 42 4.5 83t18.5 78.5t44 69.5q33 36 72 52.5t81.5 21.5t83.5 5h138v-124h-128q-84 0 -125.5 -41t-41.5 -129v-1176h-147zM60 954v126h629v-126h-629zM899 1285v165h147v-165h-147zM899 0v1080h147v-1080h-147z" />
    <glyph glyph-name="fl" unicode="fl" horiz-adv-x="1249" 
d="M659 954v126h300v-126h-300zM247 0v1160q0 42 4.5 83t18.5 78.5t44 69.5q33 36 72 52.5t81.5 21.5t83.5 5h138v-124h-128q-84 0 -125.5 -41t-41.5 -129v-1176h-147zM60 954v126h629v-126h-629zM942 0v1470h147v-1470h-147z" />
    <glyph glyph-name="hyphen_hyphen.liga" unicode="&#x2d;&#x2d;" horiz-adv-x="1080" 
d="M120 567v126h840v-126h-840z" />
    <glyph glyph-name="hyphen_greater.liga" unicode="&#x2d;&#x3e;" horiz-adv-x="2002" 
d="M280 567v126h1221l-328 328l80 78l469 -469l-469 -469l-80 78l328 328h-1221z" />
    <glyph glyph-name="less_hyphen.liga" unicode="&#x3c;&#x2d;" horiz-adv-x="2002" 
d="M1722 567h-1221l328 -328l-80 -78l-469 469l469 469l80 -78l-328 -328h1221v-126z" />
    <glyph glyph-name=".notdef" horiz-adv-x="1480" 
d="M200 0v114h1080v-114h-1080zM200 144v80h1080v-80h-1080zM200 260v74h1080v-74h-1080zM200 374v70h1080v-70h-1080zM200 490v66h1080v-66h-1080zM200 606v60h1080v-60h-1080zM200 720v56h1080v-56h-1080zM200 838v48h1080v-48h-1080zM200 952v44h1080v-44h-1080z
M200 1066v42h1080v-42h-1080zM200 1184v36h1080v-36h-1080zM200 1298v32h1080v-32h-1080zM200 1414v26h1080v-26h-1080z" />
    <glyph glyph-name=".null" horiz-adv-x="0" 
 />
    <glyph glyph-name="nonmarkingreturn" horiz-adv-x="666" 
 />
    <glyph glyph-name="CR" unicode="&#xd;" horiz-adv-x="1200" 
 />
    <glyph glyph-name="space" unicode=" " horiz-adv-x="400" 
 />
    <glyph glyph-name="exclam" unicode="!" horiz-adv-x="627" 
d="M240 0v165h147v-165h-147zM240 360v1080h147v-1080h-147z" />
    <glyph glyph-name="quotedbl" unicode="&#x22;" horiz-adv-x="784" 
d="M120 1080v360h147v-360h-147zM437 1080v360h147v-360h-147z" />
    <glyph glyph-name="numbersign" unicode="#" horiz-adv-x="1841" 
d="M411 1l116 433h-407l37 141h408l85 321h-407l38 141h408l107 403h147l-109 -403h335l107 403h147l-109 -403h407l-38 -141h-406l-87 -321h407l-38 -141h-406l-116 -433h-146l115 433h-333l-116 -433h-146zM711 575h334l85 321h-333z" />
    <glyph glyph-name="dollar" unicode="$" horiz-adv-x="1178" 
d="M520 -197v228h147v-228h-147zM520 1410v229h147v-229h-147zM611 -30q-143 0 -257.5 51t-189 144t-97.5 220l143 25q33 -138 142.5 -218.5t264.5 -80.5q157 0 254 76.5t97 200.5q0 92 -54 147t-183 94l-320 100q-290 91 -290 344q0 118 58.5 207.5t163 139.5t244.5 49
q137 0 245.5 -51.5t178.5 -145.5t93 -223l-147 -28q-14 92 -64.5 161t-129.5 107.5t-176 39.5q-92 0 -164 -32t-113.5 -88.5t-41.5 -129.5q0 -80 57.5 -135.5t182.5 -93.5l275 -83q174 -52 251 -140t77 -235q0 -127 -62 -222t-174.5 -147.5t-263.5 -52.5z" />
    <glyph glyph-name="percent" unicode="%" horiz-adv-x="1803" 
d="M280 0l-100 100l1343 1340l100 -99zM1323 -30q-99 0 -180.5 48.5t-130.5 130t-49 181.5q0 98 50 180t132 131t178 49q99 0 181 -48.5t130.5 -130t48.5 -181.5t-48.5 -181.5t-130.5 -130t-181 -48.5zM1323 103q61 0 113 31t83 82.5t31 113.5t-31 113.5t-83 82.5t-113 31
q-62 0 -113.5 -31t-83 -82.5t-31.5 -113.5t31.5 -113.5t83 -82.5t113.5 -31zM480 750q-99 0 -181 48.5t-130.5 130t-48.5 181.5q0 98 50 180t132 131t178 49q99 0 180.5 -48.5t130.5 -130t49 -181.5t-49 -181.5t-130.5 -130t-180.5 -48.5zM480 883q62 0 113.5 31t82.5 82.5
t31 113.5t-31 113.5t-82.5 82.5t-113.5 31t-113.5 -31t-82.5 -82.5t-31 -113.5t31 -113.5t82.5 -82.5t113.5 -31z" />
    <glyph glyph-name="ampersand" unicode="&#x26;" horiz-adv-x="1303" 
d="M603 -30q-120 0 -222.5 34.5t-171.5 108.5q-54 58 -80 129.5t-29 151.5q-1 76 22 151t72 133q29 36 65.5 60t75.5 41q-75 78 -114.5 144.5t-39.5 163.5q0 111 56.5 203t156.5 137q51 23 104.5 32.5t106.5 9.5q81 0 159 -22.5t133 -70.5q37 -29 65 -68.5t44 -82.5
l-142 -42q-21 54 -70 91q-38 30 -87.5 42t-99.5 12q-85 0 -154 -33q-60 -30 -90 -83t-30 -124q0 -61 20 -100.5t58 -85.5q22 -24 49 -48.5t55 -50.5l456 -423q4 28 5 54.5t1 52.5l-1 211h139v-221q0 -79 -6 -129t-16 -83l186 -171l-97 -103l-159 150q-33 -43 -83.5 -77
t-100.5 -53q-54 -24 -114 -32.5t-122 -8.5zM605 112q57 0 103 7t88 29q53 28 79 52.5t42 43.5l-468 428q-42 -13 -78.5 -35.5t-62.5 -53.5q-29 -36 -43 -83t-14 -99q2 -55 18.5 -101.5t49.5 -82.5q47 -55 126 -80t160 -25z" />
    <glyph glyph-name="quotesingle" unicode="'" horiz-adv-x="427" 
d="M120 1080v360h147v-360h-147z" />
    <glyph glyph-name="parenleft" unicode="(" horiz-adv-x="852" 
d="M657 -359q-118 135 -202.5 301.5t-130 349.5t-44.5 368q-1 185 44.5 368.5t130 349.5t202.5 301l108 -84q-116 -139 -194 -291.5t-116.5 -314.5t-39.5 -329q1 -165 40.5 -328.5t117 -317t192.5 -287.5z" />
    <glyph glyph-name="parenright" unicode=")" horiz-adv-x="852" 
d="M195 -359l-108 86q115 134 192.5 287.5t117 317t40.5 328.5q-1 167 -39.5 329t-116.5 314.5t-194 291.5l108 84q118 -135 202.5 -301t130 -349.5t44.5 -368.5q1 -185 -44.5 -368t-130 -349.5t-202.5 -301.5z" />
    <glyph glyph-name="asterisk" unicode="*" horiz-adv-x="873" 
d="M259 779l-110 80l158 204l-247 75l42 129l243 -86l-6 259h136l-6 -259l242 86l42 -129l-246 -75l156 -204l-110 -80l-146 212z" />
    <glyph glyph-name="plus" unicode="+" horiz-adv-x="1153" 
d="M514 263v394h-394v126h394v394h126v-394h393v-126h-393v-394h-126z" />
    <glyph glyph-name="comma" unicode="," horiz-adv-x="531" 
d="M120 -209l9 73q40 -3 58 16t22 51t2 69h-91v211h171v-251q0 -92 -46.5 -138t-124.5 -31z" />
    <glyph glyph-name="hyphen" unicode="-" horiz-adv-x="840" 
d="M120 567v126h600v-126h-600z" />
    <glyph glyph-name="period" unicode="." horiz-adv-x="507" 
d="M168 0v171h171v-171h-171z" />
    <glyph glyph-name="slash" unicode="/" horiz-adv-x="775" 
d="M504 1440h151l-384 -1440h-151z" />
    <glyph glyph-name="zero" unicode="0" horiz-adv-x="1220" 
d="M610 -30q-133 0 -239.5 62t-168.5 168.5t-62 239.5v560q0 133 62 239.5t168.5 168.5t239.5 62t239.5 -62t168.5 -168.5t62 -239.5v-560q0 -133 -62 -239.5t-168.5 -168.5t-239.5 -62zM610 112q89 0 162 43.5t116 116.5t43 161v574q0 89 -43 162t-116 116.5t-162 43.5
t-162 -43.5t-116 -116.5t-43 -162v-574q0 -88 43 -161t116 -116.5t162 -43.5z" />
    <glyph glyph-name="one" unicode="1" horiz-adv-x="780" 
d="M391 0v1276l-271 -163v165l271 162h149v-1440h-149z" />
    <glyph glyph-name="two" unicode="2" horiz-adv-x="1140" 
d="M100 1l1 134l651 588q84 76 111.5 144.5t27.5 143.5q0 89 -42 161t-113 114.5t-159 42.5q-92 0 -164 -44t-113.5 -116t-40.5 -157h-150q0 131 62 235t168 163.5t240 59.5q131 0 235.5 -61.5t165 -166t60.5 -232.5q0 -90 -21.5 -158.5t-67 -127t-115.5 -120.5l-578 -522
l-23 60h805v-141h-940z" />
    <glyph glyph-name="three" unicode="3" horiz-adv-x="1106" 
d="M527 -29q-107 0 -197 38t-155 108.5t-95 168.5l140 42q36 -107 118.5 -162t186.5 -53q96 2 165.5 43t106.5 114t37 169q0 147 -85.5 236.5t-225.5 89.5q-39 0 -82 -10.5t-80 -29.5l-74 117l560 517l24 -60h-734v141h832v-143l-488 -466l-2 58q150 19 264 -34
t178.5 -161.5t64.5 -254.5q0 -138 -59.5 -243.5t-163.5 -165t-236 -59.5z" />
    <glyph glyph-name="four" unicode="4" horiz-adv-x="1179" 
d="M774 0v279h-674v140l482 1021h165l-482 -1021h509v420h148v-420h157v-140h-157v-279h-148z" />
    <glyph glyph-name="five" unicode="5" horiz-adv-x="1155" 
d="M565 -30q-112 0 -207 46t-162 127t-96 186l141 38q19 -78 69 -134.5t117.5 -87.5t141.5 -31q96 0 172.5 46.5t121.5 123.5t45 169q0 95 -47 171.5t-124 121.5t-168 45q-102 0 -176 -44.5t-118 -111.5l-134 56l44 749h769v-141h-704l73 69l-39 -639l-37 49q62 71 150 111
t185 40q133 0 240 -63.5t170 -171.5t63 -241q0 -132 -67 -241.5t-178 -175.5t-245 -66z" />
    <glyph glyph-name="six" unicode="6" horiz-adv-x="1241" 
d="M627 -30q-135 0 -245.5 65.5t-176 178t-65.5 253.5v499q0 145 65 258.5t177.5 179t255.5 65.5q123 0 228.5 -54t172.5 -151l-113 -93q-46 72 -122 115t-166 43q-101 0 -180 -49t-124 -128.5t-45 -172.5v-314l-37 42q63 99 165.5 160t223.5 61q134 0 241 -63.5t170 -171.5
t63 -242q0 -133 -66.5 -242t-177 -174t-244.5 -65zM627 113q94 0 171.5 45t123 122t45.5 171t-45.5 171.5t-122.5 123t-171 45.5t-171 -45.5t-122.5 -123t-45.5 -171.5q0 -93 45 -170t122 -122.5t171 -45.5z" />
    <glyph glyph-name="seven" unicode="7" horiz-adv-x="1004" 
d="M217 0l530 1297h-667v143h824v-143l-529 -1297h-158z" />
    <glyph glyph-name="eight" unicode="8" horiz-adv-x="1161" 
d="M579 -30q-135 0 -238.5 54t-162 151.5t-58.5 228.5q0 134 65 238.5t198 158.5l-2 -58q-111 41 -169 134t-58 206q0 120 55 206.5t150.5 133.5t219.5 47t220 -47t151 -133.5t55 -206.5q0 -113 -55.5 -205t-169.5 -135l-5 58q133 -53 199.5 -158t66.5 -239
q0 -131 -59 -228.5t-163 -151.5t-240 -54zM579 111q136 0 221 75.5t85 217.5q0 144 -84 218.5t-222 74.5t-221 -74.5t-83 -218.5q0 -142 84 -217.5t220 -75.5zM579 839q120 0 195 61.5t75 182.5t-75 181.5t-195 60.5t-194.5 -60.5t-74.5 -181.5t74.5 -182.5t194.5 -61.5z
" />
    <glyph glyph-name="nine" unicode="9" horiz-adv-x="1241" 
d="M614 1469q136 0 246.5 -65.5t175.5 -178t65 -252.5v-500q0 -144 -65 -258t-177.5 -179.5t-255.5 -65.5q-123 0 -227.5 54.5t-172.5 150.5l112 93q46 -71 122.5 -114t165.5 -43q102 0 180.5 48.5t124 128t45.5 172.5v314l36 -42q-62 -99 -164.5 -160t-224.5 -61
q-133 0 -240.5 64t-170 172t-62.5 241t66 242.5t177 174t244 64.5zM614 1327q-94 0 -171 -45.5t-122.5 -122.5t-45.5 -171t45 -171t122 -122.5t171 -45.5t171.5 45.5t123 122.5t45.5 171q0 93 -45.5 170t-122.5 123t-171 46z" />
    <glyph glyph-name="colon" unicode=":" horiz-adv-x="598" 
d="M220 160v171h171v-171h-171zM221 749v171h171v-171h-171z" />
    <glyph glyph-name="semicolon" unicode=";" horiz-adv-x="611" 
d="M220 -209l9 73q40 -3 58 16t22 51t2 69h-91v211h171v-251q0 -92 -46.5 -138t-124.5 -31zM220 909v171h171v-171h-171z" />
    <glyph glyph-name="less" unicode="&#x3c;" horiz-adv-x="1229" 
d="M749 161l-469 469l469 469l94 -92l-382 -377l382 -377z" />
    <glyph glyph-name="equal" unicode="=" horiz-adv-x="1500" 
d="M240 827v126h1020v-126h-1020zM240 487v126h1020v-126h-1020z" />
    <glyph glyph-name="greater" unicode="&#x3e;" horiz-adv-x="1229" 
d="M479 161l-93 92l381 377l-381 377l93 92l470 -469z" />
    <glyph glyph-name="question" unicode="?" horiz-adv-x="1047" 
d="M422 393q0 78 7.5 137.5t39.5 119.5q30 57 74 94.5t92 71t91 79.5q39 45 52 91t13 97t-12.5 91t-38.5 69q-40 49 -98 67t-121 18q-62 0 -115.5 -17.5t-88.5 -53.5q-34 -32 -49.5 -77t-15.5 -95h-152q4 79 34.5 154.5t89.5 126.5q59 54 137.5 78.5t158.5 24.5
q98 0 186 -29.5t148 -98.5q48 -51 70.5 -116.5t22.5 -139.5q0 -83 -31 -156t-87 -130q-34 -37 -77 -68.5t-82.5 -65t-60.5 -72.5q-26 -48 -28.5 -91t-2.5 -109h-156zM423 0v196h155v-196h-155z" />
    <glyph glyph-name="at" unicode="@" horiz-adv-x="1807" 
d="M907 -210q-160 0 -296 55.5t-237 155t-157.5 234.5t-56.5 294q0 169 55 308.5t155.5 241t238.5 156.5t303 55q189 0 330.5 -60.5t233.5 -164t134.5 -232.5t35.5 -267q-10 -189 -89.5 -285t-221.5 -96q-92 0 -160 43t-91 121l48 -5q-35 -71 -104.5 -103t-144.5 -32
q-91 0 -159.5 39.5t-107 109.5t-38.5 162q0 96 40 166t110 108t158 38q65 0 134.5 -27t106.5 -88l-39 -44v131h106l-1 -325q0 -74 34.5 -120.5t114.5 -46.5q54 0 90.5 30t56.5 84.5t23 128.5q6 152 -39 266t-128 190.5t-192.5 114.5t-233.5 38q-150 0 -266.5 -50t-197 -138
t-121.5 -202.5t-39 -243.5q1 -133 48.5 -245.5t131.5 -195t196 -128t243 -45.5q85 0 170.5 22t152.5 61l47 -112q-87 -49 -183 -73t-194 -24zM891 337q78 0 127.5 45t49.5 139q0 92 -47.5 139t-126.5 47q-90 0 -137.5 -49t-47.5 -137q0 -89 49 -136.5t133 -47.5z" />
    <glyph glyph-name="A" unicode="A" horiz-adv-x="1267" 
d="M40 0l496 1440h195l496 -1440h-153l-471 1358h58l-468 -1358h-153zM261 349v138h744v-138h-744z" />
    <glyph glyph-name="B" unicode="B" horiz-adv-x="1226" 
d="M140 0v1440h556q121 0 211 -50t140 -134.5t50 -186.5q0 -116 -62 -206.5t-166 -125.5l-2 49q140 -40 220 -140t80 -242q0 -125 -53 -215.5t-149 -139.5t-223 -49h-602zM288 141h418q88 0 158 31.5t110.5 89.5t40.5 140q0 80 -37 144t-100.5 102.5t-144.5 38.5h-445v-546z
M288 826h407q69 0 126 31.5t90.5 86.5t33.5 127q0 102 -70.5 166t-179.5 64h-407v-475z" />
    <glyph glyph-name="C" unicode="C" horiz-adv-x="1431" 
d="M723 -30q-215 0 -363 95.5t-224 264.5t-76 390t76 390t224 264.5t363 95.5q251 0 410 -128.5t218 -344.5l-150 -39q-46 171 -165 271t-313 100q-169 0 -281 -77t-168.5 -214.5t-58.5 -317.5q-1 -180 55.5 -317t170 -214.5t282.5 -77.5q194 0 313 100.5t165 270.5l150 -39
q-59 -216 -218 -344.5t-410 -128.5z" />
    <glyph glyph-name="D" unicode="D" horiz-adv-x="1343" 
d="M140 0v1440h437q23 0 78.5 -1t106.5 -8q164 -23 274 -122t165 -252t55 -337t-55 -337t-165 -252t-274 -122q-50 -6 -107 -7.5t-78 -1.5h-437zM292 141h285q41 0 88.5 2.5t81.5 9.5q126 22 203.5 102t113.5 200.5t36 264.5q0 145 -36 266t-114 200t-203 101
q-34 7 -82.5 9.5t-87.5 2.5h-285v-1158z" />
    <glyph glyph-name="E" unicode="E" horiz-adv-x="1140" 
d="M140 0v1440h900v-141h-753v-498h633v-141h-633v-519h753v-141h-900z" />
    <glyph glyph-name="F" unicode="F" horiz-adv-x="1007" 
d="M140 0v1440h827v-147h-680v-500h560v-146h-560v-647h-147z" />
    <glyph glyph-name="G" unicode="G" horiz-adv-x="1410" 
d="M717 -30q-152 0 -274 53t-207.5 151t-130.5 236.5t-45 309.5q0 226 78.5 394.5t225.5 261.5t353 93q230 0 374.5 -107.5t201.5 -288.5l-148 -36q-47 132 -154.5 211t-267.5 79q-169 1 -281 -75.5t-168.5 -214t-57.5 -317.5t55.5 -316.5t169.5 -214t282 -78.5
q155 0 256 60t153.5 172t59.5 265h-332v126h486q3 -23 3.5 -48.5t0.5 -36.5q0 -195 -70 -348.5t-210.5 -242t-352.5 -88.5z" />
    <glyph glyph-name="H" unicode="H" horiz-adv-x="1369" 
d="M140 0v1440h147v-649h796v649h146v-1440h-146v650h-796v-650h-147z" />
    <glyph glyph-name="I" unicode="I" 
d="M160 0v1440h147v-1440h-147z" />
    <glyph glyph-name="J" unicode="J" horiz-adv-x="927" 
d="M386 -29q-144 0 -247 80t-139 214l147 35q18 -79 83.5 -133.5t154.5 -54.5q56 0 113.5 27t90.5 89q22 43 25.5 93.5t3.5 121.5v997h148v-997q0 -60 -1 -108.5t-10.5 -93t-35.5 -89.5q-52 -91 -139.5 -136t-193.5 -45z" />
    <glyph glyph-name="K" unicode="K" horiz-adv-x="1187" 
d="M140 0v1440h147v-680l657 680h188l-671 -695l726 -745h-192l-708 720v-720h-147z" />
    <glyph glyph-name="L" unicode="L" horiz-adv-x="1021" 
d="M160 0v1440h147v-1299h684v-141h-831z" />
    <glyph glyph-name="M" unicode="M" horiz-adv-x="1681" 
d="M140 0v1440h135l566 -1211l563 1211h137v-1439h-140v1111l-513 -1112h-95l-512 1112v-1112h-141z" />
    <glyph glyph-name="N" unicode="N" horiz-adv-x="1369" 
d="M140 0v1440h148l793 -1180v1180h148v-1440h-148l-793 1181v-1181h-148z" />
    <glyph glyph-name="O" unicode="O" horiz-adv-x="1447" 
d="M723 -30q-215 0 -363 95.5t-224 264.5t-76 390t76 390t224 264.5t363 95.5q216 0 363.5 -95.5t224 -264.5t76.5 -390t-76.5 -390t-224 -264.5t-363.5 -95.5zM723 111q169 0 282 77t169.5 214.5t56.5 317.5t-56.5 317t-169.5 214t-282 78q-169 0 -281 -77t-168.5 -214.5
t-57.5 -317.5t55.5 -316.5t169.5 -214t282 -78.5z" />
    <glyph glyph-name="P" unicode="P" horiz-adv-x="1208" 
d="M140 0v1440h556q21 0 47.5 -1.5t53.5 -6.5q113 -17 191.5 -78.5t119 -154.5t40.5 -206q0 -112 -41 -205t-119.5 -154.5t-190.5 -78.5q-27 -4 -53.5 -6t-47.5 -2h-409v-547h-147zM287 687h405q18 0 42 2t47 7q74 16 121.5 61t71 107t23.5 129t-23.5 129.5t-71 107.5
t-121.5 61q-23 5 -47 6.5t-42 1.5h-405v-612z" />
    <glyph glyph-name="Q" unicode="Q" horiz-adv-x="1447" 
d="M1271 -29l-384 382l100 100l382 -382zM723 -30q-215 0 -363 95.5t-224 264.5t-76 390t76 390t224 264.5t363 95.5q216 0 363.5 -95.5t224 -264.5t76.5 -390t-76.5 -390t-224 -264.5t-363.5 -95.5zM723 111q169 0 282 77t169.5 214.5t56.5 317.5t-56.5 317t-169.5 214
t-282 78q-169 0 -281 -77t-168.5 -214.5t-57.5 -317.5t55.5 -316.5t169.5 -214t282 -78.5z" />
    <glyph glyph-name="R" unicode="R" horiz-adv-x="1261" 
d="M140 0v1440h556q21 0 47.5 -1.5t53.5 -6.5q113 -17 191.5 -78.5t119 -154.5t40.5 -206q0 -163 -86 -283t-246 -151l-51 -12h-478v-547h-147zM1012 0l-284 586l141 54l312 -640h-169zM287 687h405q18 0 42 2t47 7q74 16 121.5 61t71 107t23.5 129t-23.5 129.5t-71 107.5
t-121.5 61q-23 5 -47 6.5t-42 1.5h-405v-612z" />
    <glyph glyph-name="S" unicode="S" horiz-adv-x="1233" 
d="M640 -30q-151 0 -271.5 50.5t-199 143.5t-102.5 221l150 25q36 -140 152 -219.5t277 -79.5q106 0 190 33.5t132 95.5t48 147q0 56 -20 95.5t-53 65.5t-72 43.5t-76 28.5l-365 109q-66 19 -122 48.5t-97.5 71t-64.5 97.5t-23 128q0 122 64 211t175 137t253 47
q144 0 257.5 -51t187.5 -145.5t98 -223.5l-154 -28q-15 94 -69 163t-137.5 106.5t-183.5 38.5q-97 0 -172.5 -32.5t-119.5 -88.5t-44 -128q0 -73 40.5 -117t100 -69t115.5 -41l282 -83q44 -12 103.5 -34.5t116 -64t93.5 -108.5t37 -170q0 -100 -39.5 -179t-111 -133
t-167 -82.5t-208.5 -28.5z" />
    <glyph glyph-name="T" unicode="T" horiz-adv-x="1193" 
d="M523 0v1299h-503v141h1153v-141h-503v-1299h-147z" />
    <glyph glyph-name="U" unicode="U" horiz-adv-x="1404" 
d="M702 -30q-165 0 -291.5 68t-198.5 192t-72 290v919l148 1v-901q0 -112 38 -193.5t99.5 -134t134.5 -77.5t142 -25q70 0 143 25t134 77.5t99 134t38 193.5v901h148v-920q0 -166 -72 -289.5t-198.5 -192t-291.5 -68.5z" />
    <glyph glyph-name="V" unicode="V" horiz-adv-x="1207" 
d="M506 0l-496 1440h153l439 -1273l442 1273h153l-496 -1440h-195z" />
    <glyph glyph-name="W" unicode="W" horiz-adv-x="1871" 
d="M449 0l-416 1440h153l337 -1189l335 1188l154 1l337 -1189l335 1189h154l-415 -1440h-148l-340 1181l-338 -1181h-148z" />
    <glyph glyph-name="X" unicode="X" horiz-adv-x="1212" 
d="M20 0l499 729l-486 711h178l395 -588l395 588h179l-486 -711l498 -729h-178l-408 605l-407 -605h-179z" />
    <glyph glyph-name="Y" unicode="Y" horiz-adv-x="1112" 
d="M483 0v603l-483 837h170l387 -669l385 669h170l-481 -837v-603h-148z" />
    <glyph glyph-name="Z" unicode="Z" horiz-adv-x="1228" 
d="M100 0v31l787 1268h-767v141h1008v-34l-783 -1266h776v-140h-1021z" />
    <glyph glyph-name="bracketleft" unicode="[" horiz-adv-x="814" 
d="M280 -436v2212h374v-136h-238v-1940h238v-136h-374z" />
    <glyph glyph-name="backslash" unicode="\" horiz-adv-x="775" 
d="M271 1440l384 -1440h-151l-384 1440h151z" />
    <glyph glyph-name="bracketright" unicode="]" horiz-adv-x="814" 
d="M534 -436h-374v136h238v1940h-238v136h374v-2212z" />
    <glyph glyph-name="asciicircum" unicode="^" horiz-adv-x="1339" 
d="M211 1002l468 470l471 -469l-92 -93l-379 381l-376 -382z" />
    <glyph glyph-name="underscore" unicode="_" horiz-adv-x="1320" 
d="M0 -213v126h1320v-126h-1320z" />
    <glyph glyph-name="grave" unicode="`" horiz-adv-x="979" 
d="M463 1610l-120 310h126l120 -310h-126z" />
    <glyph glyph-name="a" unicode="a" horiz-adv-x="1111" 
d="M449 -30q-122 0 -204.5 44t-123.5 117t-41 159q0 88 35.5 150.5t97 102.5t142.5 61q82 20 181.5 35.5t195 27t167.5 22.5l-52 -32q3 160 -62 237t-226 77q-111 0 -187.5 -50t-107.5 -158l-143 42q37 145 149 225t291 80q148 0 251.5 -55.5t146.5 -160.5q20 -47 26 -105
t6 -118v-671h-131v271l38 -16q-55 -139 -171 -212t-278 -73zM466 97q103 0 180 37t124 101.5t61 145.5q12 52 13 114.5t1 93.5l56 -29q-75 -10 -162.5 -20t-172 -23t-152.5 -31q-46 -13 -89 -36.5t-70.5 -62.5t-27.5 -97q0 -47 23.5 -91t76 -73t139.5 -29z" />
    <glyph glyph-name="b" unicode="b" horiz-adv-x="1184" 
d="M625 -30q-149 0 -252 75.5t-156 205t-53 290.5q0 164 53.5 292.5t157.5 202.5t256 74q148 0 254 -75t162.5 -204t56.5 -290q0 -162 -57 -291t-164 -204.5t-258 -75.5zM139 0v1440h148v-627h-16v-813h-132zM610 107q113 0 188 57t112.5 155.5t37.5 221.5q0 122 -37 220
t-112.5 155t-191.5 57q-113 0 -187.5 -55t-111.5 -152.5t-37 -224.5q0 -125 37 -223.5t112 -154.5t190 -56z" />
    <glyph glyph-name="c" unicode="c" horiz-adv-x="1107" 
d="M588 -30q-163 0 -276 73t-171.5 201.5t-60.5 295.5q2 170 62 298.5t173 200t274 71.5q164 0 285.5 -80t166.5 -219l-144 -46q-38 97 -120.5 150.5t-188.5 53.5q-119 0 -197 -54.5t-116 -151.5t-39 -223q2 -194 90 -311.5t262 -117.5q110 0 187.5 50.5t117.5 147.5
l148 -44q-60 -144 -176 -219.5t-277 -75.5z" />
    <glyph glyph-name="d" unicode="d" horiz-adv-x="1185" 
d="M559 -30q-151 0 -258 75.5t-164 204.5t-57 291q0 161 56.5 290t162.5 204t254 75q152 0 256 -74t157.5 -202.5t53.5 -292.5q0 -161 -53 -290.5t-156 -205t-252 -75.5zM574 107q115 0 190 56t112 154.5t37 223.5q0 127 -37 224.5t-111.5 152.5t-187.5 55q-116 0 -192 -57
t-112.5 -155t-36.5 -220q0 -123 37.5 -221.5t112.5 -155.5t188 -57zM913 0v813h-16v627h148v-1440h-132z" />
    <glyph glyph-name="e" unicode="e" horiz-adv-x="1169" 
d="M597 -30q-158 0 -273.5 70t-179.5 197t-64 298q0 177 63 306t177.5 199t270.5 70q160 0 273 -73.5t171 -210.5t53 -327h-150v52q-4 210 -90.5 317t-252.5 107q-174 0 -266.5 -113t-92.5 -322q0 -204 92.5 -316.5t262.5 -112.5q116 0 202.5 53.5t136.5 154.5l137 -53
q-64 -141 -188.5 -218.5t-281.5 -77.5zM184 499v123h825v-123h-825z" />
    <glyph glyph-name="f" unicode="f" horiz-adv-x="709" 
d="M247 0v1160q0 42 4.5 83t18.5 78.5t44 69.5q33 36 72 52.5t81.5 21.5t83.5 5h138v-124h-128q-84 0 -125.5 -41t-41.5 -129v-1176h-147zM60 954v126h629v-126h-629z" />
    <glyph glyph-name="g" unicode="g" horiz-adv-x="1184" 
d="M569 -510q-83 0 -163.5 24.5t-148.5 77t-114 136.5l133 74q45 -90 126.5 -129.5t166.5 -39.5q117 0 189.5 43.5t105.5 128.5t32 212v288h17v775h131v-1065q0 -46 -2.5 -88.5t-9.5 -83.5q-19 -121 -78.5 -199t-156 -116t-228.5 -38zM559 -30q-151 0 -258 75.5t-164 204.5
t-57 291q0 161 56.5 290t162.5 204t254 75q152 0 256 -74t157.5 -202.5t53.5 -292.5q0 -161 -53 -290.5t-156 -205t-252 -75.5zM574 107q115 0 190 56t112 154.5t37 223.5q0 127 -37 224.5t-111.5 152.5t-187.5 55q-116 0 -192 -57t-112.5 -155t-36.5 -220
q0 -123 37.5 -221.5t112.5 -155.5t188 -57z" />
    <glyph glyph-name="h" unicode="h" horiz-adv-x="1188" 
d="M920 0v551q0 90 -17 165.5t-54.5 132t-97 87.5t-144.5 31q-78 0 -137.5 -27t-100 -77.5t-61.5 -122.5t-21 -164l-104 23q0 166 58 279t160 171t234 58q97 0 169.5 -30t123 -81t81.5 -116.5t45 -139t14 -146.5v-594h-148zM139 0v1440h133v-813h15v-627h-148z" />
    <glyph glyph-name="i" unicode="i" 
d="M160 1285v165h147v-165h-147zM160 0v1080h147v-1080h-147z" />
    <glyph glyph-name="j" unicode="j" horiz-adv-x="501" 
d="M-20 -480v142h61q73 0 116.5 37.5t43.5 125.5v1255h146v-1292q0 -135 -64.5 -201.5t-197.5 -66.5h-105zM201 1285v165h146v-165h-146z" />
    <glyph glyph-name="k" unicode="k" horiz-adv-x="992" 
d="M139 0l1 1440h148v-880l482 520h196l-506 -540l572 -540h-214l-530 520v-520h-149z" />
    <glyph glyph-name="l" unicode="l" 
d="M160 0v1470h147v-1470h-147z" />
    <glyph glyph-name="m" unicode="m" horiz-adv-x="1696" 
d="M1428 0l1 709q0 125 -69.5 196.5t-176.5 71.5q-61 0 -119 -28t-95.5 -90t-37.5 -162l-87 25q-3 116 45.5 203t134 135.5t193.5 48.5q163 0 261 -100.5t98 -271.5l-1 -737h-147zM139 0v1080h132v-266h16v-814h-148zM785 0l1 699q0 129 -68.5 203.5t-180.5 74.5t-181 -76.5
t-69 -203.5l-88 48q0 104 49 186.5t134 130t193 47.5q103 0 183.5 -44t126.5 -128t46 -204l-1 -733h-145z" />
    <glyph glyph-name="n" unicode="n" horiz-adv-x="1188" 
d="M920 0v551q0 90 -17 165.5t-54.5 132t-97 87.5t-144.5 31q-78 0 -137.5 -27t-100 -77.5t-61.5 -122.5t-21 -164l-104 23q0 166 58 279t160 171t234 58q97 0 169.5 -30t123 -81t81.5 -116.5t45 -139t14 -146.5v-594h-148zM139 0v1080h133v-266h15v-814h-148z" />
    <glyph glyph-name="o" unicode="o" horiz-adv-x="1183" 
d="M591 -30q-161 0 -275 73t-175 202t-61 296q0 170 62 298t176.5 199.5t272.5 71.5q162 0 276.5 -72.5t175 -201t60.5 -295.5q0 -170 -61 -298.5t-176 -200.5t-275 -72zM591 111q180 0 268 119.5t88 310.5q0 196 -88.5 312t-267.5 116q-121 0 -199.5 -54.5t-117 -151
t-38.5 -222.5q0 -195 90 -312.5t265 -117.5z" />
    <glyph glyph-name="p" unicode="p" horiz-adv-x="1184" 
d="M625 -30q-149 0 -252 75.5t-156 205t-53 290.5q0 164 53.5 292.5t157.5 202.5t256 74q148 0 254 -75t162.5 -204t56.5 -290q0 -162 -57 -291t-164 -204.5t-258 -75.5zM139 -480v1560h132v-813h16v-747h-148zM610 107q113 0 188 57t112.5 155.5t37.5 221.5q0 122 -37 220
t-112.5 155t-191.5 57q-113 0 -187.5 -55t-111.5 -152.5t-37 -224.5q0 -125 37 -223.5t112 -154.5t190 -56z" />
    <glyph glyph-name="q" unicode="q" horiz-adv-x="1185" 
d="M559 -30q-151 0 -258 75.5t-164 204.5t-57 291q0 161 56.5 290t162.5 204t254 75q152 0 256 -74t157.5 -202.5t53.5 -292.5q0 -161 -53 -290.5t-156 -205t-252 -75.5zM574 107q115 0 190 56t112 154.5t37 223.5q0 127 -37 224.5t-111.5 152.5t-187.5 55q-116 0 -192 -57
t-112.5 -155t-36.5 -220q0 -123 37.5 -221.5t112.5 -155.5t188 -57zM897 -480v747h16v813h132v-1560h-148z" />
    <glyph glyph-name="r" unicode="r" horiz-adv-x="721" 
d="M140 0v1080h132v-260l-26 34q18 48 47 88.5t63 66.5q42 37 98 56.5t113 23t104 -8.5v-138q-59 15 -129 7t-129 -56q-54 -42 -81 -100.5t-36 -124t-9 -129.5v-539h-147z" />
    <glyph glyph-name="s" unicode="s" horiz-adv-x="1050" 
d="M543 -29q-190 0 -312.5 82t-150.5 228l150 25q24 -92 109.5 -146.5t211.5 -54.5q123 0 194 51.5t71 140.5q0 50 -22.5 81.5t-91.5 58.5t-206 64q-147 40 -230 80t-118 92.5t-35 128.5q0 92 52 161.5t144 108t214 38.5t218.5 -39.5t155.5 -110.5t70 -165l-150 -27
q-15 95 -94.5 150.5t-201.5 57.5q-115 3 -187 -43.5t-72 -123.5q0 -43 26 -73.5t94.5 -57.5t195.5 -59q149 -38 234 -80t121 -99t36 -141q0 -153 -113.5 -240.5t-312.5 -87.5z" />
    <glyph glyph-name="t" unicode="t" horiz-adv-x="801" 
d="M728 0q-91 -19 -179.5 -15t-158 38t-105.5 106q-29 60 -31.5 121.5t-2.5 140.5v989h146v-983q0 -68 1.5 -113.5t20.5 -80.5q36 -67 114.5 -80t194.5 6v-129zM20 954v126h708v-126h-708z" />
    <glyph glyph-name="u" unicode="u" horiz-adv-x="1188" 
d="M553 -27q-97 0 -169.5 30t-123 81t-81.5 116.5t-45 139t-14 146.5v594h148v-551q0 -89 17 -165t54.5 -132.5t97 -87.5t144.5 -31q78 0 137.5 27t100 77.5t61.5 123t21 163.5l104 -23q0 -166 -58 -279t-160 -171t-234 -58zM916 0v266h-15v814h147v-1080h-132z" />
    <glyph glyph-name="v" unicode="v" horiz-adv-x="1016" 
d="M432 0l-392 1080h149l319 -888l317 888h151l-392 -1080h-152z" />
    <glyph glyph-name="w" unicode="w" horiz-adv-x="1535" 
d="M370 0l-330 1081l147 -1l256 -839l257 839h134l257 -839l258 839h146l-330 -1080h-128l-270 860l-269 -860h-128z" />
    <glyph glyph-name="x" unicode="x" horiz-adv-x="1054" 
d="M20 0l422 546l-413 534h176l323 -421l320 421h176l-413 -534l423 -546h-177l-329 433l-331 -433h-177z" />
    <glyph glyph-name="y" unicode="y" horiz-adv-x="1055" 
d="M294 -480l209 567l3 -168l-473 1161h156l388 -971h-64l358 971h150l-580 -1560h-147z" />
    <glyph glyph-name="z" unicode="z" horiz-adv-x="1059" 
d="M40 0v31l697 912h-645v137h887v-34l-696 -909h658v-137h-901z" />
    <glyph glyph-name="braceleft" unicode="{" horiz-adv-x="839" 
d="M633 -436q-104 0 -171 67t-67 170v652q0 31 -18 58l-85 119q-12 18 -12 40t12 40l85 119q18 29 18 58v651q0 104 67 171t171 67h119v-141h-113q-42 0 -72.5 -30t-30.5 -74v-644q0 -77 -45 -140l-55 -77l55 -77q45 -63 45 -140v-646q0 -42 30.5 -72t72.5 -30h113v-141
h-119z" />
    <glyph glyph-name="bar" unicode="|" horiz-adv-x="507" 
d="M180 0v1440h147v-1440h-147z" />
    <glyph glyph-name="braceright" unicode="}" horiz-adv-x="839" 
d="M206 -436h-119v141h112q44 0 74 30t30 72v646q0 77 44 140l56 77l-56 77q-44 63 -44 140v644q0 44 -30 74t-74 30h-112v141h119q104 0 171 -67t67 -171v-651q0 -29 18 -58l85 -119q13 -18 13 -40t-13 -40l-85 -119q-18 -27 -18 -58v-652q0 -103 -67 -170t-171 -67z" />
    <glyph glyph-name="asciitilde" unicode="~" horiz-adv-x="1324" 
d="M873 466q-59 0 -115.5 24t-109 55.5t-100 56t-89.5 24.5q-55 0 -70.5 -43.5t0.5 -93.5h-146q-21 85 -2.5 153.5t72 109t135.5 40.5q61 0 118 -24t109.5 -56t100 -56t89.5 -24q49 0 68 42t2 98h146q21 -83 2.5 -152.5t-72 -111.5t-138.5 -42z" />
    <glyph glyph-name="uni00A0" unicode="&#xa0;" horiz-adv-x="400" 
 />
    <glyph glyph-name="exclamdown" unicode="&#xa1;" horiz-adv-x="627" 
d="M240 1080h147v-165h-147v165zM240 720h147v-1080h-147v1080z" />
    <glyph glyph-name="cent" unicode="&#xa2;" horiz-adv-x="1107" 
d="M531 -59v182q-146 13 -245.5 88.5t-151.5 198.5t-54 280q2 160 54.5 282.5t152.5 196.5t244 87v184h126v-185q138 -15 240.5 -92t143.5 -202l-144 -46q-38 97 -120.5 150.5t-188.5 53.5q-119 0 -197 -54.5t-116 -151.5t-39 -223q2 -194 90 -311.5t262 -117.5
q110 0 187.5 50.5t117.5 147.5l148 -44q-55 -128 -152.5 -201.5t-231.5 -88.5v-184h-126z" />
    <glyph glyph-name="sterling" unicode="&#xa3;" horiz-adv-x="1142" 
d="M67 0v141h102q58 0 100 42t42 100v811q0 110 49.5 195t135 133t193.5 48q94 0 166.5 -41.5t127 -121t92.5 -192.5l-134 -44q-41 129 -101.5 193.5t-152.5 64.5q-103 0 -165.5 -65.5t-62.5 -174.5v-948h563v-141h-955zM67 660v141h756v-141h-756z" />
    <glyph glyph-name="currency" unicode="&#xa4;" horiz-adv-x="1283" 
d="M641 196q-108 0 -203 41t-167 113.5t-113 167.5t-41 204q0 108 41 203t113 167t167 113t203 41q109 0 204 -41t167.5 -113t113.5 -167t41 -203q0 -109 -41 -204t-113.5 -167.5t-167.5 -113.5t-204 -41zM160 140l-100 100l213 213l100 -100zM274 987l-214 214l100 99
l213 -213zM1123 140l-213 213l100 100l213 -213zM641 328q109 0 198.5 54t142.5 143t53 195q0 109 -54.5 198t-144 142t-195.5 53q-108 0 -197 -53t-142 -142t-53 -198q0 -106 53 -195t142 -143t197 -54zM1009 987l-99 100l213 213l100 -99z" />
    <glyph glyph-name="yen" unicode="&#xa5;" horiz-adv-x="1112" 
d="M177 517v126h760v-126h-760zM177 225v126h760v-126h-760zM483 0v603l-483 837h170l387 -669l385 669h170l-481 -837v-603h-148z" />
    <glyph glyph-name="brokenbar" unicode="&#xa6;" horiz-adv-x="507" 
d="M180 701v739h147v-739h-147zM180 -312v739h147v-739h-147z" />
    <glyph glyph-name="section" unicode="&#xa7;" horiz-adv-x="1050" 
d="M548 -309q-99 0 -190.5 32t-157 100.5t-87.5 177.5l150 25q19 -72 66.5 -116t108 -64.5t117.5 -20.5q63 0 118 22t89 64.5t34 105.5q0 61 -35 94.5t-106 57t-179 52.5q-116 31 -202 66.5t-133.5 88.5t-47.5 139q0 98 57.5 161.5t145.5 90.5t181 18l4 -49
q-104 -27 -171.5 -78t-67.5 -127q0 -58 41 -91t112.5 -55t162.5 -46q117 -30 205 -65.5t137 -94t49 -158.5q0 -108 -53.5 -181.5t-144.5 -111t-203 -37.5zM613 246l-2 53q53 3 103 28t82.5 69.5t32.5 107.5q0 60 -34.5 94t-105.5 57.5t-180 52.5q-115 31 -201 66
t-133.5 89.5t-47.5 145.5q0 104 57 172t145.5 102t181.5 34q103 0 192 -39t147 -109.5t70 -166.5l-150 -27q-14 77 -56.5 122.5t-99.5 65.5t-113 20q-61 0 -112.5 -20t-82.5 -57t-31 -88q0 -58 42 -91.5t113.5 -55.5t160.5 -45q117 -31 205 -66t137 -93t49 -157
q0 -102 -49.5 -169t-133 -92.5t-186.5 -2.5z" />
    <glyph glyph-name="dieresis" unicode="&#xa8;" horiz-adv-x="1021" 
d="M621 1651v160h160v-160h-160zM240 1651v160h160v-160h-160z" />
    <glyph glyph-name="copyright" unicode="&#xa9;" horiz-adv-x="1607" 
d="M803 -53q-153 0 -288 57.5t-237 159.5t-160 237t-58 289t58 289t160 237t237 159.5t288 57.5q155 0 289.5 -57.5t236.5 -159.5t160 -237t58 -289t-58 -289t-160 -237t-236.5 -159.5t-289.5 -57.5zM812 269q-91 0 -163 31t-126 99q-52 66 -71.5 142t-19.5 152
q1 78 21.5 153t69.5 137q54 67 127 99t168 32q54 0 102 -11.5t95 -39.5q48 -30 85 -75t53 -104l-123 -37q-12 31 -34 60t-51 50q-28 20 -62.5 29.5t-69.5 9.5q-58 0 -106 -23.5t-82 -65.5q-34 -44 -47 -100.5t-13 -112.5q0 -61 14.5 -118t45.5 -99q32 -44 80.5 -67
t107.5 -23q78 0 134 38q29 21 48 47t32 58l126 -34q-22 -57 -56 -99t-71 -68q-45 -30 -96.5 -45t-117.5 -15zM803 90q125 0 233 46.5t190.5 129t129 192t46.5 233.5q0 125 -46.5 233t-129 190.5t-190.5 129t-233 46.5q-124 0 -233.5 -46.5t-192 -129t-129 -190.5t-46.5 -233
q0 -124 46.5 -233.5t129 -192t192 -129t233.5 -46.5z" />
    <glyph glyph-name="ordfeminine" unicode="&#xaa;" horiz-adv-x="630" 
d="M263 540q-90 0 -136.5 48t-46.5 114q0 61 33 100.5t95 59.5q52 16 126 26.5t148 20.5l-36 -37q4 72 -23 106.5t-98 34.5q-43 0 -78.5 -19.5t-49.5 -64.5l-97 29q20 70 76 111t149 41q73 0 127 -24.5t78 -78.5q13 -26 16.5 -56t3.5 -63v-333h-93v123l16 -20
q-34 -60 -85 -89t-125 -29zM281 626q67 0 105.5 33.5t48.5 72.5q9 25 9.5 57t0.5 47l36 -14q-74 -11 -129 -19t-94 -20q-32 -10 -53 -29t-21 -51t23.5 -54.5t73.5 -22.5z" />
    <glyph glyph-name="guillemotleft" unicode="&#xab;" horiz-adv-x="1071" 
d="M849 106l-346 435l346 434l89 -69l-291 -365l291 -366zM506 106l-346 435l346 434l89 -69l-292 -365l292 -366z" />
    <glyph glyph-name="logicalnot" unicode="&#xac;" horiz-adv-x="1200" 
d="M954 390v247h-834v126h960v-373h-126z" />
    <glyph glyph-name="uni00AD" unicode="&#xad;" horiz-adv-x="840" 
d="M120 567v126h600v-126h-600z" />
    <glyph glyph-name="registered" unicode="&#xae;" horiz-adv-x="1250" 
d="M625 575q-100 0 -188 37.5t-155 104.5t-104.5 155t-37.5 189q0 100 37.5 187.5t104.5 154t155 104.5t188 38q101 0 188.5 -38t154.5 -104.5t104.5 -154t37.5 -187.5q0 -101 -37.5 -189t-104.5 -155t-154.5 -104.5t-188.5 -37.5zM626 689q102 0 186 50.5t134 134.5t50 187
q0 102 -50 186t-134 134t-186 50q-103 0 -187 -50t-134 -134t-50 -186q0 -103 50 -187t134 -134.5t187 -50.5zM462 831v465h203q65 0 109 -43.5t45 -107.5q0 -41 -22 -78.5t-64 -57.5l88 -178h-88l-80 163h-113v-163h-78zM540 1067h125q30 0 52 22.5t22 55.5q0 35 -22.5 56
t-51.5 21h-125v-155z" />
    <glyph glyph-name="macron" unicode="&#xaf;" horiz-adv-x="981" 
d="M240 1680v125h501v-125h-501z" />
    <glyph glyph-name="degree" unicode="&#xb0;" horiz-adv-x="900" 
d="M420 750q-99 0 -181 48.5t-130.5 130t-48.5 181.5q0 98 50 180t132 131t178 49q99 0 180.5 -48.5t130.5 -130t49 -181.5t-49 -181.5t-130.5 -130t-180.5 -48.5zM420 883q62 0 113.5 31t82.5 82.5t31 113.5t-31 113.5t-82.5 82.5t-113.5 31t-113.5 -31t-82.5 -82.5
t-31 -113.5t31 -113.5t82.5 -82.5t113.5 -31z" />
    <glyph glyph-name="plusminus" unicode="&#xb1;" horiz-adv-x="1200" 
d="M537 440v257h-417v126h417v257h126v-257h417v-126h-417v-257h-126zM120 157v126h960v-126h-960z" />
    <glyph glyph-name="uni00B2" unicode="&#xb2;" horiz-adv-x="800" 
d="M100 540l1 100l400 361q50 45 67 85.5t17 81.5q0 79 -51.5 133t-129.5 54q-54 0 -96 -26t-66.5 -68t-22.5 -91h-115q0 85 39 150.5t107 102.5t155 37q84 0 150.5 -38.5t105.5 -105t39 -149.5q0 -59 -15.5 -101.5t-46 -79t-76.5 -77.5l-348 -315l-21 53h507v-107h-600z
" />
    <glyph glyph-name="uni00B3" unicode="&#xb3;" horiz-adv-x="779" 
d="M365 519q-100 0 -178 55t-107 150l107 31q21 -64 69.5 -96.5t108.5 -31.5q83 1 131.5 53.5t48.5 134.5q0 83 -50 135.5t-132 52.5q-23 0 -47 -6t-47 -16l-54 87l352 320l21 -54h-472v106h533v-107l-303 -288l-3 52q95 10 166.5 -24.5t110.5 -102t39 -155.5
q0 -87 -38.5 -153.5t-105 -104.5t-150.5 -38z" />
    <glyph glyph-name="acute" unicode="&#xb4;" horiz-adv-x="979" 
d="M517 1610h-126l119 310h126z" />
    <glyph glyph-name="uni00B5" unicode="&#xb5;" horiz-adv-x="1207" 
d="M139 -480v1560h148v-551q0 -89 17 -165t55 -132.5t97.5 -87.5t144.5 -31q77 0 137 27t100 77.5t61 123t21 163.5v576h147v-1080h-132v153q-59 -90 -153.5 -135t-209.5 -45q-99 0 -175 36t-126 103v-592h-132z" />
    <glyph glyph-name="paragraph" unicode="&#xb6;" horiz-adv-x="1269" 
d="M688 -282v829h-89q-16 0 -43 1.5t-59 6.5q-111 17 -189.5 78.5t-119.5 154.5t-41 205t40.5 205t119 155t190.5 79q32 5 58.5 6.5t43.5 1.5h236v-1722h-147zM976 -282v1722h147v-1722h-147z" />
    <glyph glyph-name="periodcentered" unicode="&#xb7;" horiz-adv-x="453" 
d="M229 523q-45 0 -77 30.5t-32 76.5t32 76.5t77 30.5q43 0 73.5 -30.5t30.5 -76.5t-30.5 -76.5t-73.5 -30.5z" />
    <glyph glyph-name="cedilla" unicode="&#xb8;" horiz-adv-x="794" 
d="M367 -480q-36 0 -67.5 9t-59.5 22l38 102q46 -18 77 -18q39 0 60.5 24.5t21.5 53.5q0 46 -41 66.5t-92 35.5l74 206h109l-51 -140q54 -24 87.5 -65.5t33.5 -106.5q0 -81 -56.5 -135t-133.5 -54z" />
    <glyph glyph-name="uni00B9" unicode="&#xb9;" horiz-adv-x="642" 
d="M290 540v777l-170 -103v124l170 102h112v-900h-112z" />
    <glyph glyph-name="ordmasculine" unicode="&#xba;" horiz-adv-x="690" 
d="M344 540q-121 0 -192.5 80t-71.5 206q0 127 73 205.5t191 78.5q122 0 194 -79.5t72 -204.5q0 -127 -72 -206.5t-194 -79.5zM344 639q78 0 116 52t38 135q0 84 -38.5 135t-115.5 51q-79 0 -116 -51.5t-37 -134.5q0 -85 38.5 -136t114.5 -51z" />
    <glyph glyph-name="guillemotright" unicode="&#xbb;" horiz-adv-x="1071" 
d="M222 106l-89 69l292 366l-292 365l89 69l346 -434zM565 106l-88 69l291 366l-291 365l88 69l346 -434z" />
    <glyph glyph-name="onequarter" unicode="&#xbc;" horiz-adv-x="1947" 
d="M290 540v777l-170 -103v124l170 102h112v-900h-112zM1501 0v165h-414v107l297 628h127l-298 -628h288v253h112v-253h94v-107h-94v-165h-112zM381 0l-101 78l1051 1367l99 -78z" />
    <glyph glyph-name="onehalf" unicode="&#xbd;" horiz-adv-x="1868" 
d="M290 540v777l-170 -103v124l170 102h112v-900h-112zM1168 0l2 100l399 361q50 45 67.5 85.5t17.5 81.5q0 79 -52 133t-130 54q-53 0 -95.5 -26t-66.5 -68t-23 -91h-115q0 85 39.5 150.5t107.5 102.5t155 37q84 0 150.5 -38.5t105 -105t38.5 -149.5q0 -59 -15 -101.5
t-46 -79t-77 -77.5l-348 -315l-20 53h506v-107h-600zM381 0l-101 78l1051 1367l99 -78z" />
    <glyph glyph-name="threequarters" unicode="&#xbe;" horiz-adv-x="1959" 
d="M365 519q-100 0 -178 55t-107 150l107 31q21 -64 69.5 -96.5t108.5 -31.5q83 1 131.5 53.5t48.5 134.5q0 83 -50 135.5t-132 52.5q-23 0 -47 -6t-47 -16l-54 87l352 320l21 -54h-472v106h533v-107l-303 -288l-3 52q95 10 166.5 -24.5t110.5 -102t39 -155.5
q0 -87 -38.5 -153.5t-105 -104.5t-150.5 -38zM1633 0v165h-414v107l297 628h127l-298 -628h288v253h112v-253h94v-107h-94v-165h-112zM518 0l-101 78l1051 1367l99 -78z" />
    <glyph glyph-name="questiondown" unicode="&#xbf;" horiz-adv-x="1047" 
d="M625 687q0 -78 -7 -137.5t-40 -119.5q-30 -57 -73.5 -94.5t-92 -71t-91.5 -79.5q-38 -44 -51.5 -90.5t-13.5 -97.5q0 -50 13 -90t38 -70q40 -48 98.5 -66.5t120.5 -18.5q63 0 117 17.5t88 53.5q35 33 50 78t14 94h152q-4 -79 -34 -154.5t-90 -126.5q-59 -53 -137 -78
t-159 -25q-98 0 -186 30t-148 98q-47 52 -70 117.5t-23 138.5q0 83 31.5 156.5t86.5 129.5q34 37 77.5 69t82.5 65t61 72q27 48 28.5 91.5t1.5 108.5h156zM625 1080v-196h-156v196h156z" />
    <glyph glyph-name="Agrave" unicode="&#xc0;" horiz-adv-x="1267" 
d="M557 1610l-120 310h126l120 -310h-126zM1227 0h-153l-467 1358h57l-471 -1358h-153l496 1440h195zM1006 349h-744v138h744v-138z" />
    <glyph glyph-name="Aacute" unicode="&#xc1;" horiz-adv-x="1267" 
d="M711 1610h-126l119 310h126zM40 0l496 1440h195l496 -1440h-153l-471 1358h58l-468 -1358h-153zM261 349v138h744v-138h-744z" />
    <glyph glyph-name="Acircumflex" unicode="&#xc2;" horiz-adv-x="1267" 
d="M336 1610l229 270h136l230 -270h-150l-148 173l-147 -173h-150zM40 0l496 1440h195l496 -1440h-153l-471 1358h58l-468 -1358h-153zM261 349v138h744v-138h-744z" />
    <glyph glyph-name="Atilde" unicode="&#xc3;" horiz-adv-x="1267" 
d="M784 1662q-42 0 -82 17t-77.5 39.5t-71 39.5t-63.5 17q-39 0 -49.5 -30.5t0.5 -65.5h-104q-23 89 17.5 151.5t128.5 62.5q43 0 83 -17t77.5 -39.5t71 -39.5t63.5 -17q35 0 48.5 30t0.5 69h104q23 -88 -17 -152.5t-130 -64.5zM40 0l496 1440h195l496 -1440h-153l-471 1358
h58l-468 -1358h-153zM261 349v138h744v-138h-744z" />
    <glyph glyph-name="Adieresis" unicode="&#xc4;" horiz-adv-x="1267" 
d="M745 1651v160h160v-160h-160zM364 1651v160h160v-160h-160zM40 0l496 1440h195l496 -1440h-153l-471 1358h58l-468 -1358h-153zM261 349v138h744v-138h-744z" />
    <glyph glyph-name="Aring" unicode="&#xc5;" horiz-adv-x="1267" 
d="M635 1557q-60 0 -110 29.5t-80 79t-30 110.5q0 60 30 110t80 79.5t110 29.5q61 0 110.5 -29.5t79 -79.5t29.5 -110q0 -61 -29.5 -110.5t-79 -79t-110.5 -29.5zM635 1666q46 0 78 32.5t32 77.5q0 46 -32 78t-78 32q-45 0 -77.5 -32t-32.5 -78q0 -45 32.5 -77.5t77.5 -32.5
zM40 0l496 1440h195l496 -1440h-153l-471 1358h58l-468 -1358h-153zM261 349v138h744v-138h-744z" />
    <glyph glyph-name="AE" unicode="&#xc6;" horiz-adv-x="1837" 
d="M40 0l496 1440h357v-141h-315l81 57l-466 -1356h-153zM261 349v138h678v-138h-678zM837 0v1440h900v-141h-754v-498h634v-141h-634v-519h754v-141h-900z" />
    <glyph glyph-name="Ccedilla" unicode="&#xc7;" horiz-adv-x="1431" 
d="M709 -480q-36 0 -68 9t-60 22l38 102q47 -18 78 -18q39 0 60 24.5t21 53.5q0 46 -41 66.5t-92 35.5l74 206h109l-51 -140q54 -24 87.5 -65.5t33.5 -106.5q0 -81 -56 -135t-133 -54zM723 -30q-215 0 -363 95.5t-224 264.5t-76 390t76 390t224 264.5t363 95.5
q251 0 410 -128.5t218 -344.5l-150 -39q-46 171 -165 271t-313 100q-169 0 -281 -77t-168.5 -214.5t-58.5 -317.5q-1 -180 55.5 -317t170 -214.5t282.5 -77.5q194 0 313 100.5t165 270.5l150 -39q-59 -216 -218 -344.5t-410 -128.5z" />
    <glyph glyph-name="Egrave" unicode="&#xc8;" horiz-adv-x="1140" 
d="M558 1610l-119 310h126l119 -310h-126zM140 0v1440h900v-141h-753v-498h633v-141h-633v-519h753v-141h-900z" />
    <glyph glyph-name="Eacute" unicode="&#xc9;" horiz-adv-x="1140" 
d="M677 1610h-126l119 310h126zM140 0v1440h900v-141h-753v-498h633v-141h-633v-519h753v-141h-900z" />
    <glyph glyph-name="Ecircumflex" unicode="&#xca;" horiz-adv-x="1140" 
d="M281 1610l230 270h136l229 -270h-150l-147 173l-148 -173h-150zM140 0v1440h900v-141h-753v-498h633v-141h-633v-519h753v-141h-900z" />
    <glyph glyph-name="Edieresis" unicode="&#xcb;" horiz-adv-x="1140" 
d="M680 1651v160h160v-160h-160zM299 1651v160h160v-160h-160zM140 0v1440h900v-141h-753v-498h633v-141h-633v-519h753v-141h-900z" />
    <glyph glyph-name="Igrave" unicode="&#xcc;" 
d="M168 1610l-120 310h126l120 -310h-126zM160 0v1440h147v-1440h-147z" />
    <glyph glyph-name="Iacute" unicode="&#xcd;" 
d="M299 1610h-126l119 310h126zM160 0v1440h147v-1440h-147z" />
    <glyph glyph-name="Icircumflex" unicode="&#xce;" 
d="M-65 1610l229 270h136l229 -270h-150l-147 173l-147 -173h-150zM160 0v1440h147v-1440h-147z" />
    <glyph glyph-name="Idieresis" unicode="&#xcf;" 
d="M344 1651v160h160v-160h-160zM-37 1651v160h160v-160h-160zM160 0v1440h147v-1440h-147z" />
    <glyph glyph-name="Eth" unicode="&#xd0;" horiz-adv-x="1331" 
d="M20 657v126h630v-126h-630zM128 0v1440h437q23 0 78.5 -1t106.5 -8q164 -23 274 -122t165 -252t55 -337t-55 -337t-165 -252t-274 -122q-50 -6 -107 -7.5t-78 -1.5h-437zM280 141h285q41 0 88.5 2.5t81.5 9.5q126 22 203.5 102t113.5 200.5t36 264.5q0 145 -36 266
t-114 200t-203 101q-34 7 -82.5 9.5t-87.5 2.5h-285v-1158z" />
    <glyph glyph-name="Ntilde" unicode="&#xd1;" horiz-adv-x="1369" 
d="M861 1612q-43 0 -82.5 17t-77 39.5t-71.5 39.5t-63 17q-39 0 -50 -30.5t0 -65.5h-104q-22 89 18 151.5t128 62.5q43 0 83.5 -17t78 -39.5t71 -39.5t63.5 -17q35 0 48.5 30t0.5 69h104q23 -88 -17 -152.5t-130 -64.5zM140 0v1440h148l793 -1180v1180h148v-1440h-148
l-793 1181v-1181h-148z" />
    <glyph glyph-name="Ograve" unicode="&#xd2;" horiz-adv-x="1447" 
d="M656 1610l-119 310h126l119 -310h-126zM723 -30q-215 0 -363 95.5t-224 264.5t-76 390t76 390t224 264.5t363 95.5q216 0 363.5 -95.5t224 -264.5t76.5 -390t-76.5 -390t-224 -264.5t-363.5 -95.5zM723 111q169 0 282 77t169.5 214.5t56.5 317.5t-56.5 317t-169.5 214
t-282 78q-169 0 -281 -77t-168.5 -214.5t-57.5 -317.5t55.5 -316.5t169.5 -214t282 -78.5z" />
    <glyph glyph-name="Oacute" unicode="&#xd3;" horiz-adv-x="1447" 
d="M804 1610h-126l119 310h126zM723 -30q-215 0 -363 95.5t-224 264.5t-76 390t76 390t224 264.5t363 95.5q216 0 363.5 -95.5t224 -264.5t76.5 -390t-76.5 -390t-224 -264.5t-363.5 -95.5zM723 111q169 0 282 77t169.5 214.5t56.5 317.5t-56.5 317t-169.5 214t-282 78
q-169 0 -281 -77t-168.5 -214.5t-57.5 -317.5t55.5 -316.5t169.5 -214t282 -78.5z" />
    <glyph glyph-name="Ocircumflex" unicode="&#xd4;" horiz-adv-x="1447" 
d="M425 1610l229 270h136l229 -270h-150l-147 173l-147 -173h-150zM723 -30q-215 0 -363 95.5t-224 264.5t-76 390t76 390t224 264.5t363 95.5q216 0 363.5 -95.5t224 -264.5t76.5 -390t-76.5 -390t-224 -264.5t-363.5 -95.5zM723 111q169 0 282 77t169.5 214.5t56.5 317.5
t-56.5 317t-169.5 214t-282 78q-169 0 -281 -77t-168.5 -214.5t-57.5 -317.5t55.5 -316.5t169.5 -214t282 -78.5z" />
    <glyph glyph-name="Otilde" unicode="&#xd5;" horiz-adv-x="1447" 
d="M723 -30q-215 0 -363 95.5t-224 264.5t-76 390t76 390t224 264.5t363 95.5q216 0 363.5 -95.5t224 -264.5t76.5 -390t-76.5 -390t-224 -264.5t-363.5 -95.5zM723 111q169 0 282 77t169.5 214.5t56.5 317.5t-56.5 317t-169.5 214t-282 78q-169 0 -281 -77t-168.5 -214.5
t-57.5 -317.5t55.5 -316.5t169.5 -214t282 -78.5zM888 1612q-42 0 -82 17t-77.5 39.5t-71 39.5t-63.5 17q-39 0 -49.5 -30.5t0.5 -65.5h-104q-23 89 17.5 151.5t128.5 62.5q43 0 83 -17t77.5 -39.5t71 -39.5t63.5 -17q35 0 48.5 30t0.5 69h104q23 -88 -17 -152.5t-130 -64.5
z" />
    <glyph glyph-name="Odieresis" unicode="&#xd6;" horiz-adv-x="1447" 
d="M834 1651v160h160v-160h-160zM453 1651v160h160v-160h-160zM723 -30q-215 0 -363 95.5t-224 264.5t-76 390t76 390t224 264.5t363 95.5q216 0 363.5 -95.5t224 -264.5t76.5 -390t-76.5 -390t-224 -264.5t-363.5 -95.5zM723 111q169 0 282 77t169.5 214.5t56.5 317.5
t-56.5 317t-169.5 214t-282 78q-169 0 -281 -77t-168.5 -214.5t-57.5 -317.5t55.5 -316.5t169.5 -214t282 -78.5z" />
    <glyph glyph-name="multiply" unicode="&#xd7;" horiz-adv-x="975" 
d="M767 352l-279 279l-279 -279l-89 90l279 278l-279 278l89 89l279 -278l278 278l89 -89l-279 -278l279 -278z" />
    <glyph glyph-name="Oslash" unicode="&#xd8;" horiz-adv-x="1447" 
d="M143 -26l-105 95l186 203l26 26l866 941l17 20l185 202l105 -94l-200 -220l-19 -16l-865 -942l-22 -27zM723 -30q-215 0 -363 95.5t-224 264.5t-76 390t76 390t224 264.5t363 95.5q216 0 363.5 -95.5t224 -264.5t76.5 -390t-76.5 -390t-224 -264.5t-363.5 -95.5zM723 111
q169 0 282 77t169.5 214.5t56.5 317.5t-56.5 317t-169.5 214t-282 78q-169 0 -281 -77t-168.5 -214.5t-57.5 -317.5t55.5 -316.5t169.5 -214t282 -78.5z" />
    <glyph glyph-name="Ugrave" unicode="&#xd9;" horiz-adv-x="1404" 
d="M660 1610l-119 310h126l119 -310h-126zM702 -30q-165 0 -291.5 68t-198.5 192t-72 290v919l148 1v-901q0 -112 38 -193.5t99.5 -134t134.5 -77.5t142 -25q70 0 143 25t134 77.5t99 134t38 193.5v901h148v-920q0 -166 -72 -289.5t-198.5 -192t-291.5 -68.5z" />
    <glyph glyph-name="Uacute" unicode="&#xda;" horiz-adv-x="1404" 
d="M749 1610h-126l119 310h126zM702 -30q-165 0 -291.5 68t-198.5 192t-72 290v919l148 1v-901q0 -112 38 -193.5t99.5 -134t134.5 -77.5t142 -25q70 0 143 25t134 77.5t99 134t38 193.5v901h148v-920q0 -166 -72 -289.5t-198.5 -192t-291.5 -68.5z" />
    <glyph glyph-name="Ucircumflex" unicode="&#xdb;" horiz-adv-x="1404" 
d="M403 1610l230 270h136l229 -270h-150l-147 173l-148 -173h-150zM702 -30q-165 0 -291.5 68t-198.5 192t-72 290v919l148 1v-901q0 -112 38 -193.5t99.5 -134t134.5 -77.5t142 -25q70 0 143 25t134 77.5t99 134t38 193.5v901h148v-920q0 -166 -72 -289.5t-198.5 -192
t-291.5 -68.5z" />
    <glyph glyph-name="Udieresis" unicode="&#xdc;" horiz-adv-x="1404" 
d="M813 1651v160h160v-160h-160zM431 1651v160h160v-160h-160zM702 -30q-165 0 -291.5 68t-198.5 192t-72 290v919l148 1v-901q0 -112 38 -193.5t99.5 -134t134.5 -77.5t142 -25q70 0 143 25t134 77.5t99 134t38 193.5v901h148v-920q0 -166 -72 -289.5t-198.5 -192
t-291.5 -68.5z" />
    <glyph glyph-name="Yacute" unicode="&#xdd;" horiz-adv-x="1112" 
d="M600 1610h-126l119 310h126zM483 0v603l-483 837h170l387 -669l385 669h170l-481 -837v-603h-148z" />
    <glyph glyph-name="Thorn" unicode="&#xde;" horiz-adv-x="1189" 
d="M140 0v1440h148v-273h393q77 0 151 -28q50 -17 95 -47t80 -70q58 -60 90 -139.5t32 -162.5q1 -79 -28 -153.5t-80 -133.5q-59 -73 -150 -116t-190 -43h-393v-274h-148zM288 415h392q63 0 124.5 30t103.5 82q33 41 52 90.5t17 102.5q-1 60 -23.5 116t-64.5 98
q-39 41 -95.5 66t-113.5 25h-392v-610z" />
    <glyph glyph-name="germandbls" unicode="&#xdf;" horiz-adv-x="1197" 
d="M625 -29q-52 0 -97.5 6t-86.5 23v145q41 -14 81 -21t89 -7q141 0 228.5 76.5t87.5 218.5q0 135 -105 210t-276 78v135q69 7 127 36t92.5 81.5t34.5 131.5q0 116 -70 180.5t-183 64.5q-78 0 -142 -34t-91 -110q-12 -34 -17 -76t-5 -86v-1023h-153v1063q0 50 6.5 93
t19.5 77q29 80 83 132.5t129.5 78.5t167.5 26q119 0 210.5 -46t143.5 -132.5t52 -206.5q0 -102 -44 -182t-129 -114q48 -9 100 -37.5t97 -76.5t73.5 -114t28.5 -150q0 -200 -116 -320t-336 -120z" />
    <glyph glyph-name="agrave" unicode="&#xe0;" horiz-adv-x="1111" 
d="M509 1250l-120 310h126l120 -310h-126zM449 -30q-122 0 -204.5 44t-123.5 117t-41 159q0 88 35.5 150.5t97 102.5t142.5 61q82 20 181.5 35.5t195 27t167.5 22.5l-52 -32q3 160 -62 237t-226 77q-111 0 -187.5 -50t-107.5 -158l-143 42q37 145 149 225t291 80
q148 0 251.5 -55.5t146.5 -160.5q20 -47 26 -105t6 -118v-671h-131v271l38 -16q-55 -139 -171 -212t-278 -73zM466 97q103 0 180 37t124 101.5t61 145.5q12 52 13 114.5t1 93.5l56 -29q-75 -10 -162.5 -20t-172 -23t-152.5 -31q-46 -13 -89 -36.5t-70.5 -62.5t-27.5 -97
q0 -47 23.5 -91t76 -73t139.5 -29z" />
    <glyph glyph-name="aacute" unicode="&#xe1;" horiz-adv-x="1111" 
d="M630 1250h-126l120 310h126zM449 -30q-122 0 -204.5 44t-123.5 117t-41 159q0 88 35.5 150.5t97 102.5t142.5 61q82 20 181.5 35.5t195 27t167.5 22.5l-52 -32q3 160 -62 237t-226 77q-111 0 -187.5 -50t-107.5 -158l-143 42q37 145 149 225t291 80q148 0 251.5 -55.5
t146.5 -160.5q20 -47 26 -105t6 -118v-671h-131v271l38 -16q-55 -139 -171 -212t-278 -73zM466 97q103 0 180 37t124 101.5t61 145.5q12 52 13 114.5t1 93.5l56 -29q-75 -10 -162.5 -20t-172 -23t-152.5 -31q-46 -13 -89 -36.5t-70.5 -62.5t-27.5 -97q0 -47 23.5 -91t76 -73
t139.5 -29z" />
    <glyph glyph-name="acircumflex" unicode="&#xe2;" horiz-adv-x="1111" 
d="M273 1250l230 270h136l229 -270h-150l-147 173l-148 -173h-150zM449 -30q-122 0 -204.5 44t-123.5 117t-41 159q0 88 35.5 150.5t97 102.5t142.5 61q82 20 181.5 35.5t195 27t167.5 22.5l-52 -32q3 160 -62 237t-226 77q-111 0 -187.5 -50t-107.5 -158l-143 42
q37 145 149 225t291 80q148 0 251.5 -55.5t146.5 -160.5q20 -47 26 -105t6 -118v-671h-131v271l38 -16q-55 -139 -171 -212t-278 -73zM466 97q103 0 180 37t124 101.5t61 145.5q12 52 13 114.5t1 93.5l56 -29q-75 -10 -162.5 -20t-172 -23t-152.5 -31q-46 -13 -89 -36.5
t-70.5 -62.5t-27.5 -97q0 -47 23.5 -91t76 -73t139.5 -29z" />
    <glyph glyph-name="atilde" unicode="&#xe3;" horiz-adv-x="1111" 
d="M731 1252q-42 0 -82 17t-77.5 39.5t-71 39.5t-63.5 17q-38 0 -49 -30.5t0 -65.5h-104q-22 89 18 151.5t128 62.5q43 0 83 -17t77.5 -39.5t71.5 -39.5t63 -17q36 0 49 30t1 69h104q22 -88 -18 -152.5t-130 -64.5zM449 -30q-122 0 -204.5 44t-123.5 117t-41 159
q0 88 35.5 150.5t97 102.5t142.5 61q82 20 181.5 35.5t195 27t167.5 22.5l-52 -32q3 160 -62 237t-226 77q-111 0 -187.5 -50t-107.5 -158l-143 42q37 145 149 225t291 80q148 0 251.5 -55.5t146.5 -160.5q20 -47 26 -105t6 -118v-671h-131v271l38 -16q-55 -139 -171 -212
t-278 -73zM466 97q103 0 180 37t124 101.5t61 145.5q12 52 13 114.5t1 93.5l56 -29q-75 -10 -162.5 -20t-172 -23t-152.5 -31q-46 -13 -89 -36.5t-70.5 -62.5t-27.5 -97q0 -47 23.5 -91t76 -73t139.5 -29z" />
    <glyph glyph-name="adieresis" unicode="&#xe4;" horiz-adv-x="1111" 
d="M689 1291v160h160v-160h-160zM308 1291v160h160v-160h-160zM449 -30q-122 0 -204.5 44t-123.5 117t-41 159q0 88 35.5 150.5t97 102.5t142.5 61q82 20 181.5 35.5t195 27t167.5 22.5l-52 -32q3 160 -62 237t-226 77q-111 0 -187.5 -50t-107.5 -158l-143 42
q37 145 149 225t291 80q148 0 251.5 -55.5t146.5 -160.5q20 -47 26 -105t6 -118v-671h-131v271l38 -16q-55 -139 -171 -212t-278 -73zM466 97q103 0 180 37t124 101.5t61 145.5q12 52 13 114.5t1 93.5l56 -29q-75 -10 -162.5 -20t-172 -23t-152.5 -31q-46 -13 -89 -36.5
t-70.5 -62.5t-27.5 -97q0 -47 23.5 -91t76 -73t139.5 -29z" />
    <glyph glyph-name="aring" unicode="&#xe5;" horiz-adv-x="1111" 
d="M570 1197q-60 0 -110 29.5t-79.5 79t-29.5 110.5q0 60 29.5 110t79.5 79.5t110 29.5q61 0 110.5 -29.5t79 -79.5t29.5 -110q0 -61 -29.5 -110.5t-79 -79t-110.5 -29.5zM570 1306q47 0 78.5 32.5t31.5 77.5q0 46 -31.5 78t-78.5 32q-45 0 -77.5 -32t-32.5 -78
q0 -45 32.5 -77.5t77.5 -32.5zM449 -30q-122 0 -204.5 44t-123.5 117t-41 159q0 88 35.5 150.5t97 102.5t142.5 61q82 20 181.5 35.5t195 27t167.5 22.5l-52 -32q3 160 -62 237t-226 77q-111 0 -187.5 -50t-107.5 -158l-143 42q37 145 149 225t291 80q148 0 251.5 -55.5
t146.5 -160.5q20 -47 26 -105t6 -118v-671h-131v271l38 -16q-55 -139 -171 -212t-278 -73zM466 97q103 0 180 37t124 101.5t61 145.5q12 52 13 114.5t1 93.5l56 -29q-75 -10 -162.5 -20t-172 -23t-152.5 -31q-46 -13 -89 -36.5t-70.5 -62.5t-27.5 -97q0 -47 23.5 -91t76 -73
t139.5 -29z" />
    <glyph glyph-name="ae" unicode="&#xe6;" horiz-adv-x="1884" 
d="M1339 -30q-155 0 -264.5 73t-167 201t-57.5 293q0 171 58 300t167 201t262 72q158 0 263 -77.5t156 -215t47 -318.5h-143v52q-4 197 -79.5 310.5t-246.5 113.5q-116 0 -191 -55.5t-110.5 -153.5t-35.5 -226q0 -194 85 -311.5t252 -117.5q105 0 188 51.5t130 156.5
l130 -53q-40 -95 -106.5 -161t-152.5 -100.5t-184 -34.5zM466 97q116 0 206 52.5t129 133.5q24 47 33.5 102t11 100.5t0.5 65.5l35 -38l-309 -10q-44 -1 -103 -7t-114 -25.5t-91.5 -61.5t-36.5 -116q0 -93 64 -144.5t175 -51.5zM459 -30q-179 0 -279 87.5t-100 233.5
q0 90 34.5 149t90 93.5t120 51.5t125 23t103.5 9l314 10l-22 -25q7 123 -21.5 205.5t-93.5 123t-167 40.5q-106 0 -188.5 -45t-113.5 -153l-140 43q26 93 89.5 158.5t154 100.5t199.5 35q168 0 270 -72.5t137 -201.5q14 -45 17 -89t3 -82l-63 -394q-44 -114 -117.5 -180
t-164.5 -93.5t-187 -27.5zM947 499v126h781v-126h-781z" />
    <glyph glyph-name="ccedilla" unicode="&#xe7;" horiz-adv-x="1107" 
d="M539 -480q-36 0 -67.5 9t-59.5 22l38 102q46 -18 77 -18q39 0 60.5 24.5t21.5 53.5q0 46 -41 66.5t-92 35.5l74 206h109l-51 -140q54 -24 87.5 -65.5t33.5 -106.5q0 -81 -56.5 -135t-133.5 -54zM588 -30q-163 0 -276 73t-171.5 201.5t-60.5 295.5q2 170 62 298.5t173 200
t274 71.5q164 0 285.5 -80t166.5 -219l-144 -46q-38 97 -120.5 150.5t-188.5 53.5q-119 0 -197 -54.5t-116 -151.5t-39 -223q2 -194 90 -311.5t262 -117.5q110 0 187.5 50.5t117.5 147.5l148 -44q-60 -144 -176 -219.5t-277 -75.5z" />
    <glyph glyph-name="egrave" unicode="&#xe8;" horiz-adv-x="1169" 
d="M542 1250l-119 310h126l119 -310h-126zM597 -30q-158 0 -273.5 70t-179.5 197t-64 298q0 177 63 306t177.5 199t270.5 70q160 0 273 -73.5t171 -210.5t53 -327h-150v52q-4 210 -90.5 317t-252.5 107q-174 0 -266.5 -113t-92.5 -322q0 -204 92.5 -316.5t262.5 -112.5
q116 0 202.5 53.5t136.5 154.5l137 -53q-64 -141 -188.5 -218.5t-281.5 -77.5zM184 499v123h825v-123h-825z" />
    <glyph glyph-name="eacute" unicode="&#xe9;" horiz-adv-x="1169" 
d="M676 1250h-126l119 310h126zM597 -30q-158 0 -273.5 70t-179.5 197t-64 298q0 177 63 306t177.5 199t270.5 70q160 0 273 -73.5t171 -210.5t53 -327h-150v52q-4 210 -90.5 317t-252.5 107q-174 0 -266.5 -113t-92.5 -322q0 -204 92.5 -316.5t262.5 -112.5
q116 0 202.5 53.5t136.5 154.5l137 -53q-64 -141 -188.5 -218.5t-281.5 -77.5zM184 499v123h825v-123h-825z" />
    <glyph glyph-name="ecircumflex" unicode="&#xea;" horiz-adv-x="1169" 
d="M293 1250l229 270h136l229 -270h-150l-147 173l-147 -173h-150zM597 -30q-158 0 -273.5 70t-179.5 197t-64 298q0 177 63 306t177.5 199t270.5 70q160 0 273 -73.5t171 -210.5t53 -327h-150v52q-4 210 -90.5 317t-252.5 107q-174 0 -266.5 -113t-92.5 -322
q0 -204 92.5 -316.5t262.5 -112.5q116 0 202.5 53.5t136.5 154.5l137 -53q-64 -141 -188.5 -218.5t-281.5 -77.5zM184 499v123h825v-123h-825z" />
    <glyph glyph-name="edieresis" unicode="&#xeb;" horiz-adv-x="1169" 
d="M702 1291v160h160v-160h-160zM321 1291v160h160v-160h-160zM597 -30q-158 0 -273.5 70t-179.5 197t-64 298q0 177 63 306t177.5 199t270.5 70q160 0 273 -73.5t171 -210.5t53 -327h-150v52q-4 210 -90.5 317t-252.5 107q-174 0 -266.5 -113t-92.5 -322
q0 -204 92.5 -316.5t262.5 -112.5q116 0 202.5 53.5t136.5 154.5l137 -53q-64 -141 -188.5 -218.5t-281.5 -77.5zM184 499v123h825v-123h-825z" />
    <glyph glyph-name="igrave" unicode="&#xec;" 
d="M168 1250l-120 310h126l120 -310h-126zM160 0v1080h147v-1080h-147z" />
    <glyph glyph-name="iacute" unicode="&#xed;" 
d="M299 1250h-126l119 310h126zM160 0v1080h147v-1080h-147z" />
    <glyph glyph-name="icircumflex" unicode="&#xee;" 
d="M-59 1250l230 270h136l229 -270h-150l-147 173l-148 -173h-150zM160 0v1080h147v-1080h-147z" />
    <glyph glyph-name="idieresis" unicode="&#xef;" 
d="M344 1291v160h160v-160h-160zM-37 1291v160h160v-160h-160zM160 0v1080h147v-1080h-147z" />
    <glyph glyph-name="eth" unicode="&#xf0;" horiz-adv-x="1165" 
d="M583 -30q-155 -1 -267 65.5t-173.5 187t-62.5 280.5q1 162 62.5 282.5t174 187t266.5 64.5q100 2 192 -35t160 -113q-16 135 -81 237.5t-170.5 163.5t-242.5 71l20 123q169 -8 295 -81.5t201 -205.5q50 -79 78 -171t39 -217t11 -302q0 -163 -61 -284.5t-173.5 -187.5
t-267.5 -65zM583 106q171 0 261 107.5t90 291.5q0 186 -92 292t-259 104q-171 2 -261.5 -105.5t-90.5 -291.5q0 -188 91 -293t261 -105zM617 1125l-93 78l295 362l94 -79z" />
    <glyph glyph-name="ntilde" unicode="&#xf1;" horiz-adv-x="1188" 
d="M745 1252q-43 0 -82.5 17t-77 39.5t-71.5 39.5t-63 17q-39 0 -50 -30.5t0 -65.5h-104q-22 89 18 151.5t128 62.5q43 0 83.5 -17t78 -39.5t71 -39.5t63.5 -17q35 0 48.5 30t0.5 69h104q23 -88 -17 -152.5t-130 -64.5zM920 0v551q0 90 -17 165.5t-54.5 132t-97 87.5
t-144.5 31q-78 0 -137.5 -27t-100 -77.5t-61.5 -122.5t-21 -164l-104 23q0 166 58 279t160 171t234 58q97 0 169.5 -30t123 -81t81.5 -116.5t45 -139t14 -146.5v-594h-148zM139 0v1080h133v-266h15v-814h-148z" />
    <glyph glyph-name="ograve" unicode="&#xf2;" horiz-adv-x="1183" 
d="M520 1250l-120 310h126l120 -310h-126zM591 -30q-161 0 -275 73t-175 202t-61 296q0 170 62 298t176.5 199.5t272.5 71.5q162 0 276.5 -72.5t175 -201t60.5 -295.5q0 -170 -61 -298.5t-176 -200.5t-275 -72zM591 111q180 0 268 119.5t88 310.5q0 196 -88.5 312
t-267.5 116q-121 0 -199.5 -54.5t-117 -151t-38.5 -222.5q0 -195 90 -312.5t265 -117.5z" />
    <glyph glyph-name="oacute" unicode="&#xf3;" horiz-adv-x="1183" 
d="M654 1250h-126l119 310h126zM591 -30q-161 0 -275 73t-175 202t-61 296q0 170 62 298t176.5 199.5t272.5 71.5q162 0 276.5 -72.5t175 -201t60.5 -295.5q0 -170 -61 -298.5t-176 -200.5t-275 -72zM591 111q180 0 268 119.5t88 310.5q0 196 -88.5 312t-267.5 116
q-121 0 -199.5 -54.5t-117 -151t-38.5 -222.5q0 -195 90 -312.5t265 -117.5z" />
    <glyph glyph-name="ocircumflex" unicode="&#xf4;" horiz-adv-x="1183" 
d="M293 1250l230 270h136l229 -270h-150l-147 173l-148 -173h-150zM591 -30q-161 0 -275 73t-175 202t-61 296q0 170 62 298t176.5 199.5t272.5 71.5q162 0 276.5 -72.5t175 -201t60.5 -295.5q0 -170 -61 -298.5t-176 -200.5t-275 -72zM591 111q180 0 268 119.5t88 310.5
q0 196 -88.5 312t-267.5 116q-121 0 -199.5 -54.5t-117 -151t-38.5 -222.5q0 -195 90 -312.5t265 -117.5z" />
    <glyph glyph-name="otilde" unicode="&#xf5;" horiz-adv-x="1183" 
d="M743 1252q-43 0 -82.5 17t-77 39.5t-71.5 39.5t-63 17q-39 0 -50 -30.5t0 -65.5h-104q-22 89 18 151.5t128 62.5q43 0 83.5 -17t78 -39.5t71 -39.5t63.5 -17q35 0 48.5 30t0.5 69h104q23 -88 -17 -152.5t-130 -64.5zM591 -30q-161 0 -275 73t-175 202t-61 296
q0 170 62 298t176.5 199.5t272.5 71.5q162 0 276.5 -72.5t175 -201t60.5 -295.5q0 -170 -61 -298.5t-176 -200.5t-275 -72zM591 111q180 0 268 119.5t88 310.5q0 196 -88.5 312t-267.5 116q-121 0 -199.5 -54.5t-117 -151t-38.5 -222.5q0 -195 90 -312.5t265 -117.5z" />
    <glyph glyph-name="odieresis" unicode="&#xf6;" horiz-adv-x="1183" 
d="M703 1291v160h160v-160h-160zM321 1291v160h160v-160h-160zM591 -30q-161 0 -275 73t-175 202t-61 296q0 170 62 298t176.5 199.5t272.5 71.5q162 0 276.5 -72.5t175 -201t60.5 -295.5q0 -170 -61 -298.5t-176 -200.5t-275 -72zM591 111q180 0 268 119.5t88 310.5
q0 196 -88.5 312t-267.5 116q-121 0 -199.5 -54.5t-117 -151t-38.5 -222.5q0 -195 90 -312.5t265 -117.5z" />
    <glyph glyph-name="divide" unicode="&#xf7;" horiz-adv-x="1080" 
d="M120 657v126h840v-126h-840zM488 902v171h171v-171h-171zM488 418v171h171v-171h-171z" />
    <glyph glyph-name="oslash" unicode="&#xf8;" horiz-adv-x="1183" 
d="M140 -10l-100 100l170 170l42 28l621 619l24 38l146 145l100 -99l-164 -163l-37 -23l-609 -609l-31 -44zM591 -30q-161 0 -275 73t-175 202t-61 296q0 170 62 298t176.5 199.5t272.5 71.5q162 0 276.5 -72.5t175 -201t60.5 -295.5q0 -170 -61 -298.5t-176 -200.5
t-275 -72zM591 111q180 0 268 119.5t88 310.5q0 196 -88.5 312t-267.5 116q-121 0 -199.5 -54.5t-117 -151t-38.5 -222.5q0 -195 90 -312.5t265 -117.5z" />
    <glyph glyph-name="ugrave" unicode="&#xf9;" horiz-adv-x="1188" 
d="M539 1250l-120 310h126l120 -310h-126zM553 -27q-97 0 -169.5 30t-123 81t-81.5 116.5t-45 139t-14 146.5v594h148v-551q0 -89 17 -165t54.5 -132.5t97 -87.5t144.5 -31q78 0 137.5 27t100 77.5t61.5 123t21 163.5l104 -23q0 -166 -58 -279t-160 -171t-234 -58zM916 0
v266h-15v814h147v-1080h-132z" />
    <glyph glyph-name="uacute" unicode="&#xfa;" horiz-adv-x="1188" 
d="M641 1250h-126l119 310h126zM553 -27q-97 0 -169.5 30t-123 81t-81.5 116.5t-45 139t-14 146.5v594h148v-551q0 -89 17 -165t54.5 -132.5t97 -87.5t144.5 -31q78 0 137.5 27t100 77.5t61.5 123t21 163.5l104 -23q0 -166 -58 -279t-160 -171t-234 -58zM916 0v266h-15v814
h147v-1080h-132z" />
    <glyph glyph-name="ucircumflex" unicode="&#xfb;" horiz-adv-x="1188" 
d="M285 1250l229 270h136l229 -270h-150l-147 173l-147 -173h-150zM553 -27q-97 0 -169.5 30t-123 81t-81.5 116.5t-45 139t-14 146.5v594h148v-551q0 -89 17 -165t54.5 -132.5t97 -87.5t144.5 -31q78 0 137.5 27t100 77.5t61.5 123t21 163.5l104 -23q0 -166 -58 -279
t-160 -171t-234 -58zM916 0v266h-15v814h147v-1080h-132z" />
    <glyph glyph-name="udieresis" unicode="&#xfc;" horiz-adv-x="1188" 
d="M694 1291v160h160v-160h-160zM313 1291v160h160v-160h-160zM553 -27q-97 0 -169.5 30t-123 81t-81.5 116.5t-45 139t-14 146.5v594h148v-551q0 -89 17 -165t54.5 -132.5t97 -87.5t144.5 -31q78 0 137.5 27t100 77.5t61.5 123t21 163.5l104 -23q0 -166 -58 -279t-160 -171
t-234 -58zM916 0v266h-15v814h147v-1080h-132z" />
    <glyph glyph-name="yacute" unicode="&#xfd;" horiz-adv-x="1055" 
d="M590 1250h-126l119 310h126zM294 -480l209 567l3 -168l-473 1161h156l388 -971h-64l358 971h150l-580 -1560h-147z" />
    <glyph glyph-name="thorn" unicode="&#xfe;" horiz-adv-x="1184" 
d="M140 809v631h147v-631h-147zM625 -30q-149 0 -252 75.5t-156 205t-53 290.5q0 164 53.5 292.5t157.5 202.5t256 74q148 0 254 -75t162.5 -204t56.5 -290q0 -162 -57 -291t-164 -204.5t-258 -75.5zM139 -480v1560h132v-813h16v-747h-148zM610 107q113 0 188 57
t112.5 155.5t37.5 221.5q0 122 -37 220t-112.5 155t-191.5 57q-113 0 -187.5 -55t-111.5 -152.5t-37 -224.5q0 -125 37 -223.5t112 -154.5t190 -56z" />
    <glyph glyph-name="ydieresis" unicode="&#xff;" horiz-adv-x="1055" 
d="M648 1291v160h160v-160h-160zM267 1291v160h160v-160h-160zM294 -480l209 567l3 -168l-473 1161h156l388 -971h-64l358 971h150l-580 -1560h-147z" />
    <glyph glyph-name="Amacron" unicode="&#x100;" horiz-adv-x="1267" 
d="M384 1680v125h501v-125h-501zM40 0l496 1440h195l496 -1440h-153l-471 1358h58l-468 -1358h-153zM261 349v138h744v-138h-744z" />
    <glyph glyph-name="amacron" unicode="&#x101;" horiz-adv-x="1111" 
d="M349 1320v125h501v-125h-501zM449 -30q-122 0 -204.5 44t-123.5 117t-41 159q0 88 35.5 150.5t97 102.5t142.5 61q82 20 181.5 35.5t195 27t167.5 22.5l-52 -32q3 160 -62 237t-226 77q-111 0 -187.5 -50t-107.5 -158l-143 42q37 145 149 225t291 80q148 0 251.5 -55.5
t146.5 -160.5q20 -47 26 -105t6 -118v-671h-131v271l38 -16q-55 -139 -171 -212t-278 -73zM466 97q103 0 180 37t124 101.5t61 145.5q12 52 13 114.5t1 93.5l56 -29q-75 -10 -162.5 -20t-172 -23t-152.5 -31q-46 -13 -89 -36.5t-70.5 -62.5t-27.5 -97q0 -47 23.5 -91t76 -73
t139.5 -29z" />
    <glyph glyph-name="Abreve" unicode="&#x102;" horiz-adv-x="1267" 
d="M635 1568q-72 0 -130.5 35t-93 93.5t-34.5 129.5h122q0 -56 40 -96t96 -40q57 0 96.5 40t39.5 96h122q0 -71 -35 -129.5t-93.5 -93.5t-129.5 -35zM40 0l496 1440h195l496 -1440h-153l-471 1358h58l-468 -1358h-153zM261 349v138h744v-138h-744z" />
    <glyph glyph-name="abreve" unicode="&#x103;" horiz-adv-x="1111" 
d="M571 1208q-72 0 -130.5 35t-93 93.5t-34.5 129.5h122q0 -56 40 -96t96 -40q57 0 96.5 40t39.5 96h122q0 -71 -35 -129.5t-93.5 -93.5t-129.5 -35zM449 -30q-122 0 -204.5 44t-123.5 117t-41 159q0 88 35.5 150.5t97 102.5t142.5 61q82 20 181.5 35.5t195 27t167.5 22.5
l-52 -32q3 160 -62 237t-226 77q-111 0 -187.5 -50t-107.5 -158l-143 42q37 145 149 225t291 80q148 0 251.5 -55.5t146.5 -160.5q20 -47 26 -105t6 -118v-671h-131v271l38 -16q-55 -139 -171 -212t-278 -73zM466 97q103 0 180 37t124 101.5t61 145.5q12 52 13 114.5t1 93.5
l56 -29q-75 -10 -162.5 -20t-172 -23t-152.5 -31q-46 -13 -89 -36.5t-70.5 -62.5t-27.5 -97q0 -47 23.5 -91t76 -73t139.5 -29z" />
    <glyph glyph-name="Aogonek" unicode="&#x104;" horiz-adv-x="1267" 
d="M1064 -482q-53 0 -96.5 27.5t-69 72t-25.5 95.5q0 65 37 132.5t99.5 130.5t138.5 112l79 -88q-61 -37 -112.5 -85.5t-82.5 -99.5t-31 -94q0 -37 23 -60.5t53 -23.5q23 0 47 13.5t45 35.5l64 -79q-34 -44 -78.5 -66.5t-90.5 -22.5zM40 0l496 1440h195l496 -1440h-153
l-471 1358h58l-468 -1358h-153zM261 349v138h744v-138h-744z" />
    <glyph glyph-name="aogonek" unicode="&#x105;" horiz-adv-x="1111" 
d="M828 -482q-53 0 -96.5 27.5t-69 72t-25.5 95.5q0 65 37 132.5t99.5 130.5t138.5 112l79 -88q-61 -37 -112.5 -85.5t-82.5 -99.5t-31 -94q0 -37 23 -60.5t53 -23.5q23 0 47 13.5t45 35.5l64 -79q-34 -44 -78.5 -66.5t-90.5 -22.5zM449 -30q-122 0 -204.5 44t-123.5 117
t-41 159q0 88 35.5 150.5t97 102.5t142.5 61q82 20 181.5 35.5t195 27t167.5 22.5l-52 -32q3 160 -62 237t-226 77q-111 0 -187.5 -50t-107.5 -158l-143 42q37 145 149 225t291 80q148 0 251.5 -55.5t146.5 -160.5q20 -47 26 -105t6 -118v-671h-131v271l38 -16
q-55 -139 -171 -212t-278 -73zM466 97q103 0 180 37t124 101.5t61 145.5q12 52 13 114.5t1 93.5l56 -29q-75 -10 -162.5 -20t-172 -23t-152.5 -31q-46 -13 -89 -36.5t-70.5 -62.5t-27.5 -97q0 -47 23.5 -91t76 -73t139.5 -29z" />
    <glyph glyph-name="Cacute" unicode="&#x106;" horiz-adv-x="1431" 
d="M800 1610h-126l119 310h126zM723 -30q-215 0 -363 95.5t-224 264.5t-76 390t76 390t224 264.5t363 95.5q251 0 410 -128.5t218 -344.5l-150 -39q-46 171 -165 271t-313 100q-169 0 -281 -77t-168.5 -214.5t-58.5 -317.5q-1 -180 55.5 -317t170 -214.5t282.5 -77.5
q194 0 313 100.5t165 270.5l150 -39q-59 -216 -218 -344.5t-410 -128.5z" />
    <glyph glyph-name="cacute" unicode="&#x107;" horiz-adv-x="1107" 
d="M666 1250h-126l119 310h126zM588 -30q-163 0 -276 73t-171.5 201.5t-60.5 295.5q2 170 62 298.5t173 200t274 71.5q164 0 285.5 -80t166.5 -219l-144 -46q-38 97 -120.5 150.5t-188.5 53.5q-119 0 -197 -54.5t-116 -151.5t-39 -223q2 -194 90 -311.5t262 -117.5
q110 0 187.5 50.5t117.5 147.5l148 -44q-60 -144 -176 -219.5t-277 -75.5z" />
    <glyph glyph-name="Ccircumflex" unicode="&#x108;" horiz-adv-x="1431" 
d="M425 1610l230 270h136l229 -270h-150l-147 173l-148 -173h-150zM723 -30q-215 0 -363 95.5t-224 264.5t-76 390t76 390t224 264.5t363 95.5q251 0 410 -128.5t218 -344.5l-150 -39q-46 171 -165 271t-313 100q-169 0 -281 -77t-168.5 -214.5t-58.5 -317.5
q-1 -180 55.5 -317t170 -214.5t282.5 -77.5q194 0 313 100.5t165 270.5l150 -39q-59 -216 -218 -344.5t-410 -128.5z" />
    <glyph glyph-name="ccircumflex" unicode="&#x109;" horiz-adv-x="1107" 
d="M293 1250l230 270h136l229 -270h-150l-147 173l-148 -173h-150zM588 -30q-163 0 -276 73t-171.5 201.5t-60.5 295.5q2 170 62 298.5t173 200t274 71.5q164 0 285.5 -80t166.5 -219l-144 -46q-38 97 -120.5 150.5t-188.5 53.5q-119 0 -197 -54.5t-116 -151.5t-39 -223
q2 -194 90 -311.5t262 -117.5q110 0 187.5 50.5t117.5 147.5l148 -44q-60 -144 -176 -219.5t-277 -75.5z" />
    <glyph glyph-name="Cdotaccent" unicode="&#x10a;" horiz-adv-x="1431" 
d="M654 1669v171h171v-171h-171zM723 -30q-215 0 -363 95.5t-224 264.5t-76 390t76 390t224 264.5t363 95.5q251 0 410 -128.5t218 -344.5l-150 -39q-46 171 -165 271t-313 100q-169 0 -281 -77t-168.5 -214.5t-58.5 -317.5q-1 -180 55.5 -317t170 -214.5t282.5 -77.5
q194 0 313 100.5t165 270.5l150 -39q-59 -216 -218 -344.5t-410 -128.5z" />
    <glyph glyph-name="cdotaccent" unicode="&#x10b;" horiz-adv-x="1107" 
d="M521 1309v171h171v-171h-171zM588 -30q-163 0 -276 73t-171.5 201.5t-60.5 295.5q2 170 62 298.5t173 200t274 71.5q164 0 285.5 -80t166.5 -219l-144 -46q-38 97 -120.5 150.5t-188.5 53.5q-119 0 -197 -54.5t-116 -151.5t-39 -223q2 -194 90 -311.5t262 -117.5
q110 0 187.5 50.5t117.5 147.5l148 -44q-60 -144 -176 -219.5t-277 -75.5z" />
    <glyph glyph-name="Ccaron" unicode="&#x10c;" horiz-adv-x="1431" 
d="M463 1880h150l148 -173l147 173h150l-229 -270h-136zM723 -30q-215 0 -363 95.5t-224 264.5t-76 390t76 390t224 264.5t363 95.5q251 0 410 -128.5t218 -344.5l-150 -39q-46 171 -165 271t-313 100q-169 0 -281 -77t-168.5 -214.5t-58.5 -317.5q-1 -180 55.5 -317
t170 -214.5t282.5 -77.5q194 0 313 100.5t165 270.5l150 -39q-59 -216 -218 -344.5t-410 -128.5z" />
    <glyph glyph-name="ccaron" unicode="&#x10d;" horiz-adv-x="1107" 
d="M291 1520h150l147 -173l147 173h150l-229 -270h-136zM588 -30q-163 0 -276 73t-171.5 201.5t-60.5 295.5q2 170 62 298.5t173 200t274 71.5q164 0 285.5 -80t166.5 -219l-144 -46q-38 97 -120.5 150.5t-188.5 53.5q-119 0 -197 -54.5t-116 -151.5t-39 -223
q2 -194 90 -311.5t262 -117.5q110 0 187.5 50.5t117.5 147.5l148 -44q-60 -144 -176 -219.5t-277 -75.5z" />
    <glyph glyph-name="Dcaron" unicode="&#x10e;" horiz-adv-x="1343" 
d="M292 1880h150l147 -173l148 173h150l-230 -270h-136zM140 0v1440h437q23 0 78.5 -1t106.5 -8q164 -23 274 -122t165 -252t55 -337t-55 -337t-165 -252t-274 -122q-50 -6 -107 -7.5t-78 -1.5h-437zM292 141h285q41 0 88.5 2.5t81.5 9.5q126 22 203.5 102t113.5 200.5
t36 264.5q0 145 -36 266t-114 200t-203 101q-34 7 -82.5 9.5t-87.5 2.5h-285v-1158z" />
    <glyph glyph-name="dcaron" unicode="&#x10f;" horiz-adv-x="1436" 
d="M559 -30q-151 0 -258 75.5t-164 204.5t-57 291q0 161 56.5 290t162.5 204t254 75q152 0 256 -74t157.5 -202.5t53.5 -292.5q0 -161 -53 -290.5t-156 -205t-252 -75.5zM574 107q115 0 190 56t112 154.5t37 223.5q0 127 -37 224.5t-111.5 152.5t-187.5 55q-116 0 -192 -57
t-112.5 -155t-36.5 -220q0 -123 37.5 -221.5t112.5 -155.5t188 -57zM913 0v813h-16v627h148v-1440h-132zM1247 1034l9 73q40 -3 58 16t22 51t2 69h-91v211h171v-251q0 -92 -46.5 -138t-124.5 -31z" />
    <glyph glyph-name="Dcroat" unicode="&#x110;" horiz-adv-x="1331" 
d="M20 657v126h630v-126h-630zM128 0v1440h437q23 0 78.5 -1t106.5 -8q164 -23 274 -122t165 -252t55 -337t-55 -337t-165 -252t-274 -122q-50 -6 -107 -7.5t-78 -1.5h-437zM280 141h285q41 0 88.5 2.5t81.5 9.5q126 22 203.5 102t113.5 200.5t36 264.5q0 145 -36 266
t-114 200t-203 101q-34 7 -82.5 9.5t-87.5 2.5h-285v-1158z" />
    <glyph glyph-name="dcroat" unicode="&#x111;" horiz-adv-x="1185" 
d="M683 1187v125h502v-125h-502zM559 -30q-151 0 -258 75.5t-164 204.5t-57 291q0 161 56.5 290t162.5 204t254 75q152 0 256 -74t157.5 -202.5t53.5 -292.5q0 -161 -53 -290.5t-156 -205t-252 -75.5zM574 107q115 0 190 56t112 154.5t37 223.5q0 127 -37 224.5
t-111.5 152.5t-187.5 55q-116 0 -192 -57t-112.5 -155t-36.5 -220q0 -123 37.5 -221.5t112.5 -155.5t188 -57zM913 0v813h-16v627h148v-1440h-132z" />
    <glyph glyph-name="Emacron" unicode="&#x112;" horiz-adv-x="1140" 
d="M343 1680v125h501v-125h-501zM140 0v1440h900v-141h-753v-498h633v-141h-633v-519h753v-141h-900z" />
    <glyph glyph-name="emacron" unicode="&#x113;" horiz-adv-x="1169" 
d="M361 1320v125h501v-125h-501zM597 -30q-158 0 -273.5 70t-179.5 197t-64 298q0 177 63 306t177.5 199t270.5 70q160 0 273 -73.5t171 -210.5t53 -327h-150v52q-4 210 -90.5 317t-252.5 107q-174 0 -266.5 -113t-92.5 -322q0 -204 92.5 -316.5t262.5 -112.5
q116 0 202.5 53.5t136.5 154.5l137 -53q-64 -141 -188.5 -218.5t-281.5 -77.5zM184 499v123h825v-123h-825z" />
    <glyph glyph-name="Edotaccent" unicode="&#x116;" horiz-adv-x="1140" 
d="M511 1669v171h170v-171h-170zM140 0v1440h900v-141h-753v-498h633v-141h-633v-519h753v-141h-900z" />
    <glyph glyph-name="edotaccent" unicode="&#x117;" horiz-adv-x="1169" 
d="M507 1309v171h170v-171h-170zM597 -30q-158 0 -273.5 70t-179.5 197t-64 298q0 177 63 306t177.5 199t270.5 70q160 0 273 -73.5t171 -210.5t53 -327h-150v52q-4 210 -90.5 317t-252.5 107q-174 0 -266.5 -113t-92.5 -322q0 -204 92.5 -316.5t262.5 -112.5
q116 0 202.5 53.5t136.5 154.5l137 -53q-64 -141 -188.5 -218.5t-281.5 -77.5zM184 499v123h825v-123h-825z" />
    <glyph glyph-name="Eogonek" unicode="&#x118;" horiz-adv-x="1140" 
d="M877 -482q-54 0 -97 27.5t-69 72t-26 95.5q0 65 37.5 132.5t99.5 130.5t139 112l79 -88q-61 -37 -112.5 -85.5t-83 -99.5t-31.5 -94q0 -37 23 -60.5t53 -23.5q23 0 47.5 13.5t44.5 35.5l65 -79q-34 -44 -78.5 -66.5t-90.5 -22.5zM140 0v1440h900v-141h-753v-498h633v-141
h-633v-519h753v-141h-900z" />
    <glyph glyph-name="eogonek" unicode="&#x119;" horiz-adv-x="1169" 
d="M894 -463q-59 -25 -119.5 -10.5t-99.5 56.5q-37 41 -46 97t11 115q15 44 40 87.5t52 80.5q18 25 56 69t79 97t68 106l113 -6q-22 -43 -53 -90t-63 -91.5t-58.5 -79.5t-38.5 -55q-26 -40 -47.5 -80.5t-31.5 -75.5q-6 -22 -5.5 -47t18.5 -44q34 -34 76.5 -20.5t74.5 41.5
l66 -80q-17 -21 -40 -39t-52 -31zM597 -30q-158 0 -273.5 70t-179.5 197t-64 298q0 177 63 306t177.5 199t270.5 70q160 0 273 -73.5t171 -210.5t53 -327h-150v52q-4 210 -90.5 317t-252.5 107q-174 0 -266.5 -113t-92.5 -322q0 -204 92.5 -316.5t262.5 -112.5
q116 0 202.5 53.5t136.5 154.5l137 -53q-64 -141 -188.5 -218.5t-281.5 -77.5zM184 499v123h825v-123h-825z" />
    <glyph glyph-name="Ecaron" unicode="&#x11a;" horiz-adv-x="1140" 
d="M299 1880h150l147 -173l147 173h150l-229 -270h-136zM140 0v1440h900v-141h-753v-498h633v-141h-633v-519h753v-141h-900z" />
    <glyph glyph-name="ecaron" unicode="&#x11b;" horiz-adv-x="1169" 
d="M293 1520h150l147 -173l147 173h150l-229 -270h-136zM597 -30q-158 0 -273.5 70t-179.5 197t-64 298q0 177 63 306t177.5 199t270.5 70q160 0 273 -73.5t171 -210.5t53 -327h-150v52q-4 210 -90.5 317t-252.5 107q-174 0 -266.5 -113t-92.5 -322q0 -204 92.5 -316.5
t262.5 -112.5q116 0 202.5 53.5t136.5 154.5l137 -53q-64 -141 -188.5 -218.5t-281.5 -77.5zM184 499v123h825v-123h-825z" />
    <glyph glyph-name="Gcircumflex" unicode="&#x11c;" horiz-adv-x="1410" 
d="M405 1610l229 270h136l229 -270h-150l-147 173l-147 -173h-150zM717 -30q-152 0 -274 53t-207.5 151t-130.5 236.5t-45 309.5q0 226 78.5 394.5t225.5 261.5t353 93q230 0 374.5 -107.5t201.5 -288.5l-148 -36q-47 132 -154.5 211t-267.5 79q-169 1 -281 -75.5
t-168.5 -214t-57.5 -317.5t55.5 -316.5t169.5 -214t282 -78.5q155 0 256 60t153.5 172t59.5 265h-332v126h486q3 -23 3.5 -48.5t0.5 -36.5q0 -195 -70 -348.5t-210.5 -242t-352.5 -88.5z" />
    <glyph glyph-name="gcircumflex" unicode="&#x11d;" horiz-adv-x="1184" 
d="M278 1250l230 270h136l229 -270h-150l-147 173l-148 -173h-150zM569 -510q-83 0 -163.5 24.5t-148.5 77t-114 136.5l133 74q45 -90 126.5 -129.5t166.5 -39.5q117 0 189.5 43.5t105.5 128.5t32 212v288h17v775h131v-1065q0 -46 -2.5 -88.5t-9.5 -83.5
q-19 -121 -78.5 -199t-156 -116t-228.5 -38zM559 -30q-151 0 -258 75.5t-164 204.5t-57 291q0 161 56.5 290t162.5 204t254 75q152 0 256 -74t157.5 -202.5t53.5 -292.5q0 -161 -53 -290.5t-156 -205t-252 -75.5zM574 107q115 0 190 56t112 154.5t37 223.5q0 127 -37 224.5
t-111.5 152.5t-187.5 55q-116 0 -192 -57t-112.5 -155t-36.5 -220q0 -123 37.5 -221.5t112.5 -155.5t188 -57z" />
    <glyph glyph-name="Gbreve" unicode="&#x11e;" horiz-adv-x="1410" 
d="M723 1568q-72 0 -130 35t-93 93.5t-35 129.5h122q0 -56 40 -96t96 -40q57 0 96.5 40t39.5 96h122q0 -71 -35 -129.5t-93.5 -93.5t-129.5 -35zM717 -30q-152 0 -274 53t-207.5 151t-130.5 236.5t-45 309.5q0 226 78.5 394.5t225.5 261.5t353 93q230 0 374.5 -107.5
t201.5 -288.5l-148 -36q-47 132 -154.5 211t-267.5 79q-169 1 -281 -75.5t-168.5 -214t-57.5 -317.5t55.5 -316.5t169.5 -214t282 -78.5q155 0 256 60t153.5 172t59.5 265h-332v126h486q3 -23 3.5 -48.5t0.5 -36.5q0 -195 -70 -348.5t-210.5 -242t-352.5 -88.5z" />
    <glyph glyph-name="gbreve" unicode="&#x11f;" horiz-adv-x="1184" 
d="M633 1208q-72 0 -130.5 35t-93 93.5t-34.5 129.5h122q0 -56 40 -96t96 -40q57 0 96.5 40t39.5 96h122q0 -71 -35 -129.5t-93.5 -93.5t-129.5 -35zM569 -510q-83 0 -163.5 24.5t-148.5 77t-114 136.5l133 74q45 -90 126.5 -129.5t166.5 -39.5q117 0 189.5 43.5
t105.5 128.5t32 212v288h17v775h131v-1065q0 -46 -2.5 -88.5t-9.5 -83.5q-19 -121 -78.5 -199t-156 -116t-228.5 -38zM559 -30q-151 0 -258 75.5t-164 204.5t-57 291q0 161 56.5 290t162.5 204t254 75q152 0 256 -74t157.5 -202.5t53.5 -292.5q0 -161 -53 -290.5t-156 -205
t-252 -75.5zM574 107q115 0 190 56t112 154.5t37 223.5q0 127 -37 224.5t-111.5 152.5t-187.5 55q-116 0 -192 -57t-112.5 -155t-36.5 -220q0 -123 37.5 -221.5t112.5 -155.5t188 -57z" />
    <glyph glyph-name="Gdotaccent" unicode="&#x120;" horiz-adv-x="1410" 
d="M653 1669v171h170v-171h-170zM717 -30q-152 0 -274 53t-207.5 151t-130.5 236.5t-45 309.5q0 226 78.5 394.5t225.5 261.5t353 93q230 0 374.5 -107.5t201.5 -288.5l-148 -36q-47 132 -154.5 211t-267.5 79q-169 1 -281 -75.5t-168.5 -214t-57.5 -317.5t55.5 -316.5
t169.5 -214t282 -78.5q155 0 256 60t153.5 172t59.5 265h-332v126h486q3 -23 3.5 -48.5t0.5 -36.5q0 -195 -70 -348.5t-210.5 -242t-352.5 -88.5z" />
    <glyph glyph-name="gdotaccent" unicode="&#x121;" horiz-adv-x="1184" 
d="M543 1309v171h170v-171h-170zM569 -510q-83 0 -163.5 24.5t-148.5 77t-114 136.5l133 74q45 -90 126.5 -129.5t166.5 -39.5q117 0 189.5 43.5t105.5 128.5t32 212v288h17v775h131v-1065q0 -46 -2.5 -88.5t-9.5 -83.5q-19 -121 -78.5 -199t-156 -116t-228.5 -38zM559 -30
q-151 0 -258 75.5t-164 204.5t-57 291q0 161 56.5 290t162.5 204t254 75q152 0 256 -74t157.5 -202.5t53.5 -292.5q0 -161 -53 -290.5t-156 -205t-252 -75.5zM574 107q115 0 190 56t112 154.5t37 223.5q0 127 -37 224.5t-111.5 152.5t-187.5 55q-116 0 -192 -57t-112.5 -155
t-36.5 -220q0 -123 37.5 -221.5t112.5 -155.5t188 -57z" />
    <glyph glyph-name="uni0122" unicode="&#x122;" horiz-adv-x="1410" 
d="M649 -550v78q12 0 34 7t39.5 26.5t15.5 55.5h-89v165h166v-165q0 -84 -52 -125.5t-114 -41.5zM717 -30q-152 0 -274 53t-207.5 151t-130.5 236.5t-45 309.5q0 226 78.5 394.5t225.5 261.5t353 93q230 0 374.5 -107.5t201.5 -288.5l-148 -36q-47 132 -154.5 211t-267.5 79
q-169 1 -281 -75.5t-168.5 -214t-57.5 -317.5t55.5 -316.5t169.5 -214t282 -78.5q155 0 256 60t153.5 172t59.5 265h-332v126h486q3 -23 3.5 -48.5t0.5 -36.5q0 -195 -70 -348.5t-210.5 -242t-352.5 -88.5z" />
    <glyph glyph-name="uni0123" unicode="&#x123;" horiz-adv-x="1184" 
d="M689 1641v-78q-12 0 -34 -7t-39.5 -26t-15.5 -55h89v-166h-166v166q0 84 52 125t114 41zM569 -510q-83 0 -163.5 24.5t-148.5 77t-114 136.5l133 74q45 -90 126.5 -129.5t166.5 -39.5q117 0 189.5 43.5t105.5 128.5t32 212v288h17v775h131v-1065q0 -46 -2.5 -88.5
t-9.5 -83.5q-19 -121 -78.5 -199t-156 -116t-228.5 -38zM559 -30q-151 0 -258 75.5t-164 204.5t-57 291q0 161 56.5 290t162.5 204t254 75q152 0 256 -74t157.5 -202.5t53.5 -292.5q0 -161 -53 -290.5t-156 -205t-252 -75.5zM574 107q115 0 190 56t112 154.5t37 223.5
q0 127 -37 224.5t-111.5 152.5t-187.5 55q-116 0 -192 -57t-112.5 -155t-36.5 -220q0 -123 37.5 -221.5t112.5 -155.5t188 -57z" />
    <glyph glyph-name="Hcircumflex" unicode="&#x124;" horiz-adv-x="1369" 
d="M386 1610l229 270h136l230 -270h-150l-148 173l-147 -173h-150zM140 0v1440h147v-649h796v649h146v-1440h-146v650h-796v-650h-147z" />
    <glyph glyph-name="hcircumflex" unicode="&#x125;" horiz-adv-x="1188" 
d="M-93 1610l229 270h136l230 -270h-150l-148 173l-147 -173h-150zM920 0v551q0 90 -17 165.5t-54.5 132t-97 87.5t-144.5 31q-78 0 -137.5 -27t-100 -77.5t-61.5 -122.5t-21 -164l-104 23q0 166 58 279t160 171t234 58q97 0 169.5 -30t123 -81t81.5 -116.5t45 -139
t14 -146.5v-594h-148zM139 0v1440h133v-813h15v-627h-148z" />
    <glyph glyph-name="Hbar" unicode="&#x126;" horiz-adv-x="1409" 
d="M160 0v1440h147v-649h796v649h146v-1440h-146v650h-796v-650h-147zM20 993v141h1369v-141h-1369z" />
    <glyph glyph-name="hbar" unicode="&#x127;" horiz-adv-x="1188" 
d="M12 1187v125h501v-125h-501zM920 0v551q0 90 -17 165.5t-54.5 132t-97 87.5t-144.5 31q-78 0 -137.5 -27t-100 -77.5t-61.5 -122.5t-21 -164l-104 23q0 166 58 279t160 171t234 58q97 0 169.5 -30t123 -81t81.5 -116.5t45 -139t14 -146.5v-594h-148zM139 0v1440h133v-813
h15v-627h-148z" />
    <glyph glyph-name="Itilde" unicode="&#x128;" 
d="M383 1612q-42 0 -82 17t-77.5 39.5t-71 39.5t-63.5 17q-38 0 -49 -30.5t0 -65.5h-104q-22 89 18 151.5t128 62.5q43 0 83 -17t77.5 -39.5t71.5 -39.5t63 -17q36 0 49 30t1 69h104q22 -88 -18 -152.5t-130 -64.5zM160 0v1440h147v-1440h-147z" />
    <glyph glyph-name="itilde" unicode="&#x129;" 
d="M383 1252q-42 0 -82 17t-77.5 39.5t-71 39.5t-63.5 17q-38 0 -49 -30.5t0 -65.5h-104q-22 89 18 151.5t128 62.5q43 0 83 -17t77.5 -39.5t71.5 -39.5t63 -17q36 0 49 30t1 69h104q22 -88 -18 -152.5t-130 -64.5zM160 0v1080h147v-1080h-147z" />
    <glyph glyph-name="Imacron" unicode="&#x12a;" 
d="M-17 1680v125h501v-125h-501zM160 0v1440h147v-1440h-147z" />
    <glyph glyph-name="imacron" unicode="&#x12b;" 
d="M-17 1320v125h501v-125h-501zM160 0v1080h147v-1080h-147z" />
    <glyph glyph-name="Iogonek" unicode="&#x12e;" 
d="M143 -482q-53 0 -96.5 27.5t-69 72t-25.5 95.5q0 65 37 132.5t99.5 130.5t138.5 112l80 -88q-61 -37 -113 -85.5t-83 -99.5t-31 -94q0 -37 23 -60.5t53 -23.5q23 0 47 13.5t45 35.5l65 -79q-34 -44 -78.5 -66.5t-91.5 -22.5zM160 0v1440h147v-1440h-147z" />
    <glyph glyph-name="iogonek" unicode="&#x12f;" 
d="M143 -482q-53 0 -96.5 27.5t-69 72t-25.5 95.5q0 65 37 132.5t99.5 130.5t138.5 112l80 -88q-61 -37 -113 -85.5t-83 -99.5t-31 -94q0 -37 23 -60.5t53 -23.5q23 0 47 13.5t45 35.5l65 -79q-34 -44 -78.5 -66.5t-91.5 -22.5zM160 1285v165h147v-165h-147zM160 0v1080h147
v-1080h-147z" />
    <glyph glyph-name="Idotaccent" unicode="&#x130;" 
d="M148 1669v171h171v-171h-171zM160 0v1440h147v-1440h-147z" />
    <glyph glyph-name="dotlessi" unicode="&#x131;" 
d="M160 0v1080h147v-1080h-147z" />
    <glyph glyph-name="Jcircumflex" unicode="&#x134;" horiz-adv-x="927" 
d="M393 1610l230 270h136l229 -270h-150l-147 173l-148 -173h-150zM386 -29q-144 0 -247 80t-139 214l147 35q18 -79 83.5 -133.5t154.5 -54.5q56 0 113.5 27t90.5 89q22 43 25.5 93.5t3.5 121.5v997h148v-997q0 -60 -1 -108.5t-10.5 -93t-35.5 -89.5q-52 -91 -139.5 -136
t-193.5 -45z" />
    <glyph glyph-name="jcircumflex" unicode="&#x135;" horiz-adv-x="501" 
d="M-20 -480v142h61q73 0 116.5 37.5t43.5 125.5v1255h146v-1292q0 -135 -64.5 -201.5t-197.5 -66.5h-105zM-25 1250l229 270h136l230 -270h-150l-148 173l-147 -173h-150z" />
    <glyph glyph-name="uni0136" unicode="&#x136;" horiz-adv-x="1187" 
d="M545 -550v78q12 0 34 7t39 26.5t15 55.5h-88v165h165v-165q0 -84 -51.5 -125.5t-113.5 -41.5zM140 0v1440h147v-680l657 680h188l-671 -695l726 -745h-192l-708 720v-720h-147z" />
    <glyph glyph-name="uni0137" unicode="&#x137;" horiz-adv-x="992" 
d="M461 -550v78q12 0 34 7t39.5 26.5t15.5 55.5h-89v165h166v-165q0 -84 -52 -125.5t-114 -41.5zM139 0l1 1440h148v-880l482 520h196l-506 -540l572 -540h-214l-530 520v-520h-149z" />
    <glyph glyph-name="Lacute" unicode="&#x139;" horiz-adv-x="1021" 
d="M299 1610h-126l119 310h126zM160 0v1440h147v-1299h684v-141h-831z" />
    <glyph glyph-name="lacute" unicode="&#x13a;" 
d="M299 1610h-126l119 310h126zM160 0v1470h147v-1470h-147z" />
    <glyph glyph-name="uni013B" unicode="&#x13b;" horiz-adv-x="1021" 
d="M493 -550v78q12 0 34 7t39 26.5t15 55.5h-88v165h165v-165q0 -84 -51.5 -125.5t-113.5 -41.5zM160 0v1440h147v-1299h684v-141h-831z" />
    <glyph glyph-name="uni013C" unicode="&#x13c;" 
d="M151 -550v78q12 0 34 7t39 26.5t15 55.5h-88v165h165v-165q0 -84 -51.5 -125.5t-113.5 -41.5zM160 0v1470h147v-1470h-147z" />
    <glyph glyph-name="Lcaron" unicode="&#x13d;" horiz-adv-x="1021" 
d="M160 0v1440h147v-1299h684v-141h-831zM641 1034l9 73q40 -3 58 16t22 51t2 69h-91v211h171v-251q0 -92 -46.5 -138t-124.5 -31z" />
    <glyph glyph-name="lcaron" unicode="&#x13e;" horiz-adv-x="663" 
d="M160 0v1470h147v-1470h-147zM473 1034l9 73q40 -3 58 16t22 51t2 69h-91v211h171v-251q0 -92 -46.5 -138t-124.5 -31z" />
    <glyph glyph-name="Lslash" unicode="&#x141;" horiz-adv-x="1034" 
d="M84 407v165l591 339v-164zM173 0v1440h147v-1299h684v-141h-831z" />
    <glyph glyph-name="lslash" unicode="&#x142;" horiz-adv-x="752" 
d="M81 483v165l590 339v-164zM303 0v1470h147v-1470h-147z" />
    <glyph glyph-name="Nacute" unicode="&#x143;" horiz-adv-x="1369" 
d="M766 1610h-126l120 310h126zM140 0v1440h148l793 -1180v1180h148v-1440h-148l-793 1181v-1181h-148z" />
    <glyph glyph-name="nacute" unicode="&#x144;" horiz-adv-x="1188" 
d="M681 1250h-126l119 310h126zM920 0v551q0 90 -17 165.5t-54.5 132t-97 87.5t-144.5 31q-78 0 -137.5 -27t-100 -77.5t-61.5 -122.5t-21 -164l-104 23q0 166 58 279t160 171t234 58q97 0 169.5 -30t123 -81t81.5 -116.5t45 -139t14 -146.5v-594h-148zM139 0v1080h133v-266
h15v-814h-148z" />
    <glyph glyph-name="uni0145" unicode="&#x145;" horiz-adv-x="1369" 
d="M622 -550v78q12 0 34 7t39.5 26.5t15.5 55.5h-89v165h165v-165q0 -84 -51.5 -125.5t-113.5 -41.5zM140 0v1440h148l793 -1180v1180h148v-1440h-148l-793 1181v-1181h-148z" />
    <glyph glyph-name="uni0146" unicode="&#x146;" horiz-adv-x="1188" 
d="M524 -550v78q12 0 34 7t39.5 26.5t15.5 55.5h-89v165h165v-165q0 -84 -51.5 -125.5t-113.5 -41.5zM920 0v551q0 90 -17 165.5t-54.5 132t-97 87.5t-144.5 31q-78 0 -137.5 -27t-100 -77.5t-61.5 -122.5t-21 -164l-104 23q0 166 58 279t160 171t234 58q97 0 169.5 -30
t123 -81t81.5 -116.5t45 -139t14 -146.5v-594h-148zM139 0v1080h133v-266h15v-814h-148z" />
    <glyph glyph-name="Ncaron" unicode="&#x147;" horiz-adv-x="1369" 
d="M411 1880h150l148 -173l147 173h150l-229 -270h-136zM140 0v1440h148l793 -1180v1180h148v-1440h-148l-793 1181v-1181h-148z" />
    <glyph glyph-name="ncaron" unicode="&#x148;" horiz-adv-x="1188" 
d="M300 1520h150l147 -173l148 173h150l-230 -270h-136zM920 0v551q0 90 -17 165.5t-54.5 132t-97 87.5t-144.5 31q-78 0 -137.5 -27t-100 -77.5t-61.5 -122.5t-21 -164l-104 23q0 166 58 279t160 171t234 58q97 0 169.5 -30t123 -81t81.5 -116.5t45 -139t14 -146.5v-594
h-148zM139 0v1080h133v-266h15v-814h-148z" />
    <glyph glyph-name="Eng" unicode="&#x14a;" horiz-adv-x="1369" 
d="M1081 1440h148v-1625q0 -109 -49 -161t-153 -52q-26 0 -52 3t-56 10v122q24 -3 39 -4.5t28 -1.5q61 0 86.5 31t25.5 112q0 51 -15 97.5t-52 103.5l-743 1106v-1181h-148v1440h148l793 -1180v1180z" />
    <glyph glyph-name="eng" unicode="&#x14b;" horiz-adv-x="1188" 
d="M929 -393q-53 -8 -92.5 -4.5t-77.5 12.5v118q40 -5 70 -3t50.5 17t30.5 47.5t10 88.5v120h148v-188q0 -96 -38 -146t-101 -62zM920 0v551q0 90 -17 165.5t-54.5 132t-97 87.5t-144.5 31q-78 0 -137.5 -27t-100 -77.5t-61.5 -122.5t-21 -164l-104 23q0 166 58 279t160 171
t234 58q97 0 169.5 -30t123 -81t81.5 -116.5t45 -139t14 -146.5v-594h-148zM139 0v1080h133v-266h15v-814h-148z" />
    <glyph glyph-name="Omacron" unicode="&#x14c;" horiz-adv-x="1447" 
d="M473 1680v125h501v-125h-501zM723 -30q-215 0 -363 95.5t-224 264.5t-76 390t76 390t224 264.5t363 95.5q216 0 363.5 -95.5t224 -264.5t76.5 -390t-76.5 -390t-224 -264.5t-363.5 -95.5zM723 111q169 0 282 77t169.5 214.5t56.5 317.5t-56.5 317t-169.5 214t-282 78
q-169 0 -281 -77t-168.5 -214.5t-57.5 -317.5t55.5 -316.5t169.5 -214t282 -78.5z" />
    <glyph glyph-name="omacron" unicode="&#x14d;" horiz-adv-x="1183" 
d="M341 1320v125h502v-125h-502zM591 -30q-161 0 -275 73t-175 202t-61 296q0 170 62 298t176.5 199.5t272.5 71.5q162 0 276.5 -72.5t175 -201t60.5 -295.5q0 -170 -61 -298.5t-176 -200.5t-275 -72zM591 111q180 0 268 119.5t88 310.5q0 196 -88.5 312t-267.5 116
q-121 0 -199.5 -54.5t-117 -151t-38.5 -222.5q0 -195 90 -312.5t265 -117.5z" />
    <glyph glyph-name="Ohungarumlaut" unicode="&#x150;" horiz-adv-x="1447" 
d="M969 1610h-126l119 310h126zM594 1610h-126l119 310h126zM723 -30q-215 0 -363 95.5t-224 264.5t-76 390t76 390t224 264.5t363 95.5q216 0 363.5 -95.5t224 -264.5t76.5 -390t-76.5 -390t-224 -264.5t-363.5 -95.5zM723 111q169 0 282 77t169.5 214.5t56.5 317.5
t-56.5 317t-169.5 214t-282 78q-169 0 -281 -77t-168.5 -214.5t-57.5 -317.5t55.5 -316.5t169.5 -214t282 -78.5z" />
    <glyph glyph-name="ohungarumlaut" unicode="&#x151;" horiz-adv-x="1183" 
d="M838 1250h-126l119 310h126zM463 1250h-126l120 310h126zM591 -30q-161 0 -275 73t-175 202t-61 296q0 170 62 298t176.5 199.5t272.5 71.5q162 0 276.5 -72.5t175 -201t60.5 -295.5q0 -170 -61 -298.5t-176 -200.5t-275 -72zM591 111q180 0 268 119.5t88 310.5
q0 196 -88.5 312t-267.5 116q-121 0 -199.5 -54.5t-117 -151t-38.5 -222.5q0 -195 90 -312.5t265 -117.5z" />
    <glyph glyph-name="OE" unicode="&#x152;" horiz-adv-x="2239" 
d="M723 -30q-215 0 -363 95.5t-224 264.5t-76 390t76 390t224 264.5t363 95.5q216 0 363.5 -95.5t224 -264.5t76.5 -390t-76.5 -390t-224 -264.5t-363.5 -95.5zM723 111q169 0 282 77t169.5 214.5t56.5 317.5t-56.5 317t-169.5 214t-282 78q-169 0 -281 -77t-168.5 -214.5
t-57.5 -317.5t55.5 -316.5t169.5 -214t282 -78.5zM1239 0v1440h900v-141h-753v-498h633v-141h-633v-519h753v-141h-900z" />
    <glyph glyph-name="oe" unicode="&#x153;" horiz-adv-x="2038" 
d="M1466 -30q-158 0 -273.5 70t-179.5 197t-64 298q0 177 63 306t177.5 199t270.5 70q160 0 273 -73.5t171 -210.5t53 -327h-150v52q-4 210 -90.5 317t-252.5 107q-174 0 -266.5 -113t-92.5 -322q0 -204 92.5 -316.5t262.5 -112.5q116 0 202.5 53.5t136.5 154.5l137 -53
q-64 -141 -188.5 -218.5t-281.5 -77.5zM1053 499v123h825v-123h-825zM591 -30q-161 0 -275 73t-175 202t-61 296q0 170 62 298t176.5 199.5t272.5 71.5q162 0 276.5 -72.5t175 -201t60.5 -295.5q0 -170 -61 -298.5t-176 -200.5t-275 -72zM591 111q180 0 268 119.5t88 310.5
q0 196 -88.5 312t-267.5 116q-121 0 -199.5 -54.5t-117 -151t-38.5 -222.5q0 -195 90 -312.5t265 -117.5z" />
    <glyph glyph-name="Racute" unicode="&#x154;" horiz-adv-x="1261" 
d="M644 1610h-126l119 310h126zM140 0v1440h556q21 0 47.5 -1.5t53.5 -6.5q113 -17 191.5 -78.5t119 -154.5t40.5 -206q0 -163 -86 -283t-246 -151l-51 -12h-478v-547h-147zM1012 0l-284 586l141 54l312 -640h-169zM287 687h405q18 0 42 2t47 7q74 16 121.5 61t71 107
t23.5 129t-23.5 129.5t-71 107.5t-121.5 61q-23 5 -47 6.5t-42 1.5h-405v-612z" />
    <glyph glyph-name="racute" unicode="&#x155;" horiz-adv-x="721" 
d="M399 1250h-126l119 310h126zM140 0v1080h132v-260l-26 34q18 48 47 88.5t63 66.5q42 37 98 56.5t113 23t104 -8.5v-138q-59 15 -129 7t-129 -56q-54 -42 -81 -100.5t-36 -124t-9 -129.5v-539h-147z" />
    <glyph glyph-name="uni0156" unicode="&#x156;" horiz-adv-x="1261" 
d="M534 -550v78q12 0 34 7t39.5 26.5t15.5 55.5h-89v165h165v-165q0 -84 -51.5 -125.5t-113.5 -41.5zM140 0v1440h556q21 0 47.5 -1.5t53.5 -6.5q113 -17 191.5 -78.5t119 -154.5t40.5 -206q0 -163 -86 -283t-246 -151l-51 -12h-478v-547h-147zM1012 0l-284 586l141 54
l312 -640h-169zM287 687h405q18 0 42 2t47 7q74 16 121.5 61t71 107t23.5 129t-23.5 129.5t-71 107.5t-121.5 61q-23 5 -47 6.5t-42 1.5h-405v-612z" />
    <glyph glyph-name="uni0157" unicode="&#x157;" horiz-adv-x="721" 
d="M131 -550v78q12 0 34 7t39.5 26.5t15.5 55.5h-89v165h166v-165q0 -84 -52 -125.5t-114 -41.5zM140 0v1080h132v-260l-26 34q18 48 47 88.5t63 66.5q42 37 98 56.5t113 23t104 -8.5v-138q-59 15 -129 7t-129 -56q-54 -42 -81 -100.5t-36 -124t-9 -129.5v-539h-147z" />
    <glyph glyph-name="Rcaron" unicode="&#x158;" horiz-adv-x="1261" 
d="M278 1880h150l147 -173l148 173h150l-230 -270h-136zM140 0v1440h556q21 0 47.5 -1.5t53.5 -6.5q113 -17 191.5 -78.5t119 -154.5t40.5 -206q0 -163 -86 -283t-246 -151l-51 -12h-478v-547h-147zM1012 0l-284 586l141 54l312 -640h-169zM287 687h405q18 0 42 2t47 7
q74 16 121.5 61t71 107t23.5 129t-23.5 129.5t-71 107.5t-121.5 61q-23 5 -47 6.5t-42 1.5h-405v-612z" />
    <glyph glyph-name="rcaron" unicode="&#x159;" horiz-adv-x="721" 
d="M107 1520h150l148 -173l147 173h150l-229 -270h-136zM140 0v1080h132v-260l-26 34q18 48 47 88.5t63 66.5q42 37 98 56.5t113 23t104 -8.5v-138q-59 15 -129 7t-129 -56q-54 -42 -81 -100.5t-36 -124t-9 -129.5v-539h-147z" />
    <glyph glyph-name="Sacute" unicode="&#x15a;" horiz-adv-x="1233" 
d="M688 1610h-126l120 310h126zM640 -30q-151 0 -271.5 50.5t-199 143.5t-102.5 221l150 25q36 -140 152 -219.5t277 -79.5q106 0 190 33.5t132 95.5t48 147q0 56 -20 95.5t-53 65.5t-72 43.5t-76 28.5l-365 109q-66 19 -122 48.5t-97.5 71t-64.5 97.5t-23 128q0 122 64 211
t175 137t253 47q144 0 257.5 -51t187.5 -145.5t98 -223.5l-154 -28q-15 94 -69 163t-137.5 106.5t-183.5 38.5q-97 0 -172.5 -32.5t-119.5 -88.5t-44 -128q0 -73 40.5 -117t100 -69t115.5 -41l282 -83q44 -12 103.5 -34.5t116 -64t93.5 -108.5t37 -170q0 -100 -39.5 -179
t-111 -133t-167 -82.5t-208.5 -28.5z" />
    <glyph glyph-name="sacute" unicode="&#x15b;" horiz-adv-x="1050" 
d="M592 1250h-126l119 310h126zM543 -29q-190 0 -312.5 82t-150.5 228l150 25q24 -92 109.5 -146.5t211.5 -54.5q123 0 194 51.5t71 140.5q0 50 -22.5 81.5t-91.5 58.5t-206 64q-147 40 -230 80t-118 92.5t-35 128.5q0 92 52 161.5t144 108t214 38.5t218.5 -39.5
t155.5 -110.5t70 -165l-150 -27q-15 95 -94.5 150.5t-201.5 57.5q-115 3 -187 -43.5t-72 -123.5q0 -43 26 -73.5t94.5 -57.5t195.5 -59q149 -38 234 -80t121 -99t36 -141q0 -153 -113.5 -240.5t-312.5 -87.5z" />
    <glyph glyph-name="Scircumflex" unicode="&#x15c;" horiz-adv-x="1233" 
d="M334 1610l230 270h136l229 -270h-150l-147 173l-148 -173h-150zM640 -30q-151 0 -271.5 50.5t-199 143.5t-102.5 221l150 25q36 -140 152 -219.5t277 -79.5q106 0 190 33.5t132 95.5t48 147q0 56 -20 95.5t-53 65.5t-72 43.5t-76 28.5l-365 109q-66 19 -122 48.5
t-97.5 71t-64.5 97.5t-23 128q0 122 64 211t175 137t253 47q144 0 257.5 -51t187.5 -145.5t98 -223.5l-154 -28q-15 94 -69 163t-137.5 106.5t-183.5 38.5q-97 0 -172.5 -32.5t-119.5 -88.5t-44 -128q0 -73 40.5 -117t100 -69t115.5 -41l282 -83q44 -12 103.5 -34.5t116 -64
t93.5 -108.5t37 -170q0 -100 -39.5 -179t-111 -133t-167 -82.5t-208.5 -28.5z" />
    <glyph glyph-name="scircumflex" unicode="&#x15d;" horiz-adv-x="1050" 
d="M246 1250l230 270h136l229 -270h-150l-147 173l-148 -173h-150zM543 -29q-190 0 -312.5 82t-150.5 228l150 25q24 -92 109.5 -146.5t211.5 -54.5q123 0 194 51.5t71 140.5q0 50 -22.5 81.5t-91.5 58.5t-206 64q-147 40 -230 80t-118 92.5t-35 128.5q0 92 52 161.5
t144 108t214 38.5t218.5 -39.5t155.5 -110.5t70 -165l-150 -27q-15 95 -94.5 150.5t-201.5 57.5q-115 3 -187 -43.5t-72 -123.5q0 -43 26 -73.5t94.5 -57.5t195.5 -59q149 -38 234 -80t121 -99t36 -141q0 -153 -113.5 -240.5t-312.5 -87.5z" />
    <glyph glyph-name="Scedilla" unicode="&#x15e;" horiz-adv-x="1233" 
d="M611 -480q-36 0 -67.5 9t-59.5 22l38 102q46 -18 77 -18q39 0 60.5 24.5t21.5 53.5q0 46 -41 66.5t-92 35.5l74 206h109l-51 -140q54 -24 87.5 -65.5t33.5 -106.5q0 -81 -56.5 -135t-133.5 -54zM640 -30q-151 0 -271.5 50.5t-199 143.5t-102.5 221l150 25
q36 -140 152 -219.5t277 -79.5q106 0 190 33.5t132 95.5t48 147q0 56 -20 95.5t-53 65.5t-72 43.5t-76 28.5l-365 109q-66 19 -122 48.5t-97.5 71t-64.5 97.5t-23 128q0 122 64 211t175 137t253 47q144 0 257.5 -51t187.5 -145.5t98 -223.5l-154 -28q-15 94 -69 163
t-137.5 106.5t-183.5 38.5q-97 0 -172.5 -32.5t-119.5 -88.5t-44 -128q0 -73 40.5 -117t100 -69t115.5 -41l282 -83q44 -12 103.5 -34.5t116 -64t93.5 -108.5t37 -170q0 -100 -39.5 -179t-111 -133t-167 -82.5t-208.5 -28.5z" />
    <glyph glyph-name="scedilla" unicode="&#x15f;" horiz-adv-x="1050" 
d="M512 -480q-36 0 -67.5 9t-59.5 22l38 102q46 -18 77 -18q39 0 60 24.5t21 53.5q0 46 -40.5 66.5t-91.5 35.5l74 206h108l-50 -140q53 -24 86.5 -65.5t33.5 -106.5q0 -81 -56 -135t-133 -54zM543 -29q-190 0 -312.5 82t-150.5 228l150 25q24 -92 109.5 -146.5t211.5 -54.5
q123 0 194 51.5t71 140.5q0 50 -22.5 81.5t-91.5 58.5t-206 64q-147 40 -230 80t-118 92.5t-35 128.5q0 92 52 161.5t144 108t214 38.5t218.5 -39.5t155.5 -110.5t70 -165l-150 -27q-15 95 -94.5 150.5t-201.5 57.5q-115 3 -187 -43.5t-72 -123.5q0 -43 26 -73.5t94.5 -57.5
t195.5 -59q149 -38 234 -80t121 -99t36 -141q0 -153 -113.5 -240.5t-312.5 -87.5z" />
    <glyph glyph-name="Scaron" unicode="&#x160;" horiz-adv-x="1233" 
d="M345 1880h150l147 -173l147 173h150l-229 -270h-136zM640 -30q-151 0 -271.5 50.5t-199 143.5t-102.5 221l150 25q36 -140 152 -219.5t277 -79.5q106 0 190 33.5t132 95.5t48 147q0 56 -20 95.5t-53 65.5t-72 43.5t-76 28.5l-365 109q-66 19 -122 48.5t-97.5 71
t-64.5 97.5t-23 128q0 122 64 211t175 137t253 47q144 0 257.5 -51t187.5 -145.5t98 -223.5l-154 -28q-15 94 -69 163t-137.5 106.5t-183.5 38.5q-97 0 -172.5 -32.5t-119.5 -88.5t-44 -128q0 -73 40.5 -117t100 -69t115.5 -41l282 -83q44 -12 103.5 -34.5t116 -64
t93.5 -108.5t37 -170q0 -100 -39.5 -179t-111 -133t-167 -82.5t-208.5 -28.5z" />
    <glyph glyph-name="scaron" unicode="&#x161;" horiz-adv-x="1050" 
d="M249 1520h150l147 -173l147 173h150l-229 -270h-136zM543 -29q-190 0 -312.5 82t-150.5 228l150 25q24 -92 109.5 -146.5t211.5 -54.5q123 0 194 51.5t71 140.5q0 50 -22.5 81.5t-91.5 58.5t-206 64q-147 40 -230 80t-118 92.5t-35 128.5q0 92 52 161.5t144 108t214 38.5
t218.5 -39.5t155.5 -110.5t70 -165l-150 -27q-15 95 -94.5 150.5t-201.5 57.5q-115 3 -187 -43.5t-72 -123.5q0 -43 26 -73.5t94.5 -57.5t195.5 -59q149 -38 234 -80t121 -99t36 -141q0 -153 -113.5 -240.5t-312.5 -87.5z" />
    <glyph glyph-name="uni0162" unicode="&#x162;" horiz-adv-x="1193" 
d="M523 0v1299h-503v141h1153v-141h-503v-1299h-147zM534 -489q-36 0 -67.5 9t-59.5 22l38 102q46 -18 77 -18q39 0 60.5 24.5t21.5 53.5q0 46 -41 66.5t-92 35.5l74 206h109l-51 -140q54 -24 87.5 -65.5t33.5 -106.5q0 -81 -56.5 -135t-133.5 -54z" />
    <glyph glyph-name="uni0163" unicode="&#x163;" horiz-adv-x="801" 
d="M428 -480q-36 0 -67.5 9t-59.5 22l38 102q46 -18 77 -18q39 0 60 24.5t21 53.5q0 46 -40.5 66.5t-91.5 35.5l74 206h108l-50 -140q53 -24 86.5 -65.5t33.5 -106.5q0 -81 -56 -135t-133 -54zM728 0q-91 -19 -179.5 -15t-158 38t-105.5 106q-29 60 -31.5 121.5t-2.5 140.5
v989h146v-983q0 -68 1.5 -113.5t20.5 -80.5q36 -67 114.5 -80t194.5 6v-129zM20 954v126h708v-126h-708z" />
    <glyph glyph-name="Tcaron" unicode="&#x164;" horiz-adv-x="1193" 
d="M298 1880h150l147 -173l148 173h150l-230 -270h-136zM523 0v1299h-503v141h1153v-141h-503v-1299h-147z" />
    <glyph glyph-name="tcaron" unicode="&#x165;" horiz-adv-x="801" 
d="M728 0q-91 -19 -179.5 -15t-158 38t-105.5 106q-29 60 -31.5 121.5t-2.5 140.5v989h146v-983q0 -68 1.5 -113.5t20.5 -80.5q36 -67 114.5 -80t194.5 6v-129zM20 954v126h708v-126h-708zM619 1228l9 73q40 -3 58 16t22 51t2 69h-91v211h171v-251q0 -92 -46.5 -138
t-124.5 -31z" />
    <glyph glyph-name="Tbar" unicode="&#x166;" horiz-adv-x="1193" 
d="M157 647v146h880v-146h-880zM523 0v1299h-503v141h1153v-141h-503v-1299h-147z" />
    <glyph glyph-name="tbar" unicode="&#x167;" horiz-adv-x="841" 
d="M20 484v126h721v-126h-721zM728 0q-91 -19 -179.5 -15t-158 38t-105.5 106q-29 60 -31.5 121.5t-2.5 140.5v989h146v-983q0 -68 1.5 -113.5t20.5 -80.5q36 -67 114.5 -80t194.5 6v-129zM20 954v126h708v-126h-708z" />
    <glyph glyph-name="Utilde" unicode="&#x168;" horiz-adv-x="1404" 
d="M702 -30q-165 0 -291.5 68t-198.5 192t-72 290v919l148 1v-901q0 -112 38 -193.5t99.5 -134t134.5 -77.5t142 -25q70 0 143 25t134 77.5t99 134t38 193.5v901h148v-920q0 -166 -72 -289.5t-198.5 -192t-291.5 -68.5zM862 1612q-42 0 -82 17t-77.5 39.5t-71 39.5t-63.5 17
q-39 0 -49.5 -30.5t0.5 -65.5h-104q-23 89 17.5 151.5t128.5 62.5q43 0 83 -17t77.5 -39.5t71 -39.5t63.5 -17q35 0 48.5 30t0.5 69h104q23 -88 -17 -152.5t-130 -64.5z" />
    <glyph glyph-name="utilde" unicode="&#x169;" horiz-adv-x="1188" 
d="M553 -27q-97 0 -169.5 30t-123 81t-81.5 116.5t-45 139t-14 146.5v594h148v-551q0 -89 17 -165t54.5 -132.5t97 -87.5t144.5 -31q78 0 137.5 27t100 77.5t61.5 123t21 163.5l104 -23q0 -166 -58 -279t-160 -171t-234 -58zM916 0v266h-15v814h147v-1080h-132zM757 1252
q-42 0 -82 17t-77.5 39.5t-71 39.5t-63.5 17q-39 0 -49.5 -30.5t0.5 -65.5h-104q-23 89 17.5 151.5t128.5 62.5q43 0 83 -17t77.5 -39.5t71 -39.5t63.5 -17q35 0 48.5 30t0.5 69h104q23 -88 -17 -152.5t-130 -64.5z" />
    <glyph glyph-name="Umacron" unicode="&#x16a;" horiz-adv-x="1404" 
d="M451 1680v125h502v-125h-502zM702 -30q-165 0 -291.5 68t-198.5 192t-72 290v919l148 1v-901q0 -112 38 -193.5t99.5 -134t134.5 -77.5t142 -25q70 0 143 25t134 77.5t99 134t38 193.5v901h148v-920q0 -166 -72 -289.5t-198.5 -192t-291.5 -68.5z" />
    <glyph glyph-name="umacron" unicode="&#x16b;" horiz-adv-x="1188" 
d="M333 1320v125h501v-125h-501zM553 -27q-97 0 -169.5 30t-123 81t-81.5 116.5t-45 139t-14 146.5v594h148v-551q0 -89 17 -165t54.5 -132.5t97 -87.5t144.5 -31q78 0 137.5 27t100 77.5t61.5 123t21 163.5l104 -23q0 -166 -58 -279t-160 -171t-234 -58zM916 0v266h-15v814
h147v-1080h-132z" />
    <glyph glyph-name="Ubreve" unicode="&#x16c;" horiz-adv-x="1404" 
d="M702 1568q-71 0 -129.5 35t-93.5 93.5t-35 129.5h122q0 -56 40 -96t96 -40q57 0 96.5 40t39.5 96h122q0 -71 -34.5 -129.5t-93.5 -93.5t-130 -35zM702 -30q-165 0 -291.5 68t-198.5 192t-72 290v919l148 1v-901q0 -112 38 -193.5t99.5 -134t134.5 -77.5t142 -25
q70 0 143 25t134 77.5t99 134t38 193.5v901h148v-920q0 -166 -72 -289.5t-198.5 -192t-291.5 -68.5z" />
    <glyph glyph-name="ubreve" unicode="&#x16d;" horiz-adv-x="1188" 
d="M584 1208q-71 0 -130 35t-93.5 93.5t-34.5 129.5h122q0 -56 40 -96t96 -40q57 0 96.5 40t39.5 96h122q0 -71 -34.5 -129.5t-93.5 -93.5t-130 -35zM553 -27q-97 0 -169.5 30t-123 81t-81.5 116.5t-45 139t-14 146.5v594h148v-551q0 -89 17 -165t54.5 -132.5t97 -87.5
t144.5 -31q78 0 137.5 27t100 77.5t61.5 123t21 163.5l104 -23q0 -166 -58 -279t-160 -171t-234 -58zM916 0v266h-15v814h147v-1080h-132z" />
    <glyph glyph-name="Uring" unicode="&#x16e;" horiz-adv-x="1404" 
d="M705 1557q-60 0 -110 29.5t-80 79t-30 110.5q0 60 30 110t80 79.5t110 29.5q61 0 110.5 -29.5t79 -79.5t29.5 -110q0 -61 -29.5 -110.5t-79 -79t-110.5 -29.5zM705 1666q46 0 78 32.5t32 77.5q0 46 -32 78t-78 32q-45 0 -77.5 -32t-32.5 -78q0 -45 32.5 -77.5t77.5 -32.5
zM702 -30q-165 0 -291.5 68t-198.5 192t-72 290v919l148 1v-901q0 -112 38 -193.5t99.5 -134t134.5 -77.5t142 -25q70 0 143 25t134 77.5t99 134t38 193.5v901h148v-920q0 -166 -72 -289.5t-198.5 -192t-291.5 -68.5z" />
    <glyph glyph-name="uring" unicode="&#x16f;" horiz-adv-x="1188" 
d="M585 1197q-60 0 -110 29.5t-80 79t-30 110.5q0 60 30 110t80 79.5t110 29.5q61 0 110.5 -29.5t79 -79.5t29.5 -110q0 -61 -29.5 -110.5t-79 -79t-110.5 -29.5zM585 1306q46 0 78 32.5t32 77.5q0 46 -32 78t-78 32q-45 0 -77.5 -32t-32.5 -78q0 -45 32.5 -77.5t77.5 -32.5
zM553 -27q-97 0 -169.5 30t-123 81t-81.5 116.5t-45 139t-14 146.5v594h148v-551q0 -89 17 -165t54.5 -132.5t97 -87.5t144.5 -31q78 0 137.5 27t100 77.5t61.5 123t21 163.5l104 -23q0 -166 -58 -279t-160 -171t-234 -58zM916 0v266h-15v814h147v-1080h-132z" />
    <glyph glyph-name="Uhungarumlaut" unicode="&#x170;" horiz-adv-x="1404" 
d="M936 1610h-126l119 310h126zM561 1610h-126l119 310h126zM702 -30q-165 0 -291.5 68t-198.5 192t-72 290v919l148 1v-901q0 -112 38 -193.5t99.5 -134t134.5 -77.5t142 -25q70 0 143 25t134 77.5t99 134t38 193.5v901h148v-920q0 -166 -72 -289.5t-198.5 -192
t-291.5 -68.5z" />
    <glyph glyph-name="uhungarumlaut" unicode="&#x171;" horiz-adv-x="1188" 
d="M825 1250h-126l119 310h126zM450 1250h-126l120 310h126zM553 -27q-97 0 -169.5 30t-123 81t-81.5 116.5t-45 139t-14 146.5v594h148v-551q0 -89 17 -165t54.5 -132.5t97 -87.5t144.5 -31q78 0 137.5 27t100 77.5t61.5 123t21 163.5l104 -23q0 -166 -58 -279t-160 -171
t-234 -58zM916 0v266h-15v814h147v-1080h-132z" />
    <glyph glyph-name="Uogonek" unicode="&#x172;" horiz-adv-x="1404" 
d="M702 -30q-165 0 -291.5 68t-198.5 192t-72 290v919l148 1v-901q0 -112 38 -193.5t99.5 -134t134.5 -77.5t142 -25q70 0 143 25t134 77.5t99 134t38 193.5v901h148v-920q0 -166 -72 -289.5t-198.5 -192t-291.5 -68.5zM876 -415q-54 0 -97 27.5t-69 72t-26 95.5
q0 65 37.5 132.5t99.5 130.5t139 112l79 -88q-61 -37 -112.5 -85.5t-83 -99.5t-31.5 -94q0 -37 23 -60.5t53 -23.5q23 0 47.5 13.5t44.5 35.5l65 -79q-34 -44 -78.5 -66.5t-90.5 -22.5z" />
    <glyph glyph-name="uogonek" unicode="&#x173;" horiz-adv-x="1188" 
d="M885 -482q-54 0 -97 27.5t-69 72t-26 95.5q0 65 37.5 132.5t99.5 130.5t139 112l79 -88q-61 -37 -112.5 -85.5t-83 -99.5t-31.5 -94q0 -37 23 -60.5t53 -23.5q23 0 47.5 13.5t44.5 35.5l65 -79q-34 -44 -78.5 -66.5t-90.5 -22.5zM553 -27q-97 0 -169.5 30t-123 81
t-81.5 116.5t-45 139t-14 146.5v594h148v-551q0 -89 17 -165t54.5 -132.5t97 -87.5t144.5 -31q78 0 137.5 27t100 77.5t61.5 123t21 163.5l104 -23q0 -166 -58 -279t-160 -171t-234 -58zM916 0v266h-15v814h147v-1080h-132z" />
    <glyph glyph-name="Wcircumflex" unicode="&#x174;" horiz-adv-x="1871" 
d="M638 1610l229 270h136l230 -270h-150l-148 173l-147 -173h-150zM449 0l-416 1440h153l337 -1189l335 1188l154 1l337 -1189l335 1189h154l-415 -1440h-148l-340 1181l-338 -1181h-148z" />
    <glyph glyph-name="wcircumflex" unicode="&#x175;" horiz-adv-x="1535" 
d="M469 1250l229 270h136l229 -270h-150l-147 173l-147 -173h-150zM370 0l-330 1081l147 -1l256 -839l257 839h134l257 -839l258 839h146l-330 -1080h-128l-270 860l-269 -860h-128z" />
    <glyph glyph-name="Ycircumflex" unicode="&#x176;" horiz-adv-x="1112" 
d="M258 1610l229 270h136l230 -270h-150l-148 173l-147 -173h-150zM483 0v603l-483 837h170l387 -669l385 669h170l-481 -837v-603h-148z" />
    <glyph glyph-name="ycircumflex" unicode="&#x177;" horiz-adv-x="1055" 
d="M245 1250l229 270h136l229 -270h-150l-147 173l-147 -173h-150zM294 -480l209 567l3 -168l-473 1161h156l388 -971h-64l358 971h150l-580 -1560h-147z" />
    <glyph glyph-name="Ydieresis" unicode="&#x178;" horiz-adv-x="1112" 
d="M667 1651v160h160v-160h-160zM286 1651v160h160v-160h-160zM483 0v603l-483 837h170l387 -669l385 669h170l-481 -837v-603h-148z" />
    <glyph glyph-name="Zacute" unicode="&#x179;" horiz-adv-x="1228" 
d="M669 1610h-126l120 310h126zM100 0v31l787 1268h-767v141h1008v-34l-783 -1266h776v-140h-1021z" />
    <glyph glyph-name="zacute" unicode="&#x17a;" horiz-adv-x="1059" 
d="M625 1250h-126l120 310h126zM40 0v31l697 912h-645v137h887v-34l-696 -909h658v-137h-901z" />
    <glyph glyph-name="Zdotaccent" unicode="&#x17b;" horiz-adv-x="1228" 
d="M574 1669v171h171v-171h-171zM100 0v31l787 1268h-767v141h1008v-34l-783 -1266h776v-140h-1021z" />
    <glyph glyph-name="zdotaccent" unicode="&#x17c;" horiz-adv-x="1059" 
d="M456 1309v171h171v-171h-171zM40 0v31l697 912h-645v137h887v-34l-696 -909h658v-137h-901z" />
    <glyph glyph-name="Zcaron" unicode="&#x17d;" horiz-adv-x="1228" 
d="M353 1880h150l147 -173l147 173h150l-229 -270h-136zM100 0v31l787 1268h-767v141h1008v-34l-783 -1266h776v-140h-1021z" />
    <glyph glyph-name="zcaron" unicode="&#x17e;" horiz-adv-x="1059" 
d="M254 1520h150l147 -173l148 173h150l-230 -270h-136zM40 0v31l697 912h-645v137h887v-34l-696 -909h658v-137h-901z" />
    <glyph glyph-name="florin" unicode="&#x192;" horiz-adv-x="1436" 
d="M321 -30q-57 0 -109.5 12t-91 26.5t-53.5 20.5l62 127q7 -3 35.5 -14t68 -21t81.5 -10q39 0 79 14.5t76 48t62.5 89t39.5 136.5l112 685q12 77 41 138.5t71.5 108t93.5 77.5t108 46.5t114 15.5q61 0 115.5 -11.5t92 -26.5t50.5 -23l-69 -123q1 0 -23.5 10.5t-66.5 21.5
t-93 11q-34 0 -76.5 -9t-85 -33t-74.5 -70t-45 -121l-118 -719q-20 -121 -63 -200.5t-99.5 -124.5t-118 -63.5t-116.5 -18.5zM261 657v126h966v-126h-966z" />
    <glyph glyph-name="Ohorn" unicode="&#x1a0;" horiz-adv-x="1447" 
d="M1123 1623h123q13 -82 -2.5 -146t-74.5 -102q-47 -29 -121 -34t-141 36v72q50 -14 84 -15t64 14q54 26 63.5 73.5t4.5 101.5zM723 -30q-215 0 -363 95.5t-224 264.5t-76 390t76 390t224 264.5t363 95.5q216 0 363.5 -95.5t224 -264.5t76.5 -390t-76.5 -390t-224 -264.5
t-363.5 -95.5zM723 111q169 0 282 77t169.5 214.5t56.5 317.5t-56.5 317t-169.5 214t-282 78q-169 0 -281 -77t-168.5 -214.5t-57.5 -317.5t55.5 -316.5t169.5 -214t282 -78.5z" />
    <glyph glyph-name="ohorn" unicode="&#x1a1;" horiz-adv-x="1183" 
d="M974 1260h123q12 -82 -3.5 -146t-73.5 -102q-47 -29 -121 -34t-141 36v72q50 -14 84 -15t64 14q54 26 63 73.5t5 101.5zM591 -30q-161 0 -275 73t-175 202t-61 296q0 170 62 298t176.5 199.5t272.5 71.5q162 0 276.5 -72.5t175 -201t60.5 -295.5q0 -170 -61 -298.5
t-176 -200.5t-275 -72zM591 111q180 0 268 119.5t88 310.5q0 196 -88.5 312t-267.5 116q-121 0 -199.5 -54.5t-117 -151t-38.5 -222.5q0 -195 90 -312.5t265 -117.5z" />
    <glyph glyph-name="Uhorn" unicode="&#x1af;" horiz-adv-x="1404" 
d="M1337 1620h123q12 -82 -3.5 -145.5t-72.5 -101.5q-46 -31 -104.5 -33.5t-118.5 5.5v95q22 1 44.5 1t45.5 5q68 14 79 65.5t7 108.5zM702 -30q-165 0 -291.5 68t-198.5 192t-72 290v919l148 1v-901q0 -112 38 -193.5t99.5 -134t134.5 -77.5t142 -25q70 0 143 25t134 77.5
t99 134t38 193.5v901h148v-920q0 -166 -72 -289.5t-198.5 -192t-291.5 -68.5z" />
    <glyph glyph-name="uhorn" unicode="&#x1b0;" horiz-adv-x="1188" 
d="M1101 1260h123q12 -82 -3.5 -145.5t-72.5 -101.5q-46 -31 -104.5 -33.5t-118.5 5.5v95q22 1 44.5 1t45.5 5q68 14 79 65.5t7 108.5zM553 -27q-97 0 -169.5 30t-123 81t-81.5 116.5t-45 139t-14 146.5v594h148v-551q0 -89 17 -165t54.5 -132.5t97 -87.5t144.5 -31
q78 0 137.5 27t100 77.5t61.5 123t21 163.5l104 -23q0 -166 -58 -279t-160 -171t-234 -58zM916 0v266h-15v814h147v-1080h-132z" />
    <glyph glyph-name="uni0218" unicode="&#x218;" horiz-adv-x="1233" 
d="M583 -550v78q12 0 34 7t39.5 26.5t15.5 55.5h-89v165h166v-165q0 -84 -52 -125.5t-114 -41.5zM640 -30q-151 0 -271.5 50.5t-199 143.5t-102.5 221l150 25q36 -140 152 -219.5t277 -79.5q106 0 190 33.5t132 95.5t48 147q0 56 -20 95.5t-53 65.5t-72 43.5t-76 28.5
l-365 109q-66 19 -122 48.5t-97.5 71t-64.5 97.5t-23 128q0 122 64 211t175 137t253 47q144 0 257.5 -51t187.5 -145.5t98 -223.5l-154 -28q-15 94 -69 163t-137.5 106.5t-183.5 38.5q-97 0 -172.5 -32.5t-119.5 -88.5t-44 -128q0 -73 40.5 -117t100 -69t115.5 -41l282 -83
q44 -12 103.5 -34.5t116 -64t93.5 -108.5t37 -170q0 -100 -39.5 -179t-111 -133t-167 -82.5t-208.5 -28.5z" />
    <glyph glyph-name="uni0219" unicode="&#x219;" horiz-adv-x="1050" 
d="M451 -550v78q12 0 34 7t39.5 26.5t15.5 55.5h-89v165h166v-165q0 -84 -52 -125.5t-114 -41.5zM543 -29q-190 0 -312.5 82t-150.5 228l150 25q24 -92 109.5 -146.5t211.5 -54.5q123 0 194 51.5t71 140.5q0 50 -22.5 81.5t-91.5 58.5t-206 64q-147 40 -230 80t-118 92.5
t-35 128.5q0 92 52 161.5t144 108t214 38.5t218.5 -39.5t155.5 -110.5t70 -165l-150 -27q-15 95 -94.5 150.5t-201.5 57.5q-115 3 -187 -43.5t-72 -123.5q0 -43 26 -73.5t94.5 -57.5t195.5 -59q149 -38 234 -80t121 -99t36 -141q0 -153 -113.5 -240.5t-312.5 -87.5z" />
    <glyph glyph-name="uni021A" unicode="&#x21a;" horiz-adv-x="1193" 
d="M514 -550v78q12 0 34 7t39.5 26.5t15.5 55.5h-89v165h165v-165q0 -84 -51.5 -125.5t-113.5 -41.5zM523 0v1299h-503v141h1153v-141h-503v-1299h-147z" />
    <glyph glyph-name="uni021B" unicode="&#x21b;" horiz-adv-x="801" 
d="M335 -550v78q12 0 34 7t39 26.5t15 55.5h-88v165h165v-165q0 -84 -51.5 -125.5t-113.5 -41.5zM728 0q-91 -19 -179.5 -15t-158 38t-105.5 106q-29 60 -31.5 121.5t-2.5 140.5v989h146v-983q0 -68 1.5 -113.5t20.5 -80.5q36 -67 114.5 -80t194.5 6v-129zM20 954v126h708
v-126h-708z" />
    <glyph glyph-name="uni0259" unicode="&#x259;" horiz-adv-x="1169" 
d="M573 1110q157 0 273 -70t179.5 -197t63.5 -298q0 -177 -63 -306t-177.5 -199t-270.5 -70q-160 0 -273 73.5t-171 210.5t-52 327h149v-52q4 -209 91 -316.5t252 -107.5q175 0 267 113t92 322q0 205 -92 317t-263 112q-115 0 -202 -53t-137 -155l-137 53q65 142 189.5 219
t281.5 77zM985 581v-123h-825v123h825z" />
    <glyph glyph-name="circumflex" unicode="&#x2c6;" horiz-adv-x="1048" 
d="M225 1610l230 270h136l229 -270h-150l-147 173l-148 -173h-150z" />
    <glyph glyph-name="caron" unicode="&#x2c7;" horiz-adv-x="1032" 
d="M225 1880h150l148 -173l147 173h150l-229 -270h-136z" />
    <glyph glyph-name="breve" unicode="&#x2d8;" horiz-adv-x="996" 
d="M498 1568q-71 0 -130 35t-93.5 93.5t-34.5 129.5h122q0 -56 40 -96t96 -40q57 0 96.5 40t39.5 96h122q0 -71 -34.5 -129.5t-93.5 -93.5t-130 -35z" />
    <glyph glyph-name="dotaccent" unicode="&#x2d9;" horiz-adv-x="651" 
d="M240 1669v171h171v-171h-171z" />
    <glyph glyph-name="ring" unicode="&#x2da;" horiz-adv-x="964" 
d="M482 1557q-60 0 -110 29.5t-79.5 79t-29.5 110.5q0 60 29.5 110t79.5 79.5t110 29.5q61 0 110.5 -29.5t79 -79.5t29.5 -110q0 -61 -29.5 -110.5t-79 -79t-110.5 -29.5zM482 1666q47 0 78.5 32.5t31.5 77.5q0 46 -31.5 78t-78.5 32q-45 0 -77.5 -32t-32.5 -78
q0 -45 32.5 -77.5t77.5 -32.5z" />
    <glyph glyph-name="ogonek" unicode="&#x2db;" horiz-adv-x="842" 
d="M431 -482q-54 0 -97 27.5t-69 72t-26 95.5q0 65 37.5 132.5t99.5 130.5t139 112l79 -88q-61 -37 -112.5 -85.5t-83 -99.5t-31.5 -94q0 -37 23 -60.5t53 -23.5q23 0 47.5 13.5t44.5 35.5l65 -79q-34 -44 -78.5 -66.5t-90.5 -22.5z" />
    <glyph glyph-name="tilde" unicode="&#x2dc;" horiz-adv-x="1080" 
d="M690 1612q-42 0 -82 17t-77.5 39.5t-71 39.5t-63.5 17q-39 0 -49.5 -30.5t0.5 -65.5h-104q-23 89 17.5 151.5t128.5 62.5q43 0 83 -17t77.5 -39.5t71 -39.5t63.5 -17q35 0 48.5 30t0.5 69h104q23 -88 -17 -152.5t-130 -64.5z" />
    <glyph glyph-name="hungarumlaut" unicode="&#x2dd;" horiz-adv-x="1061" 
d="M716 1610h-126l119 310h126zM341 1610h-126l120 310h126z" />
    <glyph glyph-name="uni0374" unicode="&#x374;" horiz-adv-x="525" 
d="M246 1130h-126l119 310h126z" />
    <glyph glyph-name="uni0375" unicode="&#x375;" horiz-adv-x="525" 
d="M246 -422h-126l119 310h126z" />
    <glyph glyph-name="uni037E" unicode="&#x37e;" horiz-adv-x="611" 
d="M220 -209l9 73q40 -3 58 16t22 51t2 69h-91v211h171v-251q0 -92 -46.5 -138t-124.5 -31zM220 909v171h171v-171h-171z" />
    <glyph glyph-name="tonos" unicode="&#x384;" horiz-adv-x="1200" 
d="M593 1130h-126l119 310h126z" />
    <glyph glyph-name="dieresistonos" unicode="&#x385;" horiz-adv-x="1200" 
d="M784 1290v160h150v-160h-150zM267 1290v160h150v-160h-150zM619 1250h-126l119 310h126z" />
    <glyph glyph-name="Alphatonos" unicode="&#x386;" horiz-adv-x="1279" 
d="M51 0l496 1440h195l496 -1440h-153l-471 1358h58l-468 -1358h-153zM272 349v138h744v-138h-744zM232 1130h-126l119 310h126z" />
    <glyph glyph-name="anoteleia" unicode="&#x387;" horiz-adv-x="1200" 
d="M229 523q-45 0 -77 30.5t-32 76.5t32 76.5t77 30.5q43 0 73.5 -30.5t30.5 -76.5t-30.5 -76.5t-73.5 -30.5z" />
    <glyph glyph-name="Epsilontonos" unicode="&#x388;" horiz-adv-x="1416" 
d="M416 0v1440h900v-141h-753v-498h633v-141h-633v-519h753v-141h-900zM164 1130h-126l119 310h126z" />
    <glyph glyph-name="Etatonos" unicode="&#x389;" horiz-adv-x="1637" 
d="M408 0v1440h147v-649h796v649h146v-1440h-146v650h-796v-650h-147zM156 1130h-126l119 310h126z" />
    <glyph glyph-name="Iotatonos" unicode="&#x38a;" horiz-adv-x="692" 
d="M405 0v1440h147v-1440h-147zM156 1130h-126l119 310h126z" />
    <glyph glyph-name="Omicrontonos" unicode="&#x38c;" horiz-adv-x="1641" 
d="M918 -30q-215 0 -363 95.5t-224 264.5t-76 390t76 390t224 264.5t363 95.5q216 0 363.5 -95.5t224 -264.5t76.5 -390t-76.5 -390t-224 -264.5t-363.5 -95.5zM918 111q169 0 282 77t169.5 214.5t56.5 317.5t-56.5 317t-169.5 214t-282 78q-169 0 -281 -77t-168.5 -214.5
t-57.5 -317.5t55.5 -316.5t169.5 -214t282 -78.5zM176 1130h-126l119 310h126z" />
    <glyph glyph-name="Upsilontonos" unicode="&#x38e;" horiz-adv-x="1488" 
d="M859 0v603l-483 837h170l387 -669l385 669h170l-481 -837v-603h-148zM190 1130h-126l119 310h126z" />
    <glyph glyph-name="Omegatonos" unicode="&#x38f;" horiz-adv-x="1670" 
d="M264 0v141h271q-127 102 -202.5 258t-75.5 356q0 151 45.5 281t131.5 227t208.5 151.5t277.5 54.5t278 -54.5t209 -151.5t131.5 -227t45.5 -281q0 -200 -75 -356t-203 -258h270v-141h-472l1 141q72 37 145.5 116.5t123.5 196.5t54 268q2 123 -31.5 232t-99.5 193
t-161 132t-216 48q-119 0 -213 -47.5t-159.5 -130.5t-100 -191t-34.5 -229q0 -118 30 -214t79 -170.5t106 -125.5t110 -78v-141h-474zM182 1130h-126l119 310h126z" />
    <glyph glyph-name="iotadieresistonos" unicode="&#x390;" horiz-adv-x="777" 
d="M472 -9q-66 9 -120.5 40t-89.5 96q-31 59 -33.5 120t-2.5 144v689h147v-683q0 -69 1 -113t21 -83q22 -39 55 -57t75 -23q43 -4 90.5 -2t88.5 10v-129q-36 -9 -77.5 -12.5t-82 -2.5t-72.5 6zM515 1290v160h150v-160h-150zM-2 1290v160h150v-160h-150zM350 1250h-126
l119 310h126z" />
    <glyph glyph-name="Alpha" unicode="&#x391;" horiz-adv-x="1267" 
d="M40 0l496 1440h195l496 -1440h-153l-471 1358h58l-468 -1358h-153zM261 349v138h744v-138h-744z" />
    <glyph glyph-name="Beta" unicode="&#x392;" horiz-adv-x="1226" 
d="M140 0v1440h556q121 0 211 -50t140 -134.5t50 -186.5q0 -116 -62 -206.5t-166 -125.5l-2 49q140 -40 220 -140t80 -242q0 -125 -53 -215.5t-149 -139.5t-223 -49h-602zM288 141h418q88 0 158 31.5t110.5 89.5t40.5 140q0 80 -37 144t-100.5 102.5t-144.5 38.5h-445v-546z
M288 826h407q69 0 126 31.5t90.5 86.5t33.5 127q0 102 -70.5 166t-179.5 64h-407v-475z" />
    <glyph glyph-name="Gamma" unicode="&#x393;" horiz-adv-x="1060" 
d="M140 0v1440h900v-141h-753v-1299h-147z" />
    <glyph glyph-name="uni0394" unicode="&#x394;" horiz-adv-x="1267" 
d="M150 0v141h969v-141h-969zM536 1440h195l496 -1440h-153l-442 1273l-439 -1273h-153z" />
    <glyph glyph-name="Epsilon" unicode="&#x395;" horiz-adv-x="1140" 
d="M140 0v1440h900v-141h-753v-498h633v-141h-633v-519h753v-141h-900z" />
    <glyph glyph-name="Zeta" unicode="&#x396;" horiz-adv-x="1228" 
d="M100 0v31l787 1268h-767v141h1008v-34l-783 -1266h776v-140h-1021z" />
    <glyph glyph-name="Eta" unicode="&#x397;" horiz-adv-x="1369" 
d="M140 0v1440h147v-649h796v649h146v-1440h-146v650h-796v-650h-147z" />
    <glyph glyph-name="Theta" unicode="&#x398;" horiz-adv-x="1447" 
d="M473 657v126h501v-126h-501zM723 -30q-215 0 -363 95.5t-224 264.5t-76 390t76 390t224 264.5t363 95.5q216 0 363.5 -95.5t224 -264.5t76.5 -390t-76.5 -390t-224 -264.5t-363.5 -95.5zM723 111q169 0 282 77t169.5 214.5t56.5 317.5t-56.5 317t-169.5 214t-282 78
q-169 0 -281 -77t-168.5 -214.5t-57.5 -317.5t55.5 -316.5t169.5 -214t282 -78.5z" />
    <glyph glyph-name="Iota" unicode="&#x399;" 
d="M160 0v1440h147v-1440h-147z" />
    <glyph glyph-name="Kappa" unicode="&#x39a;" horiz-adv-x="1187" 
d="M140 0v1440h147v-680l657 680h188l-671 -695l726 -745h-192l-708 720v-720h-147z" />
    <glyph glyph-name="Lambda" unicode="&#x39b;" horiz-adv-x="1207" 
d="M506 1440h195l496 -1440h-153l-442 1273l-439 -1273h-153z" />
    <glyph glyph-name="Mu" unicode="&#x39c;" horiz-adv-x="1681" 
d="M140 0v1440h135l566 -1211l563 1211h137v-1439h-140v1111l-513 -1112h-95l-512 1112v-1112h-141z" />
    <glyph glyph-name="Nu" unicode="&#x39d;" horiz-adv-x="1369" 
d="M140 0v1440h148l793 -1180v1180h148v-1440h-148l-793 1181v-1181h-148z" />
    <glyph glyph-name="Xi" unicode="&#x39e;" horiz-adv-x="1383" 
d="M140 1299v141h1103v-141h-1103zM140 0v141h1103v-141h-1103zM240 650v141h903v-141h-903z" />
    <glyph glyph-name="Omicron" unicode="&#x39f;" horiz-adv-x="1447" 
d="M723 -30q-215 0 -363 95.5t-224 264.5t-76 390t76 390t224 264.5t363 95.5q216 0 363.5 -95.5t224 -264.5t76.5 -390t-76.5 -390t-224 -264.5t-363.5 -95.5zM723 111q169 0 282 77t169.5 214.5t56.5 317.5t-56.5 317t-169.5 214t-282 78q-169 0 -281 -77t-168.5 -214.5
t-57.5 -317.5t55.5 -316.5t169.5 -214t282 -78.5z" />
    <glyph glyph-name="Pi" unicode="&#x3a0;" horiz-adv-x="1383" 
d="M140 0v1440h1103v-1440h-147v1299h-809v-1299h-147z" />
    <glyph glyph-name="Rho" unicode="&#x3a1;" horiz-adv-x="1208" 
d="M140 0v1440h556q21 0 47.5 -1.5t53.5 -6.5q113 -17 191.5 -78.5t119 -154.5t40.5 -206q0 -112 -41 -205t-119.5 -154.5t-190.5 -78.5q-27 -4 -53.5 -6t-47.5 -2h-409v-547h-147zM287 687h405q18 0 42 2t47 7q74 16 121.5 61t71 107t23.5 129t-23.5 129.5t-71 107.5
t-121.5 61q-23 5 -47 6.5t-42 1.5h-405v-612z" />
    <glyph glyph-name="Sigma" unicode="&#x3a3;" horiz-adv-x="1300" 
d="M140 0v135l576 585l-576 583v137h1020v-141h-813l556 -562v-34l-556 -562h788v-141h-995z" />
    <glyph glyph-name="Tau" unicode="&#x3a4;" horiz-adv-x="1193" 
d="M523 0v1299h-503v141h1153v-141h-503v-1299h-147z" />
    <glyph glyph-name="Upsilon" unicode="&#x3a5;" horiz-adv-x="1112" 
d="M483 0v603l-483 837h170l387 -669l385 669h170l-481 -837v-603h-148z" />
    <glyph glyph-name="Phi" unicode="&#x3a6;" horiz-adv-x="1421" 
d="M637 0v191q-111 -19 -214.5 10.5t-185 103t-129.5 189t-48 270.5t48 271t129.5 190.5t185 104t214.5 10.5v100h146v-100q111 19 215 -10.5t185.5 -104t129.5 -190.5t48 -271t-48 -270.5t-129.5 -189t-185.5 -103t-215 -10.5v-191h-146zM637 331v872q-95 14 -173.5 -13.5
t-134.5 -87.5t-86.5 -146.5t-30.5 -191.5t30.5 -190.5t86.5 -144.5t134.5 -85t173.5 -13zM783 331q96 -13 174 13.5t134.5 85t87 143.5t30.5 188q0 104 -30.5 190.5t-87 147.5t-134.5 89.5t-174 14.5v-872z" />
    <glyph glyph-name="Chi" unicode="&#x3a7;" horiz-adv-x="1212" 
d="M20 0l499 729l-486 711h178l395 -588l395 588h179l-486 -711l498 -729h-178l-408 605l-407 -605h-179z" />
    <glyph glyph-name="Psi" unicode="&#x3a8;" horiz-adv-x="1431" 
d="M642 0v350q-118 4 -212.5 44t-160.5 112.5t-99 174.5q-21 59 -25.5 109.5t-4.5 79.5v570h141v-492q0 -30 2 -80.5t15 -104.5q32 -128 122 -201t222 -75v953h147v-953q133 1 224.5 77t120.5 205q12 52 14 101.5t2 77.5v492h141v-570q0 -32 -4 -80t-26 -108
q-34 -102 -100.5 -175t-161 -113.5t-210.5 -43.5v-350h-147z" />
    <glyph glyph-name="uni03A9" unicode="&#x3a9;" horiz-adv-x="1447" 
d="M67 0v141h271q-127 102 -202.5 258t-75.5 356q0 151 45.5 281t131.5 227t208.5 151.5t277.5 54.5t278 -54.5t209 -151.5t131.5 -227t45.5 -281q0 -200 -75 -356t-203 -258h270v-141h-472l1 141q72 37 145.5 116.5t123.5 196.5t54 268q2 123 -31.5 232t-99.5 193t-161 132
t-216 48q-119 0 -213 -47.5t-159.5 -130.5t-100 -191t-34.5 -229q0 -118 30 -214t79 -170.5t106 -125.5t110 -78v-141h-474z" />
    <glyph glyph-name="Iotadieresis" unicode="&#x3aa;" 
d="M344 1651v160h160v-160h-160zM-37 1651v160h160v-160h-160zM160 0v1440h147v-1440h-147z" />
    <glyph glyph-name="Upsilondieresis" unicode="&#x3ab;" horiz-adv-x="1112" 
d="M667 1651v160h160v-160h-160zM286 1651v160h160v-160h-160zM483 0v603l-483 837h170l387 -669l385 669h170l-481 -837v-603h-148z" />
    <glyph glyph-name="alphatonos" unicode="&#x3ac;" horiz-adv-x="1218" 
d="M655 1250h-126l119 310h126zM561 -30q-153 0 -260.5 75.5t-164 204.5t-56.5 290q0 162 57 290.5t165 204t263 75.5q158 0 264.5 -84t143.5 -231l-27 -53v338h132v-1080h-132v341l27 -52q-37 -149 -146.5 -234t-265.5 -85zM576 107q114 0 188.5 56t111.5 154.5t37 223.5
q0 127 -37 224.5t-111.5 152.5t-187.5 55t-189 -55.5t-114 -153t-38 -223.5q0 -123 37.5 -221t113 -155.5t189.5 -57.5z" />
    <glyph glyph-name="epsilontonos" unicode="&#x3ad;" horiz-adv-x="1013" 
d="M539 1250h-126l119 310h126zM484 -30q-114 0 -205.5 40.5t-145 115t-53.5 177.5q0 62 22 122t67.5 103t116.5 56l-9 -55q-80 44 -124.5 111t-44.5 159q0 98 49.5 168t134 106.5t188.5 36.5q132 0 240.5 -46.5t188.5 -135.5l-94 -99q-58 62 -143 101.5t-181 39.5
q-95 0 -163.5 -44.5t-68.5 -136.5q0 -87 68 -127.5t180 -40.5h127v-126h-128q-92 0 -153.5 -17t-92 -56t-30.5 -105q0 -96 72 -151t191 -55q114 0 201.5 52t146.5 152l118 -75q-69 -127 -190 -198.5t-285 -71.5z" />
    <glyph glyph-name="etatonos" unicode="&#x3ae;" horiz-adv-x="1188" 
d="M681 1250h-126l119 310h126zM920 0v551q0 90 -17 165.5t-54.5 132t-97 87.5t-144.5 31q-78 0 -137.5 -27t-100 -77.5t-61.5 -122.5t-21 -164l-104 23q0 166 58 279t160 171t234 58q97 0 169.5 -30t123 -81t81.5 -116.5t45 -139t14 -146.5v-594h-148zM139 0v1080h133v-266
h15v-814h-148z" />
    <glyph glyph-name="iotatonos" unicode="&#x3af;" horiz-adv-x="711" 
d="M300 1250h-126l119 310h126zM406 -9q-66 9 -120.5 40t-89.5 96q-31 59 -33.5 120t-2.5 144v689h147v-683q0 -69 1 -113t21 -83q22 -39 55 -57t75 -23q43 -4 90.5 -2t88.5 10v-129q-36 -9 -77.5 -12.5t-82 -2.5t-72.5 6z" />
    <glyph glyph-name="upsilondieresistonos" unicode="&#x3b0;" horiz-adv-x="1163" 
d="M120 493v587h148v-551q0 -89 17 -165t54.5 -132.5t97 -87.5t144.5 -31t144.5 31t97.5 87.5t55 132.5t17 165v551h148v-587q0 -82 -14.5 -158.5t-47 -142t-86.5 -114.5t-131.5 -77t-182.5 -28t-182.5 28t-131 77t-86 114.5t-47 142t-14.5 158.5zM765 1290v160h150v-160
h-150zM248 1290v160h150v-160h-150zM600 1250h-126l119 310h126z" />
    <glyph glyph-name="alpha" unicode="&#x3b1;" horiz-adv-x="1218" 
d="M561 -30q-153 0 -260.5 75.5t-164 204.5t-56.5 290q0 162 57 290.5t165 204t263 75.5q158 0 264.5 -84t143.5 -231l-27 -53v338h132v-1080h-132v341l27 -52q-37 -149 -146.5 -234t-265.5 -85zM576 107q114 0 188.5 56t111.5 154.5t37 223.5q0 127 -37 224.5t-111.5 152.5
t-187.5 55t-189 -55.5t-114 -153t-38 -223.5q0 -123 37.5 -221t113 -155.5t189.5 -57.5z" />
    <glyph glyph-name="beta" unicode="&#x3b2;" horiz-adv-x="1135" 
d="M139 -480v1560q0 42 6.5 81t17.5 72q26 75 79.5 128.5t129.5 81t169 27.5q121 0 213 -46.5t144 -132.5t52 -204q0 -104 -43 -184t-130 -114q52 -10 105 -39.5t96.5 -77.5t70.5 -116t27 -157q0 -127 -56.5 -223.5t-162.5 -151t-256 -54.5q-103 0 -182 29.5t-134 80.5v-560
h-146zM607 111q94 0 165.5 37t112 103t40.5 154q0 141 -103 216t-277 79v135q71 8 128.5 36.5t91.5 81.5t34 133q0 114 -70 178.5t-184 64.5q-76 0 -140 -33.5t-92 -110.5q-15 -39 -18.5 -82.5t-3.5 -79.5v-601q0 -34 3.5 -70.5t11.5 -64.5q26 -82 112.5 -129t188.5 -47z
" />
    <glyph glyph-name="gamma" unicode="&#x3b3;" horiz-adv-x="1016" 
d="M432 -360v360l-392 1080h151l317 -888l319 888h149l-392 -1080v-360h-152z" />
    <glyph glyph-name="delta" unicode="&#x3b4;" horiz-adv-x="1183" 
d="M589 -29q-159 0 -273 65t-175 181.5t-61 271.5q0 154 61 272t175.5 178.5t274.5 43.5v44q162 0 276.5 -67t175 -186t60.5 -274q0 -157 -61 -276t-176 -186t-277 -67zM592 112q174 0 260.5 107t86.5 284t-87 280.5t-260 103.5q-175 0 -261 -106.5t-86 -280.5
q0 -179 88.5 -283.5t258.5 -104.5zM736 891q-69 21 -155 44t-165 58t-130 93t-51 148q0 51 19.5 98t63 81.5t114.5 47.5q32 7 62.5 8t56.5 1h371v-124h-338q-29 0 -54.5 -2t-47.5 -7q-45 -11 -73.5 -37.5t-28.5 -70.5q0 -42 30.5 -73t86 -56.5t131.5 -50.5t165 -56z" />
    <glyph glyph-name="epsilon" unicode="&#x3b5;" horiz-adv-x="1013" 
d="M484 -30q-114 0 -205.5 40.5t-145 115t-53.5 177.5q0 62 22 122t67.5 103t116.5 56l-9 -55q-80 44 -124.5 111t-44.5 159q0 98 49.5 168t134 106.5t188.5 36.5q132 0 240.5 -46.5t188.5 -135.5l-94 -99q-58 62 -143 101.5t-181 39.5q-95 0 -163.5 -44.5t-68.5 -136.5
q0 -87 68 -127.5t180 -40.5h127v-126h-128q-92 0 -153.5 -17t-92 -56t-30.5 -105q0 -96 72 -151t191 -55q114 0 201.5 52t146.5 152l118 -75q-69 -127 -190 -198.5t-285 -71.5z" />
    <glyph glyph-name="zeta" unicode="&#x3b6;" horiz-adv-x="1009" 
d="M843 -240q5 86 -11.5 134.5t-55 71t-98 28.5t-141.5 6q-89 0 -171 13t-146.5 51t-102 110.5t-37.5 191.5q0 74 22 150.5t85 171.5t185 224q37 38 96.5 98.5t134 135.5t158.5 158h-621v136h842v-121q-37 -37 -77 -78.5t-84.5 -86l-93 -93t-101 -99.5t-109.5 -105
q-111 -113 -172.5 -196t-85.5 -150t-24 -132q0 -99 43.5 -150.5t126.5 -71t202 -19.5q16 0 47 -1.5t66.5 -5t65.5 -10.5q66 -16 115 -58.5t70.5 -117t5.5 -185.5h-134z" />
    <glyph glyph-name="eta" unicode="&#x3b7;" horiz-adv-x="1188" 
d="M920 0v551q0 90 -17 165.5t-54.5 132t-97 87.5t-144.5 31q-78 0 -137.5 -27t-100 -77.5t-61.5 -122.5t-21 -164l-104 23q0 166 58 279t160 171t234 58q97 0 169.5 -30t123 -81t81.5 -116.5t45 -139t14 -146.5v-594h-148zM139 0v1080h133v-266h15v-814h-148z" />
    <glyph glyph-name="theta" unicode="&#x3b8;" horiz-adv-x="1315" 
d="M189 657v126h941v-126h-941zM657 -30q-143 0 -251.5 59t-180.5 162.5t-108.5 239.5t-36.5 289q0 154 36.5 289t108.5 238.5t180.5 162.5t251.5 59q144 0 252.5 -59t180.5 -162.5t108.5 -238.5t36.5 -289q0 -158 -36.5 -294.5t-108.5 -239t-180.5 -159.5t-252.5 -57z
M657 111q106 0 184.5 48t131 132t79 194.5t27.5 234.5t-25.5 234t-79 194t-132 131.5t-185.5 47.5q-105 0 -183.5 -47.5t-131 -131.5t-79 -194t-27.5 -234t25 -234.5t79 -194.5t132.5 -132t184.5 -48z" />
    <glyph glyph-name="iota" unicode="&#x3b9;" horiz-adv-x="711" 
d="M406 -9q-66 9 -120.5 40t-89.5 96q-31 59 -33.5 120t-2.5 144v689h147v-683q0 -69 1 -113t21 -83q22 -39 55 -57t75 -23q43 -4 90.5 -2t88.5 10v-129q-36 -9 -77.5 -12.5t-82 -2.5t-72.5 6z" />
    <glyph glyph-name="kappa" unicode="&#x3ba;" horiz-adv-x="992" 
d="M139 0l1 1080h148v-520l482 520h196l-506 -540l572 -540h-214l-530 520v-520h-149z" />
    <glyph glyph-name="lambda" unicode="&#x3bb;" horiz-adv-x="1056" 
d="M80 0l392 1080q-34 87 -61.5 145t-70.5 86.5t-121 28.5h-50v130h66q19 0 54 -1.5t64 -9.5q77 -17 125.5 -73.5t81 -137t64.5 -168.5l392 -1080h-151l-317 888l-319 -888h-149z" />
    <glyph glyph-name="uni03BC" unicode="&#x3bc;" horiz-adv-x="1207" 
d="M139 -480v1560h148v-551q0 -89 17 -165t55 -132.5t97.5 -87.5t144.5 -31q77 0 137 27t100 77.5t61 123t21 163.5v576h147v-1080h-132v153q-59 -90 -153.5 -135t-209.5 -45q-99 0 -175 36t-126 103v-592h-132z" />
    <glyph glyph-name="nu" unicode="&#x3bd;" horiz-adv-x="1016" 
d="M432 0l-392 1080h149l319 -888l317 888h151l-392 -1080h-152z" />
    <glyph glyph-name="xi" unicode="&#x3be;" horiz-adv-x="1101" 
d="M959 -240q9 114 -21 164.5t-104 63t-195 12.5q-203 0 -326 53.5t-178 148t-55 218.5q0 137 61 225.5t174 122.5q-82 48 -133 131t-51 196q0 97 37.5 168t102 116.5t146.5 68t172 22.5q176 0 297.5 -77t192.5 -201l-120 -89q-58 105 -144.5 165.5t-225.5 60.5
q-130 0 -216 -58t-86 -180q0 -117 82.5 -180t224.5 -70q21 -1 55 -1.5t63.5 -0.5h36.5v-142h-19t-41 -1t-104 -4q-103 -4 -181.5 -27t-123 -77.5t-44.5 -154.5q0 -107 54 -171.5t156 -93.5t247 -30q21 0 56 -1t74 -4.5t72 -11.5q66 -15 118 -56.5t75.5 -116t3.5 -188.5h-133
z" />
    <glyph glyph-name="omicron" unicode="&#x3bf;" horiz-adv-x="1183" 
d="M591 -30q-161 0 -275 73t-175 202t-61 296q0 170 62 298t176.5 199.5t272.5 71.5q162 0 276.5 -72.5t175 -201t60.5 -295.5q0 -170 -61 -298.5t-176 -200.5t-275 -72zM591 111q180 0 268 119.5t88 310.5q0 196 -88.5 312t-267.5 116q-121 0 -199.5 -54.5t-117 -151
t-38.5 -222.5q0 -195 90 -312.5t265 -117.5z" />
    <glyph glyph-name="pi" unicode="&#x3c0;" horiz-adv-x="1308" 
d="M267 0v944h-214v136h1202v-136h-214v-944h-146v944h-482v-944h-146z" />
    <glyph glyph-name="rho" unicode="&#x3c1;" horiz-adv-x="1195" 
d="M139 -480v955q0 54 2 97.5t6 76.5q14 134 74 238t162 163.5t243 59.5q159 0 268 -75t165 -203.5t56 -288.5q0 -163 -57 -293t-163.5 -205t-257.5 -75q-118 0 -209 49t-141 128v-627h-148zM621 107q114 0 190 56.5t114.5 155t38.5 223.5t-37.5 222.5t-113.5 153t-192 55.5
q-114 0 -188.5 -54.5t-110.5 -152t-36 -223.5q0 -127 36.5 -225.5t110.5 -154.5t188 -56z" />
    <glyph glyph-name="uni03C2" unicode="&#x3c2;" horiz-adv-x="1107" 
d="M857 -240q6 116 -26.5 164.5t-104 60t-183.5 15.5t-191.5 37t-132.5 85.5t-83 118t-43 136t-13 138.5q0 188 60 321t173 203.5t271 70.5q168 0 289 -78.5t168 -220.5l-144 -46q-39 97 -120.5 150.5t-193.5 53.5q-116 0 -191 -56t-112 -153.5t-37 -221.5q-1 -61 11 -130
t47 -130.5t102 -100t177 -39.5q24 0 62.5 -0.5t80.5 -4t76 -12.5q68 -16 116.5 -59.5t69.5 -118t5 -183.5h-133z" />
    <glyph glyph-name="sigma" unicode="&#x3c3;" horiz-adv-x="1210" 
d="M591 -30q-155 0 -270 72t-178 198t-63 286q0 144 49.5 258.5t141 189t218.5 96.5q42 8 96.5 9t112.5 1h465v-136h-324l49 43q98 -63 156.5 -184.5t58.5 -276.5q0 -161 -63 -286.5t-178 -197.5t-271 -72zM591 111q176 0 266 116t90 299q0 181 -90.5 297t-265.5 116
q-119 1 -198 -54t-118 -148.5t-39 -210.5q0 -187 92.5 -301t262.5 -114z" />
    <glyph glyph-name="tau" unicode="&#x3c4;" horiz-adv-x="1037" 
d="M679 -9q-66 9 -120.5 40t-89.5 96q-31 59 -33.5 120t-2.5 144v553h-383v136h913v-136h-383v-547q0 -69 1 -113t21 -83q22 -39 55 -57t75 -23q43 -4 90.5 -2t88.5 10v-129q-36 -9 -77 -12.5t-82 -2.5t-73 6z" />
    <glyph glyph-name="upsilon" unicode="&#x3c5;" horiz-adv-x="1163" 
d="M120 493v587h148v-551q0 -89 17 -165t54.5 -132.5t97 -87.5t144.5 -31t144.5 31t97.5 87.5t55 132.5t17 165v551h148v-587q0 -82 -14.5 -158.5t-47 -142t-86.5 -114.5t-131.5 -77t-182.5 -28t-182.5 28t-131 77t-86 114.5t-47 142t-14.5 158.5z" />
    <glyph glyph-name="phi" unicode="&#x3c6;" horiz-adv-x="1467" 
d="M652 -450v429q-158 -25 -288 34.5t-207 193.5t-77 332t77 332.5t207 194.5t288 35v331h136v-331q158 25 288 -35t207 -194.5t77 -332.5t-77 -332t-207 -193.5t-288 -34.5v-429h-136zM652 116v847q-81 14 -156 -4.5t-135 -71t-94.5 -139t-34.5 -209.5t35 -209.5t95 -138.5
t135 -70t155 -5zM788 116q80 -13 155 5t135 69.5t95 138t35 210.5t-34.5 210.5t-94.5 138.5t-135 70.5t-156 4.5v-847z" />
    <glyph glyph-name="chi" unicode="&#x3c7;" horiz-adv-x="1054" 
d="M20 0l422 546l-413 534h176l323 -421l320 421h176l-413 -534l423 -546h-177l-329 433l-331 -433h-177z" />
    <glyph glyph-name="psi" unicode="&#x3c8;" horiz-adv-x="1391" 
d="M624 -450v411q-116 3 -211 43.5t-162.5 113t-100.5 173.5q-21 60 -25.5 111t-4.5 79v599h141v-521q0 -28 2 -80t15 -105q21 -86 71.5 -147.5t121.5 -94.5t153 -34v982h143v-982q82 1 154 35.5t122.5 97t70.5 148.5q12 52 14 103t2 77v521h141v-599q0 -31 -4 -80t-26 -108
q-32 -98 -99 -171.5t-162.5 -115.5t-212.5 -45v-411h-143z" />
    <glyph glyph-name="omega" unicode="&#x3c9;" horiz-adv-x="1553" 
d="M484 -31q-135 0 -225 67.5t-134.5 184t-44.5 265.5q0 211 86 368t265 256l92 -123q-153 -90 -220 -207t-67 -285q0 -110 29 -197t87 -137.5t146 -50.5q91 0 136 49.5t59 131.5t14 178v218h139v-218q0 -95 14 -177t58.5 -132t136.5 -50q90 0 147.5 52t86 139t28.5 194
q0 171 -68.5 287.5t-219.5 204.5l92 123q184 -100 268 -258.5t84 -366.5q0 -150 -45.5 -267t-135 -183t-222.5 -66q-111 0 -197.5 58t-113.5 189h34q-26 -131 -112 -189t-197 -58z" />
    <glyph glyph-name="iotadieresis" unicode="&#x3ca;" horiz-adv-x="684" 
d="M344 1291v160h160v-160h-160zM-37 1291v160h160v-160h-160zM406 -9q-66 9 -120.5 40t-89.5 96q-31 59 -33.5 120t-2.5 144v689h147v-683q0 -69 1 -113t21 -83q22 -39 55 -57t75 -23q43 -4 90.5 -2t88.5 10v-129q-36 -9 -77.5 -12.5t-82 -2.5t-72.5 6z" />
    <glyph glyph-name="upsilondieresis" unicode="&#x3cb;" horiz-adv-x="1163" 
d="M692 1291v160h160v-160h-160zM311 1291v160h160v-160h-160zM120 493v587h148v-551q0 -89 17 -165t54.5 -132.5t97 -87.5t144.5 -31t144.5 31t97.5 87.5t55 132.5t17 165v551h148v-587q0 -82 -14.5 -158.5t-47 -142t-86.5 -114.5t-131.5 -77t-182.5 -28t-182.5 28t-131 77
t-86 114.5t-47 142t-14.5 158.5z" />
    <glyph glyph-name="omicrontonos" unicode="&#x3cc;" horiz-adv-x="1183" 
d="M654 1250h-126l119 310h126zM591 -30q-161 0 -275 73t-175 202t-61 296q0 170 62 298t176.5 199.5t272.5 71.5q162 0 276.5 -72.5t175 -201t60.5 -295.5q0 -170 -61 -298.5t-176 -200.5t-275 -72zM591 111q180 0 268 119.5t88 310.5q0 196 -88.5 312t-267.5 116
q-121 0 -199.5 -54.5t-117 -151t-38.5 -222.5q0 -195 90 -312.5t265 -117.5z" />
    <glyph glyph-name="upsilontonos" unicode="&#x3cd;" horiz-adv-x="1163" 
d="M618 1250h-126l119 310h126zM120 493v587h148v-551q0 -89 17 -165t54.5 -132.5t97 -87.5t144.5 -31t144.5 31t97.5 87.5t55 132.5t17 165v551h148v-587q0 -82 -14.5 -158.5t-47 -142t-86.5 -114.5t-131.5 -77t-182.5 -28t-182.5 28t-131 77t-86 114.5t-47 142
t-14.5 158.5z" />
    <glyph glyph-name="omegatonos" unicode="&#x3ce;" horiz-adv-x="1553" 
d="M811 1250h-126l120 310h126zM484 -31q-135 0 -225 67.5t-134.5 184t-44.5 265.5q0 211 86 368t265 256l92 -123q-153 -90 -220 -207t-67 -285q0 -110 29 -197t87 -137.5t146 -50.5q91 0 136 49.5t59 131.5t14 178v218h139v-218q0 -95 14 -177t58.5 -132t136.5 -50
q90 0 147.5 52t86 139t28.5 194q0 171 -68.5 287.5t-219.5 204.5l92 123q184 -100 268 -258.5t84 -366.5q0 -150 -45.5 -267t-135 -183t-222.5 -66q-111 0 -197.5 58t-113.5 189h34q-26 -131 -112 -189t-197 -58z" />
    <glyph glyph-name="uni0400" unicode="&#x400;" horiz-adv-x="1140" 
d="M558 1610l-119 310h126l119 -310h-126zM140 0v1440h900v-141h-753v-498h633v-141h-633v-519h753v-141h-900z" />
    <glyph glyph-name="uni0401" unicode="&#x401;" horiz-adv-x="1140" 
d="M680 1651v160h160v-160h-160zM299 1651v160h160v-160h-160zM140 0v1440h900v-141h-753v-498h633v-141h-633v-519h753v-141h-900z" />
    <glyph glyph-name="uni0402" unicode="&#x402;" horiz-adv-x="1292" 
d="M147 0v1304h-147v136h600v-136h-321v-376q64 93 172 137.5t247 44.5q246 0 380 -136t134 -409q0 -169 -54.5 -296.5t-166.5 -198t-285 -70.5v148q119 0 198.5 51.5t119.5 147t40 226.5q0 139 -44.5 226t-129 127.5t-205.5 40.5q-146 0 -239 -57.5t-128 -175.5
q-16 -57 -20 -121t-4 -123v-490h-147z" />
    <glyph glyph-name="uni0403" unicode="&#x403;" horiz-adv-x="1060" 
d="M517 1610h-126l119 310h126zM140 0v1440h900v-141h-753v-1299h-147z" />
    <glyph glyph-name="uni0404" unicode="&#x404;" horiz-adv-x="1433" 
d="M744 -30q-213 0 -361 100t-224 270t-72 380q3 224 79.5 393t222 263t355.5 94q243 0 409 -130t220 -367l-150 -22q-40 174 -164 274t-309 102q-156 2 -265 -66t-169.5 -190t-70.5 -280h528v-141h-528q5 -96 30 -186.5t88 -174.5q67 -91 168.5 -133.5t218.5 -44.5
q172 -2 296.5 94t171.5 262l145 -38q-38 -146 -124.5 -248.5t-212.5 -156.5t-282 -54z" />
    <glyph glyph-name="uni0405" unicode="&#x405;" horiz-adv-x="1233" 
d="M640 -30q-151 0 -271.5 50.5t-199 143.5t-102.5 221l150 25q36 -140 152 -219.5t277 -79.5q106 0 190 33.5t132 95.5t48 147q0 56 -20 95.5t-53 65.5t-72 43.5t-76 28.5l-365 109q-66 19 -122 48.5t-97.5 71t-64.5 97.5t-23 128q0 122 64 211t175 137t253 47
q144 0 257.5 -51t187.5 -145.5t98 -223.5l-154 -28q-15 94 -69 163t-137.5 106.5t-183.5 38.5q-97 0 -172.5 -32.5t-119.5 -88.5t-44 -128q0 -73 40.5 -117t100 -69t115.5 -41l282 -83q44 -12 103.5 -34.5t116 -64t93.5 -108.5t37 -170q0 -100 -39.5 -179t-111 -133
t-167 -82.5t-208.5 -28.5z" />
    <glyph glyph-name="uni0406" unicode="&#x406;" 
d="M160 0v1440h147v-1440h-147z" />
    <glyph glyph-name="uni0407" unicode="&#x407;" 
d="M344 1651v160h160v-160h-160zM-37 1651v160h160v-160h-160zM160 0v1440h147v-1440h-147z" />
    <glyph glyph-name="uni0408" unicode="&#x408;" horiz-adv-x="927" 
d="M386 -29q-144 0 -247 80t-139 214l147 35q18 -79 83.5 -133.5t154.5 -54.5q56 0 113.5 27t90.5 89q22 43 25.5 93.5t3.5 121.5v997h148v-997q0 -60 -1 -108.5t-10.5 -93t-35.5 -89.5q-52 -91 -139.5 -136t-193.5 -45z" />
    <glyph glyph-name="uni0409" unicode="&#x409;" horiz-adv-x="2179" 
d="M1091 0v1440h147v-547h409q21 0 47.5 -1.5t54.5 -6.5q112 -17 190.5 -78.5t119 -154.5t40.5 -205q0 -113 -40.5 -206t-119 -154.5t-190.5 -78.5q-28 -4 -54.5 -6t-47.5 -2h-556zM1238 141h405q19 0 43 2t47 6q73 16 121 61t71 107.5t23 129.5t-23 129t-71 107t-121 61
q-23 5 -47 7t-43 2h-405v-612zM20 0v131q55 -5 91 4.5t58.5 43.5t39.5 101.5t34 176.5q19 118 32.5 235t24 237.5t17.5 247.5t13 263h909v-1440h-147v1299h-620q-7 -103 -13.5 -211t-16 -221t-23 -232.5t-33.5 -246.5q-16 -96 -37.5 -178t-60 -138t-103 -77t-165.5 5z" />
    <glyph glyph-name="uni040A" unicode="&#x40a;" horiz-adv-x="2117" 
d="M140 0v1440h147v-547h821v-141h-821v-752h-147zM1029 0v1440h146v-547h410q20 0 47 -1.5t54 -6.5q112 -17 190.5 -78.5t119.5 -154.5t41 -205q0 -113 -41 -206t-119.5 -154.5t-190.5 -78.5q-27 -4 -53.5 -6t-47.5 -2h-556zM1175 141h406q18 0 42 2t47 6q74 16 121.5 61
t70.5 107.5t23 129.5t-23 129t-70.5 107t-121.5 61q-23 5 -47 7t-42 2h-406v-612z" />
    <glyph glyph-name="uni040B" unicode="&#x40b;" horiz-adv-x="1293" 
d="M0 1304v136h600v-136h-600zM287 1440v-676l-40 63q68 50 168.5 80t225.5 30q188 0 300 -69t162 -190.5t50 -278.5v-399h-148v348q0 101 -19 182.5t-62.5 140.5t-116 90.5t-180.5 31.5q-133 0 -229 -40t-142 -88l31 118v-783h-147v1440h147z" />
    <glyph glyph-name="uni040C" unicode="&#x40c;" horiz-adv-x="1187" 
d="M140 0v1440h147v-680l657 680h188l-671 -695l726 -745h-192l-708 720v-720h-147zM681 1610h-126l119 310h126z" />
    <glyph glyph-name="uni040D" unicode="&#x40d;" horiz-adv-x="1369" 
d="M140 0v1440h148v-1180l793 1180h148v-1440h-148v1181l-793 -1181h-148zM645 1610l-120 310h126l120 -310h-126z" />
    <glyph glyph-name="uni040E" unicode="&#x40e;" horiz-adv-x="1246" 
d="M617 1568q-71 0 -129.5 35t-93.5 93.5t-35 129.5h122q0 -56 40.5 -96t95.5 -40q57 0 96.5 40t39.5 96h122q0 -71 -34.5 -129.5t-93 -93.5t-130.5 -35zM383 0l162 341l-512 1099h163l426 -941l434 941h157l-670 -1440h-160z" />
    <glyph glyph-name="uni040F" unicode="&#x40f;" horiz-adv-x="1467" 
d="M660 -240v240h-520v1440h147v-1299h893v1299h147v-1440h-520v-240h-147z" />
    <glyph glyph-name="uni0410" unicode="&#x410;" horiz-adv-x="1267" 
d="M40 0l496 1440h195l496 -1440h-153l-471 1358h58l-468 -1358h-153zM261 349v138h744v-138h-744z" />
    <glyph glyph-name="uni0411" unicode="&#x411;" horiz-adv-x="1208" 
d="M140 0v1440h889v-141h-742v-419h409q21 0 47.5 -1.5t53.5 -5.5q111 -15 189.5 -76t120 -154t41.5 -203t-41.5 -203t-120 -154t-189.5 -76q-27 -3 -53.5 -5t-47.5 -2h-556zM287 141h405q18 0 42 2t47 6q111 22 163.5 106.5t52.5 184.5q0 101 -52.5 185t-163.5 106
q-23 5 -47 6.5t-42 1.5h-405v-598z" />
    <glyph glyph-name="uni0412" unicode="&#x412;" horiz-adv-x="1226" 
d="M140 0v1440h556q121 0 211 -50t140 -134.5t50 -186.5q0 -116 -62 -206.5t-166 -125.5l-2 49q140 -40 220 -140t80 -242q0 -125 -53 -215.5t-149 -139.5t-223 -49h-602zM288 141h418q88 0 158 31.5t110.5 89.5t40.5 140q0 80 -37 144t-100.5 102.5t-144.5 38.5h-445v-546z
M288 826h407q69 0 126 31.5t90.5 86.5t33.5 127q0 102 -70.5 166t-179.5 64h-407v-475z" />
    <glyph glyph-name="uni0413" unicode="&#x413;" horiz-adv-x="1060" 
d="M140 0v1440h900v-141h-753v-1299h-147z" />
    <glyph glyph-name="uni0414" unicode="&#x414;" horiz-adv-x="1475" 
d="M73 -240v381q84 0 135 42.5t78 113.5t41 159.5t24 179.5q14 133 22.5 257t15 257t15.5 291l888 -1v-1299h103v-381h-146v240h-1029v-240h-147zM354 141h791v1158l-604 1q-6 -122 -12 -236t-14 -230t-21 -242q-11 -115 -26 -201t-41.5 -147t-72.5 -103z" />
    <glyph glyph-name="uni0415" unicode="&#x415;" horiz-adv-x="1140" 
d="M140 0v1440h900v-141h-753v-498h633v-141h-633v-519h753v-141h-900z" />
    <glyph glyph-name="uni0416" unicode="&#x416;" horiz-adv-x="1781" 
d="M20 0l638 745l-583 695h185l557 -673v673h147v-673l557 673h185l-583 -695l638 -745h-188l-609 713v-713h-147v713l-608 -713h-189z" />
    <glyph glyph-name="uni0417" unicode="&#x417;" horiz-adv-x="1193" 
d="M601 -30q-147 0 -254.5 43t-176.5 113.5t-103 152.5l134 78q24 -68 76 -124t134 -89t195 -33q117 0 198.5 37t123.5 104t42 156q0 98 -47 152t-126 76.5t-176 25.5q-73 3 -104 4t-41 1h-19v142h37t64 0.5t54 1.5q143 7 225 75t82 184q0 123 -86.5 191t-223.5 68
q-129 0 -217.5 -61.5t-144.5 -164.5l-120 89q68 122 192 200t294 78q91 0 174.5 -25t148 -74t102 -123.5t37.5 -174.5q0 -117 -51.5 -204t-132.5 -131q110 -33 172.5 -116t62.5 -217q0 -132 -65 -230t-183.5 -151.5t-276.5 -53.5z" />
    <glyph glyph-name="uni0418" unicode="&#x418;" horiz-adv-x="1369" 
d="M1229 0h-148v1181l-793 -1181h-148v1440h148v-1180l793 1180h148v-1440z" />
    <glyph glyph-name="uni0419" unicode="&#x419;" horiz-adv-x="1369" 
d="M140 0v1440h148v-1180l793 1180h148v-1440h-148v1181l-793 -1181h-148zM696 1568q-71 0 -129.5 35t-93.5 93.5t-35 129.5h122q0 -56 40 -96t96 -40q57 0 96.5 40t39.5 96h122q0 -71 -34.5 -129.5t-93.5 -93.5t-130 -35z" />
    <glyph glyph-name="uni041A" unicode="&#x41a;" horiz-adv-x="1187" 
d="M140 0v1440h147v-680l657 680h188l-671 -695l726 -745h-192l-708 720v-720h-147z" />
    <glyph glyph-name="uni041B" unicode="&#x41b;" horiz-adv-x="1399" 
d="M40 0v131q55 -5 91 4.5t58.5 43.5t39.5 101.5t34 176.5q19 118 32.5 235t24 237.5t17.5 247.5t13 263h909v-1440h-147v1299h-620q-7 -103 -13.5 -211t-16 -221t-23 -232.5t-33.5 -246.5q-16 -96 -37.5 -178t-60 -138t-103 -77t-165.5 5z" />
    <glyph glyph-name="uni041C" unicode="&#x41c;" horiz-adv-x="1681" 
d="M140 0v1440h135l566 -1211l563 1211h137v-1439h-140v1111l-513 -1112h-95l-512 1112v-1112h-141z" />
    <glyph glyph-name="uni041D" unicode="&#x41d;" horiz-adv-x="1369" 
d="M140 0v1440h147v-649h796v649h146v-1440h-146v650h-796v-650h-147z" />
    <glyph glyph-name="uni041E" unicode="&#x41e;" horiz-adv-x="1447" 
d="M723 -30q-215 0 -363 95.5t-224 264.5t-76 390t76 390t224 264.5t363 95.5q216 0 363.5 -95.5t224 -264.5t76.5 -390t-76.5 -390t-224 -264.5t-363.5 -95.5zM723 111q169 0 282 77t169.5 214.5t56.5 317.5t-56.5 317t-169.5 214t-282 78q-169 0 -281 -77t-168.5 -214.5
t-57.5 -317.5t55.5 -316.5t169.5 -214t282 -78.5z" />
    <glyph glyph-name="uni041F" unicode="&#x41f;" horiz-adv-x="1383" 
d="M140 0v1440h1103v-1440h-147v1299h-809v-1299h-147z" />
    <glyph glyph-name="uni0420" unicode="&#x420;" horiz-adv-x="1208" 
d="M140 0v1440h556q21 0 47.5 -1.5t53.5 -6.5q113 -17 191.5 -78.5t119 -154.5t40.5 -206q0 -112 -41 -205t-119.5 -154.5t-190.5 -78.5q-27 -4 -53.5 -6t-47.5 -2h-409v-547h-147zM287 687h405q18 0 42 2t47 7q74 16 121.5 61t71 107t23.5 129t-23.5 129.5t-71 107.5
t-121.5 61q-23 5 -47 6.5t-42 1.5h-405v-612z" />
    <glyph glyph-name="uni0421" unicode="&#x421;" horiz-adv-x="1431" 
d="M723 -30q-215 0 -363 95.5t-224 264.5t-76 390t76 390t224 264.5t363 95.5q251 0 410 -128.5t218 -344.5l-150 -39q-46 171 -165 271t-313 100q-169 0 -281 -77t-168.5 -214.5t-58.5 -317.5q-1 -180 55.5 -317t170 -214.5t282.5 -77.5q194 0 313 100.5t165 270.5l150 -39
q-59 -216 -218 -344.5t-410 -128.5z" />
    <glyph glyph-name="uni0422" unicode="&#x422;" horiz-adv-x="1193" 
d="M523 0v1299h-503v141h1153v-141h-503v-1299h-147z" />
    <glyph glyph-name="uni0423" unicode="&#x423;" horiz-adv-x="1246" 
d="M383 0l162 341l-512 1099h163l426 -941l434 941h157l-670 -1440h-160z" />
    <glyph glyph-name="uni0424" unicode="&#x424;" horiz-adv-x="1421" 
d="M637 0v191q-111 -19 -214.5 10.5t-185 103t-129.5 189t-48 270.5t48 271t129.5 190.5t185 104t214.5 10.5v100h146v-100q111 19 215 -10.5t185.5 -104t129.5 -190.5t48 -271t-48 -270.5t-129.5 -189t-185.5 -103t-215 -10.5v-191h-146zM637 331v872q-95 14 -173.5 -13.5
t-134.5 -87.5t-86.5 -146.5t-30.5 -191.5t30.5 -190.5t86.5 -144.5t134.5 -85t173.5 -13zM783 331q96 -13 174 13.5t134.5 85t87 143.5t30.5 188q0 104 -30.5 190.5t-87 147.5t-134.5 89.5t-174 14.5v-872z" />
    <glyph glyph-name="uni0425" unicode="&#x425;" horiz-adv-x="1212" 
d="M20 0l499 729l-486 711h178l395 -588l395 588h179l-486 -711l498 -729h-178l-408 605l-407 -605h-179z" />
    <glyph glyph-name="uni0426" unicode="&#x426;" horiz-adv-x="1433" 
d="M1266 -187v187h-1126v1440h147v-1304h826v1291h147v-1291h153v-323h-147z" />
    <glyph glyph-name="uni0427" unicode="&#x427;" horiz-adv-x="1293" 
d="M1006 0v676l41 -63q-69 -49 -169 -79.5t-226 -30.5q-187 0 -299.5 69t-162.5 190.5t-50 278.5v399h148v-348q0 -100 19 -182t63 -141t117 -90.5t180 -31.5q133 0 229 40.5t141 87.5l-31 -118v783h147v-1440h-147z" />
    <glyph glyph-name="uni0428" unicode="&#x428;" horiz-adv-x="1813" 
d="M140 0v1440h147v-1299h546v1299h147v-1299h547v1299h146v-1440h-1533z" />
    <glyph glyph-name="uni0429" unicode="&#x429;" horiz-adv-x="1846" 
d="M1679 -187v187h-140v136h287v-323h-147zM140 0v1440h147v-1299h546v1299h147v-1299h547v1299h146v-1440h-1533z" />
    <glyph glyph-name="uni042A" unicode="&#x42a;" horiz-adv-x="1236" 
d="M173 0v1314h-186v126h333v-547h409q21 0 47.5 -1.5t54.5 -6.5q112 -17 190.5 -78.5t119 -154.5t40.5 -205q0 -113 -40.5 -206t-119 -154.5t-190.5 -78.5q-28 -4 -54.5 -6t-47.5 -2h-556zM320 141h405q19 0 43 2t47 6q73 16 121 61t71 107.5t23 129.5t-23 129t-71 107
t-121 61q-23 5 -47 7t-43 2h-405v-612z" />
    <glyph glyph-name="uni042B" unicode="&#x42b;" horiz-adv-x="1575" 
d="M139 0v1440h147v-547h409q21 0 47.5 -1.5t54.5 -6.5q112 -17 190.5 -78.5t119 -154.5t40.5 -205q0 -113 -40.5 -206t-119 -154.5t-190.5 -78.5q-28 -4 -54.5 -6t-47.5 -2h-556zM286 141h405q19 0 43 2t47 6q73 16 121 61t71 107.5t23 129.5t-23 129t-71 107t-121 61
q-23 5 -47 7t-43 2h-405v-612zM1289 0v1440h147v-1440h-147z" />
    <glyph glyph-name="uni042C" unicode="&#x42c;" horiz-adv-x="1227" 
d="M139 0v1440h147v-547h409q21 0 47.5 -1.5t54.5 -6.5q112 -17 190.5 -78.5t119 -154.5t40.5 -205q0 -113 -40.5 -206t-119 -154.5t-190.5 -78.5q-28 -4 -54.5 -6t-47.5 -2h-556zM286 141h405q19 0 43 2t47 6q73 16 121 61t71 107.5t23 129.5t-23 129t-71 107t-121 61
q-23 5 -47 7t-43 2h-405v-612z" />
    <glyph glyph-name="uni042D" unicode="&#x42d;" horiz-adv-x="1406" 
d="M689 -30q-156 0 -282 54t-212.5 156.5t-124.5 248.5l145 38q48 -166 172 -262t296 -94q117 2 218.5 44.5t168.5 133.5q64 84 88 174.5t29 186.5h-528v141h529q-11 158 -71 280t-169 190t-265 66q-185 -2 -309.5 -102t-164.5 -274l-149 22q54 237 220 367t409 130
q209 0 354.5 -94t222.5 -263t80 -393q3 -210 -72.5 -380t-223.5 -270t-361 -100z" />
    <glyph glyph-name="uni042E" unicode="&#x42e;" horiz-adv-x="1835" 
d="M140 0v1440h147v-647h392v-146h-392v-647h-147zM1197 -30q-143 0 -251.5 59t-180.5 162.5t-108.5 239.5t-36.5 289q0 154 36.5 289t108.5 238.5t180.5 162.5t251.5 59q144 0 252.5 -59t180.5 -162.5t108.5 -238.5t36.5 -289q0 -158 -36.5 -294.5t-108.5 -239
t-180.5 -159.5t-252.5 -57zM1197 111q106 0 184.5 48t131 132t79 194.5t27.5 234.5t-25.5 234t-79 194t-132 131.5t-185.5 47.5q-105 0 -183.5 -47.5t-131 -131.5t-79 -194t-27.5 -234t25 -234.5t79 -194.5t132.5 -132t184.5 -48z" />
    <glyph glyph-name="uni042F" unicode="&#x42f;" horiz-adv-x="1261" 
d="M1121 0h-146v547h-479l-51 12q-160 31 -246 151t-86 283q0 113 41 206t119.5 154.5t190.5 78.5q28 5 54 6.5t47 1.5h556v-1440zM249 0h-169l312 640l141 -54zM975 687v612h-406q-17 0 -41.5 -1.5t-47.5 -6.5q-74 -16 -121.5 -61t-70.5 -107.5t-23 -129.5t23 -129
t70.5 -107t121.5 -61q23 -5 47.5 -7t41.5 -2h406z" />
    <glyph glyph-name="uni0430" unicode="&#x430;" horiz-adv-x="1111" 
d="M449 -30q-122 0 -204.5 44t-123.5 117t-41 159q0 88 35.5 150.5t97 102.5t142.5 61q82 20 181.5 35.5t195 27t167.5 22.5l-52 -32q3 160 -62 237t-226 77q-111 0 -187.5 -50t-107.5 -158l-143 42q37 145 149 225t291 80q148 0 251.5 -55.5t146.5 -160.5q20 -47 26 -105
t6 -118v-671h-131v271l38 -16q-55 -139 -171 -212t-278 -73zM466 97q103 0 180 37t124 101.5t61 145.5q12 52 13 114.5t1 93.5l56 -29q-75 -10 -162.5 -20t-172 -23t-152.5 -31q-46 -13 -89 -36.5t-70.5 -62.5t-27.5 -97q0 -47 23.5 -91t76 -73t139.5 -29z" />
    <glyph glyph-name="uni0431" unicode="&#x431;" horiz-adv-x="1166" 
d="M573 -31q-151 1 -259 66t-167.5 194t-64.5 322q-3 85 4 185.5t22 191.5t36 148q26 74 74.5 138.5t112.5 105.5q62 42 140.5 65.5t164 36.5t170 23t156.5 25l16 -133q-55 -11 -130 -20t-157 -21.5t-157 -33.5t-128 -55q-81 -49 -124.5 -148t-53.5 -227q62 97 164.5 146
t222.5 49q146 0 251.5 -67t162.5 -186t57 -273q0 -161 -62.5 -281t-177.5 -185.5t-273 -65.5zM584 110q170 0 258.5 106t88.5 282q0 180 -91.5 284t-257.5 104t-255 -104t-89 -284t89 -284t257 -104z" />
    <glyph glyph-name="uni0432" unicode="&#x432;" horiz-adv-x="1071" 
d="M139 0v1080h445q34 0 82.5 -4t90.5 -15q91 -24 146.5 -98t55.5 -178q0 -58 -17.5 -103.5t-49.5 -78.5q-15 -17 -33 -29.5t-35 -20.5q32 -6 69 -28q58 -34 88 -91.5t30 -139.5q0 -111 -53 -181t-142 -96q-40 -11 -86.5 -14t-87.5 -3h-503zM287 125h348q21 0 53 3.5t57 9.5
q59 15 86.5 60.5t27.5 99.5q0 71 -41.5 116.5t-110.5 55.5q-23 5 -48 6t-45 1h-327v-352zM287 603h302q26 0 58.5 3.5t56.5 12.5q52 18 76.5 62t24.5 96q0 57 -26.5 100t-79.5 60q-36 13 -77.5 15t-52.5 2h-282v-351z" />
    <glyph glyph-name="uni0433" unicode="&#x433;" horiz-adv-x="930" 
d="M140 0v1080h740v-141h-593v-939h-147z" />
    <glyph glyph-name="uni0434" unicode="&#x434;" horiz-adv-x="1197" 
d="M60 -240v366q92 0 132 59.5t65 190.5q17 85 28 183t19 224.5t15 296.5h714v-954h104v-366h-142v240h-794v-240h-141zM309 126h578v828h-432q-3 -76 -8.5 -161t-13 -170t-17 -159.5t-22.5 -130.5q-15 -72 -32.5 -123t-52.5 -84z" />
    <glyph glyph-name="uni0435" unicode="&#x435;" horiz-adv-x="1169" 
d="M597 -30q-158 0 -273.5 70t-179.5 197t-64 298q0 177 63 306t177.5 199t270.5 70q160 0 273 -73.5t171 -210.5t53 -327h-150v52q-4 210 -90.5 317t-252.5 107q-174 0 -266.5 -113t-92.5 -322q0 -204 92.5 -316.5t262.5 -112.5q116 0 202.5 53.5t136.5 154.5l137 -53
q-64 -141 -188.5 -218.5t-281.5 -77.5zM184 499v123h825v-123h-825z" />
    <glyph glyph-name="uni0436" unicode="&#x436;" horiz-adv-x="1397" 
d="M20 0l456 540l-437 540h166l426 -533v533h136v-533l426 533h165l-437 -540l456 -540h-171l-439 533v-533h-136v533l-440 -533h-171z" />
    <glyph glyph-name="uni0437" unicode="&#x437;" horiz-adv-x="1013" 
d="M529 -30q-163 0 -284.5 71.5t-191.5 198.5l118 75q59 -100 147 -152t202 -52q119 0 191 55t72 151q0 66 -30.5 105t-92 56t-153.5 17h-128v126h126q112 0 180.5 40.5t68.5 127.5q0 92 -68.5 136.5t-163.5 44.5q-96 0 -181.5 -39.5t-143.5 -101.5l-94 99
q81 89 189.5 135.5t240.5 46.5q104 0 188.5 -36.5t134 -106.5t49.5 -168q0 -92 -44.5 -159t-125.5 -111l-8 55q70 -13 116 -56t68 -103t22 -122q0 -103 -53.5 -177.5t-145 -115t-205.5 -40.5z" />
    <glyph glyph-name="uni0438" unicode="&#x438;" horiz-adv-x="1138" 
d="M998 1080v-1080h-143v841l-592 -841h-124v1080h143v-834l593 834h123z" />
    <glyph glyph-name="uni0439" unicode="&#x439;" horiz-adv-x="1138" 
d="M588 1208q-71 0 -130 35t-93.5 93.5t-34.5 129.5h122q0 -56 40 -96t96 -40q57 0 96.5 40t39.5 96h122q0 -71 -34.5 -129.5t-93.5 -93.5t-130 -35zM998 1080v-1080h-143v841l-592 -841h-124v1080h143v-834l593 834h123z" />
    <glyph glyph-name="uni043A" unicode="&#x43a;" horiz-adv-x="992" 
d="M139 0l1 1080h148v-520l482 520h196l-506 -540l572 -540h-214l-530 520v-520h-149z" />
    <glyph glyph-name="uni043B" unicode="&#x43b;" horiz-adv-x="1151" 
d="M40 0v129q60 -11 91.5 5.5t46.5 56t25 98.5q16 98 29 216t23.5 260.5t21.5 314.5h734v-1080h-146v939h-452q-7 -106 -16 -211t-18.5 -201.5t-20.5 -177.5t-23 -140q-18 -89 -47.5 -142t-87.5 -70t-160 3z" />
    <glyph glyph-name="uni043C" unicode="&#x43c;" horiz-adv-x="1383" 
d="M139 0v1080h131l421 -884l422 884h130v-1080h-142v766l-363 -766h-93l-363 766v-766h-143z" />
    <glyph glyph-name="uni043D" unicode="&#x43d;" horiz-adv-x="1182" 
d="M139 0v1080h147v-469h609v469h147v-1080h-147v470h-609v-470h-147z" />
    <glyph glyph-name="uni043E" unicode="&#x43e;" horiz-adv-x="1183" 
d="M591 -30q-161 0 -275 73t-175 202t-61 296q0 170 62 298t176.5 199.5t272.5 71.5q162 0 276.5 -72.5t175 -201t60.5 -295.5q0 -170 -61 -298.5t-176 -200.5t-275 -72zM591 111q180 0 268 119.5t88 310.5q0 196 -88.5 312t-267.5 116q-121 0 -199.5 -54.5t-117 -151
t-38.5 -222.5q0 -195 90 -312.5t265 -117.5z" />
    <glyph glyph-name="uni043F" unicode="&#x43f;" horiz-adv-x="1138" 
d="M139 0v1080h859v-1080h-147v939h-565v-939h-147z" />
    <glyph glyph-name="uni0440" unicode="&#x440;" horiz-adv-x="1184" 
d="M625 -30q-149 0 -252 75.5t-156 205t-53 290.5q0 164 53.5 292.5t157.5 202.5t256 74q148 0 254 -75t162.5 -204t56.5 -290q0 -162 -57 -291t-164 -204.5t-258 -75.5zM139 -480v1560h132v-813h16v-747h-148zM610 107q113 0 188 57t112.5 155.5t37.5 221.5q0 122 -37 220
t-112.5 155t-191.5 57q-113 0 -187.5 -55t-111.5 -152.5t-37 -224.5q0 -125 37 -223.5t112 -154.5t190 -56z" />
    <glyph glyph-name="uni0441" unicode="&#x441;" horiz-adv-x="1107" 
d="M588 -30q-163 0 -276 73t-171.5 201.5t-60.5 295.5q2 170 62 298.5t173 200t274 71.5q164 0 285.5 -80t166.5 -219l-144 -46q-38 97 -120.5 150.5t-188.5 53.5q-119 0 -197 -54.5t-116 -151.5t-39 -223q2 -194 90 -311.5t262 -117.5q110 0 187.5 50.5t117.5 147.5
l148 -44q-60 -144 -176 -219.5t-277 -75.5z" />
    <glyph glyph-name="uni0442" unicode="&#x442;" horiz-adv-x="1013" 
d="M433 0v944h-383v136h913v-136h-383v-944h-147z" />
    <glyph glyph-name="uni0443" unicode="&#x443;" horiz-adv-x="1055" 
d="M294 -480l209 567l3 -168l-473 1161h156l388 -971h-64l358 971h150l-580 -1560h-147z" />
    <glyph glyph-name="uni0444" unicode="&#x444;" horiz-adv-x="1440" 
d="M652 -450v429q-158 -25 -288 34.5t-207 193.5t-77 332t77 332.5t207 194.5t288 35v331h136v-331q158 25 288 -35t207 -194.5t77 -332.5t-77 -332t-207 -193.5t-288 -34.5v-429h-136zM652 116v847q-81 14 -156 -4.5t-135 -71t-94.5 -139t-34.5 -209.5t35 -209.5t95 -138.5
t135 -70t155 -5zM788 116q80 -13 155 5t135 69.5t95 138t35 210.5t-34.5 210.5t-94.5 138.5t-135 70.5t-156 4.5v-847z" />
    <glyph glyph-name="uni0445" unicode="&#x445;" horiz-adv-x="1054" 
d="M20 0l422 546l-413 534h176l323 -421l320 421h176l-413 -534l423 -546h-177l-329 433l-331 -433h-177z" />
    <glyph glyph-name="uni0446" unicode="&#x446;" horiz-adv-x="1235" 
d="M1068 -187v187h-929v1080h147v-939h565v939h147v-944h217v-323h-147z" />
    <glyph glyph-name="uni0447" unicode="&#x447;" horiz-adv-x="1088" 
d="M801 0v402q-54 -27 -133 -47t-170 -20q-164 0 -266 73t-133 211q-10 41 -13.5 87t-4.5 83t-1 53v238h148v-238q0 -33 2 -75t9 -82q20 -109 90.5 -165t198.5 -56q80 0 151.5 20.5t121.5 55.5v540h147v-1080h-147z" />
    <glyph glyph-name="uni0448" unicode="&#x448;" horiz-adv-x="1517" 
d="M139 0v1080h143v-944h405v944h143v-944h404v944h143v-1080h-1238z" />
    <glyph glyph-name="uni0449" unicode="&#x449;" horiz-adv-x="1538" 
d="M1371 -187v187h-1232v1080h143v-944h405v944h143v-944h404v944h143v-944h141v-323h-147z" />
    <glyph glyph-name="uni044A" unicode="&#x44a;" horiz-adv-x="1117" 
d="M188 0l-1 954h-147v126h295v-407h252q47 0 92.5 -2t81.5 -8q79 -15 141.5 -53t98.5 -105t36 -168q0 -139 -72 -219t-181 -104q-41 -9 -89 -11.5t-94 -2.5h-413zM335 126h260q33 0 75 2t74 11q53 15 97 60.5t44 137.5q0 91 -42 137.5t-112 61.5q-32 7 -67.5 9t-68.5 2
h-260v-421z" />
    <glyph glyph-name="uni044B" unicode="&#x44b;" horiz-adv-x="1340" 
d="M141 0l-2 1080h148v-407h188q47 0 92 -2t81 -8q80 -16 142 -54t98 -104.5t36 -167.5q0 -139 -72 -219t-181 -104q-41 -9 -89 -11.5t-94 -2.5h-347zM287 126h195q33 0 75 2t74 11q54 15 97.5 60.5t43.5 137.5q0 91 -42 137.5t-112 61.5q-32 7 -67.5 9t-68.5 2h-195v-421z
M1053 0v1080h147v-1080h-147z" />
    <glyph glyph-name="uni044C" unicode="&#x44c;" horiz-adv-x="1069" 
d="M141 0l-2 1080h148v-407h253q47 0 92.5 -2t80.5 -8q80 -15 142.5 -53t98 -105t35.5 -168q0 -139 -71.5 -219t-180.5 -104q-41 -9 -89 -11.5t-95 -2.5h-412zM287 126h260q34 0 76 2t74 11q53 15 96.5 60.5t43.5 137.5q0 91 -42 137.5t-112 61.5q-31 7 -67 9t-69 2h-260
v-421z" />
    <glyph glyph-name="uni044D" unicode="&#x44d;" horiz-adv-x="1108" 
d="M521 -30q-161 0 -277 75.5t-177 219.5l148 44q41 -97 118.5 -147.5t186.5 -50.5q160 0 246.5 99.5t100.5 266.5h-483v126h483q-12 163 -97 264.5t-247 101.5q-108 0 -190.5 -53t-121.5 -151l-144 46q46 139 167.5 219t289.5 80q158 0 271 -71.5t173 -200t60 -299.5
q0 -170 -60.5 -298t-173.5 -199.5t-273 -71.5z" />
    <glyph glyph-name="uni044E" unicode="&#x44e;" horiz-adv-x="1582" 
d="M990 -30q-143 0 -249 61.5t-168.5 173t-75.5 262.5h-211v-467h-147v1080h147v-467h210q13 153 76.5 264.5t170 172t248.5 60.5q161 0 275.5 -73t175 -201t60.5 -294q0 -170 -61.5 -299t-176 -201t-274.5 -72zM987 111q182 0 270.5 118.5t88.5 311.5q0 197 -89.5 312.5
t-268.5 115.5q-171 0 -262 -113.5t-91 -313.5q0 -196 89.5 -313.5t262.5 -117.5z" />
    <glyph glyph-name="uni044F" unicode="&#x44f;" horiz-adv-x="1105" 
d="M817 0v407h-252q-44 0 -90.5 3.5t-86.5 10.5q-114 22 -193.5 100.5t-79.5 217.5q0 136 74 218.5t179 107.5q48 11 97.5 13t85.5 2h413l1 -1080h-148zM80 0l301 453h163l-303 -453h-161zM557 533h260v421h-260q-24 0 -67 -2t-81 -13q-33 -10 -65.5 -34.5t-54.5 -65
t-22 -98.5q0 -81 44.5 -129.5t111.5 -66.5q36 -8 72 -10t62 -2z" />
    <glyph glyph-name="uni0450" unicode="&#x450;" horiz-adv-x="1169" 
d="M542 1250l-119 310h126l119 -310h-126zM597 -30q-158 0 -273.5 70t-179.5 197t-64 298q0 177 63 306t177.5 199t270.5 70q160 0 273 -73.5t171 -210.5t53 -327h-150v52q-4 210 -90.5 317t-252.5 107q-174 0 -266.5 -113t-92.5 -322q0 -204 92.5 -316.5t262.5 -112.5
q116 0 202.5 53.5t136.5 154.5l137 -53q-64 -141 -188.5 -218.5t-281.5 -77.5zM184 499v123h825v-123h-825z" />
    <glyph glyph-name="uni0451" unicode="&#x451;" horiz-adv-x="1169" 
d="M702 1291v160h160v-160h-160zM321 1291v160h160v-160h-160zM597 -30q-158 0 -273.5 70t-179.5 197t-64 298q0 177 63 306t177.5 199t270.5 70q160 0 273 -73.5t171 -210.5t53 -327h-150v52q-4 210 -90.5 317t-252.5 107q-174 0 -266.5 -113t-92.5 -322
q0 -204 92.5 -316.5t262.5 -112.5q116 0 202.5 53.5t136.5 154.5l137 -53q-64 -141 -188.5 -218.5t-281.5 -77.5zM184 499v123h825v-123h-825z" />
    <glyph glyph-name="uni0452" unicode="&#x452;" horiz-adv-x="1188" 
d="M927 -393q-41 -8 -89 -4t-79 12v118q40 -5 70 -3t50.5 17t30.5 47.5t10 88.5v668q0 90 -17 165.5t-54.5 132t-97 87.5t-144.5 31q-78 0 -137.5 -27t-100 -77.5t-61.5 -122.5t-21 -164v-576h-147v1187h-128v125h128v128h132v-128h241v-125h-241v-260q60 91 154 135.5
t209 44.5q97 0 169.5 -30t123 -81t81.5 -116.5t45 -139t14 -146.5v-779q0 -94 -37 -144.5t-104 -63.5z" />
    <glyph glyph-name="uni0453" unicode="&#x453;" horiz-adv-x="930" 
d="M503 1250h-126l120 310h126zM140 0v1080h740v-141h-593v-939h-147z" />
    <glyph glyph-name="uni0454" unicode="&#x454;" horiz-adv-x="1108" 
d="M587 -30q-160 0 -273 71.5t-173.5 199.5t-60.5 298q0 171 60 299.5t173 200t271 71.5q169 0 290.5 -80t166.5 -219l-144 -46q-39 98 -121 151t-191 53q-161 0 -246 -101.5t-98 -264.5h483v-126h-483q14 -167 100.5 -266.5t246.5 -99.5q110 0 187.5 50.5t117.5 147.5
l148 -44q-60 -144 -176 -219.5t-278 -75.5z" />
    <glyph glyph-name="uni0455" unicode="&#x455;" horiz-adv-x="1050" 
d="M543 -29q-190 0 -312.5 82t-150.5 228l150 25q24 -92 109.5 -146.5t211.5 -54.5q123 0 194 51.5t71 140.5q0 50 -22.5 81.5t-91.5 58.5t-206 64q-147 40 -230 80t-118 92.5t-35 128.5q0 92 52 161.5t144 108t214 38.5t218.5 -39.5t155.5 -110.5t70 -165l-150 -27
q-15 95 -94.5 150.5t-201.5 57.5q-115 3 -187 -43.5t-72 -123.5q0 -43 26 -73.5t94.5 -57.5t195.5 -59q149 -38 234 -80t121 -99t36 -141q0 -153 -113.5 -240.5t-312.5 -87.5z" />
    <glyph glyph-name="uni0456" unicode="&#x456;" 
d="M160 1285v165h147v-165h-147zM160 0v1080h147v-1080h-147z" />
    <glyph glyph-name="uni0457" unicode="&#x457;" 
d="M344 1291v160h160v-160h-160zM-37 1291v160h160v-160h-160zM160 0v1080h147v-1080h-147z" />
    <glyph glyph-name="uni0458" unicode="&#x458;" horiz-adv-x="501" 
d="M-20 -480v142h61q73 0 116.5 37.5t43.5 125.5v1255h146v-1292q0 -135 -64.5 -201.5t-197.5 -66.5h-105zM201 1285v165h146v-165h-146z" />
    <glyph glyph-name="uni0459" unicode="&#x459;" horiz-adv-x="1675" 
d="M40 0v129q60 -11 91 5t46 56t26 99q17 98 30 216t23 260.5t21 314.5h681v-407h187q40 0 85 -1t89 -9q73 -13 136 -50.5t101.5 -104.5t38.5 -169q0 -144 -74 -223t-179 -102q-49 -10 -101 -12t-82 -2h-348l-1 939h-397q-7 -106 -16 -211t-18.5 -201.5t-20.5 -177.5
t-23 -140q-18 -89 -47.5 -142t-87.5 -70t-160 3zM958 126h195q37 0 76 2t73 11t66.5 32t53.5 63.5t21 105.5q0 89 -42.5 135t-111.5 61q-37 8 -76 9.5t-60 1.5h-195v-421z" />
    <glyph glyph-name="uni045A" unicode="&#x45a;" horiz-adv-x="1609" 
d="M139 0v1080h147v-407h458v407h148v-407h187q40 0 85 -1t89 -9q73 -13 136 -50.5t101.5 -104.5t38.5 -169q0 -144 -74 -223t-179 -102q-49 -10 -101 -12t-82 -2h-348l-1 547h-458v-547h-147zM892 126h195q37 0 76 2t73 11t66.5 32t53.5 63.5t21 105.5q0 89 -42.5 135
t-111.5 61q-37 8 -76 9.5t-60 1.5h-195v-421z" />
    <glyph glyph-name="uni045B" unicode="&#x45b;" horiz-adv-x="1188" 
d="M12 1187v125h501v-125h-501zM920 0v551q0 90 -17 165.5t-54.5 132t-97 87.5t-144.5 31q-78 0 -137.5 -27t-100 -77.5t-61.5 -122.5t-21 -164l-104 23q0 166 58 279t160 171t234 58q97 0 169.5 -30t123 -81t81.5 -116.5t45 -139t14 -146.5v-594h-148zM139 0v1440h133v-813
h15v-627h-148z" />
    <glyph glyph-name="uni045C" unicode="&#x45c;" horiz-adv-x="992" 
d="M534 1250h-126l119 310h126zM139 0l1 1080h148v-520l482 520h196l-506 -540l572 -540h-214l-530 520v-520h-149z" />
    <glyph glyph-name="uni045D" unicode="&#x45d;" horiz-adv-x="1138" 
d="M583 1250l-120 310h126l120 -310h-126zM998 1080v-1080h-143v841l-592 -841h-124v1080h143v-834l593 834h123z" />
    <glyph glyph-name="uni045E" unicode="&#x45e;" horiz-adv-x="1055" 
d="M569 1208q-72 0 -130.5 35t-93 93.5t-34.5 129.5h122q0 -56 40 -96t96 -40q57 0 96.5 40t39.5 96h122q0 -71 -35 -129.5t-93.5 -93.5t-129.5 -35zM294 -480l209 567l3 -168l-473 1161h156l388 -971h-64l358 971h150l-580 -1560h-147z" />
    <glyph glyph-name="uni045F" unicode="&#x45f;" horiz-adv-x="1138" 
d="M517 -240v240h-378v1080h147v-939h565v939h147v-1080h-334v-240h-147z" />
    <glyph glyph-name="uni0490" unicode="&#x490;" horiz-adv-x="1080" 
d="M140 0v1440h773v187h147v-328h-773v-1299h-147z" />
    <glyph glyph-name="uni0491" unicode="&#x491;" horiz-adv-x="930" 
d="M140 0v1080h593v187h147v-328h-593v-939h-147z" />
    <glyph glyph-name="Ustraitcy" unicode="&#x4ae;" horiz-adv-x="1112" 
d="M483 0v603l-483 837h170l387 -669l385 669h170l-481 -837v-603h-148z" />
    <glyph glyph-name="ustraitcy" unicode="&#x4af;" horiz-adv-x="1016" 
d="M432 -360v360l-392 1080h151l317 -888l319 888h149l-392 -1080v-360h-152z" />
    <glyph glyph-name="uni04BA" unicode="&#x4ba;" horiz-adv-x="1293" 
d="M287 1440v-676l-40 63q68 50 168.5 80t225.5 30q188 0 300 -69t162 -190.5t50 -278.5v-399h-148v348q0 101 -19 182.5t-62.5 140.5t-116 90.5t-180.5 31.5q-133 0 -229 -40t-142 -88l31 118v-783h-147v1440h147z" />
    <glyph glyph-name="uni04BB" unicode="&#x4bb;" horiz-adv-x="1115" 
d="M314 1080v-402q54 28 133 47.5t170 19.5q164 0 266.5 -73t132.5 -211q9 -41 13 -86.5t5 -83t1 -53.5v-238h-148v238q0 34 -2 76t-10 81q-20 109 -90 165t-198 56q-80 0 -151.5 -20.5t-121.5 -55.5v-540h-147v1080h147z" />
    <glyph glyph-name="uni04E8" unicode="&#x4e8;" horiz-adv-x="1487" 
d="M183 647v146h1107v-146h-1107zM723 -30q-215 0 -363 95.5t-224 264.5t-76 390t76 390t224 264.5t363 95.5q216 0 363.5 -95.5t224 -264.5t76.5 -390t-76.5 -390t-224 -264.5t-363.5 -95.5zM723 111q169 0 282 77t169.5 214.5t56.5 317.5t-56.5 317t-169.5 214t-282 78
q-169 0 -281 -77t-168.5 -214.5t-57.5 -317.5t55.5 -316.5t169.5 -214t282 -78.5z" />
    <glyph glyph-name="uni04E9" unicode="&#x4e9;" horiz-adv-x="1183" 
d="M171 477v126h852v-126h-852zM591 -30q-161 0 -275 73t-175 202t-61 296q0 170 62 298t176.5 199.5t272.5 71.5q162 0 276.5 -72.5t175 -201t60.5 -295.5q0 -170 -61 -298.5t-176 -200.5t-275 -72zM591 111q180 0 268 119.5t88 310.5q0 196 -88.5 312t-267.5 116
q-121 0 -199.5 -54.5t-117 -151t-38.5 -222.5q0 -195 90 -312.5t265 -117.5z" />
    <glyph glyph-name="uni2011" unicode="&#x2011;" horiz-adv-x="840" 
d="M120 567v126h600v-126h-600z" />
    <glyph glyph-name="endash" unicode="&#x2013;" horiz-adv-x="1080" 
d="M120 567v126h840v-126h-840z" />
    <glyph glyph-name="emdash" unicode="&#x2014;" horiz-adv-x="1560" 
d="M120 567v126h1320v-126h-1320z" />
    <glyph glyph-name="quoteleft" unicode="&#x2018;" horiz-adv-x="443" 
d="M303 1021q-78 -16 -124 30t-46 138v251h170v-211h-90q-3 -37 1.5 -69t22.5 -50.5t57 -16.5z" />
    <glyph glyph-name="quoteright" unicode="&#x2019;" horiz-adv-x="443" 
d="M140 1020l9 73q40 -3 58 16t22 51t2 69h-91v211h171v-251q0 -92 -46.5 -138t-124.5 -31z" />
    <glyph glyph-name="quotesinglbase" unicode="&#x201a;" horiz-adv-x="531" 
d="M120 -209l9 73q40 -3 58 16t22 51t2 69h-91v211h171v-251q0 -92 -46.5 -138t-124.5 -31z" />
    <glyph glyph-name="quotedblleft" unicode="&#x201c;" horiz-adv-x="745" 
d="M585 1451l-10 -73q-39 3 -57 -16t-22 -51t-2 -69h91v-211h-171v251q0 92 46.5 138t124.5 31zM331 1451l-10 -73q-39 3 -57 -16t-22 -51t-2 -69h91v-211h-171v251q0 92 46.5 138t124.5 31z" />
    <glyph glyph-name="quotedblright" unicode="&#x201d;" horiz-adv-x="745" 
d="M160 1034l9 73q40 -3 58 16t22 51t2 69h-91v211h171v-251q0 -92 -46.5 -138t-124.5 -31zM414 1034l9 73q40 -3 58 16t22 51t2 69h-91v211h171v-251q0 -92 -46.5 -138t-124.5 -31z" />
    <glyph glyph-name="quotedblbase" unicode="&#x201e;" horiz-adv-x="745" 
d="M160 -209l9 73q40 -3 58 16t22 51t2 69h-91v211h171v-251q0 -92 -46.5 -138t-124.5 -31zM414 -209l9 73q40 -3 58 16t22 51t2 69h-91v211h171v-251q0 -92 -46.5 -138t-124.5 -31z" />
    <glyph glyph-name="uni201F" unicode="&#x201f;" horiz-adv-x="745" 
d="M585 1034q-78 -15 -124.5 31t-46.5 138v250h171v-210h-91q-2 -38 2 -69.5t22 -50.5t57 -16zM331 1034q-78 -15 -124.5 31t-46.5 138v250h171v-210h-91q-2 -38 2 -69.5t22 -50.5t57 -16z" />
    <glyph glyph-name="dagger" unicode="&#x2020;" horiz-adv-x="1080" 
d="M467 0v1440h147v-1440h-147zM120 954v126h840v-126h-840z" />
    <glyph glyph-name="daggerdbl" unicode="&#x2021;" horiz-adv-x="819" 
d="M336 0v560l90 -90h-305v126h305l-90 -90v473l90 -90h-305v126h305l-90 -90v515h147v-515l-90 90h306v-126h-306l90 90v-473l-90 90h306v-126h-306l90 90v-560h-147z" />
    <glyph glyph-name="bullet" unicode="&#x2022;" horiz-adv-x="1307" 
d="M658 397q-66 0 -120 30.5t-86 83.5t-32 119t32 119.5t85.5 83.5t120.5 30q62 0 114 -30t83.5 -83t31.5 -120q0 -66 -31.5 -119t-83.5 -83.5t-114 -30.5z" />
    <glyph glyph-name="ellipsis" unicode="&#x2026;" horiz-adv-x="1264" 
d="M160 0v171h171v-171h-171zM547 0v171h171v-171h-171zM933 0v171h171v-171h-171z" />
    <glyph glyph-name="perthousand" unicode="&#x2030;" horiz-adv-x="2636" 
d="M280 0l-100 100l1343 1340l100 -99zM1323 -30q-99 0 -180.5 48.5t-130.5 130t-49 181.5q0 98 50 180t132 131t178 49q99 0 181 -48.5t130.5 -130t48.5 -181.5t-48.5 -181.5t-130.5 -130t-181 -48.5zM1323 103q61 0 113 31t83 82.5t31 113.5t-31 113.5t-83 82.5t-113 31
q-62 0 -113.5 -31t-83 -82.5t-31.5 -113.5t31.5 -113.5t83 -82.5t113.5 -31zM480 750q-99 0 -181 48.5t-130.5 130t-48.5 181.5q0 98 50 180t132 131t178 49q99 0 180.5 -48.5t130.5 -130t49 -181.5t-49 -181.5t-130.5 -130t-180.5 -48.5zM480 883q62 0 113.5 31t82.5 82.5
t31 113.5t-31 113.5t-82.5 82.5t-113.5 31t-113.5 -31t-82.5 -82.5t-31 -113.5t31 -113.5t82.5 -82.5t113.5 -31zM2156 -30q-99 0 -180.5 48.5t-130.5 130t-49 181.5q0 98 50 180t132 131t178 49q99 0 181 -48.5t130.5 -130t48.5 -181.5t-48.5 -181.5t-130.5 -130
t-181 -48.5zM2156 103q62 0 113.5 31t82.5 82.5t31 113.5t-31 113.5t-82.5 82.5t-113.5 31t-113.5 -31t-82.5 -82.5t-31 -113.5t31 -113.5t82.5 -82.5t113.5 -31z" />
    <glyph glyph-name="guilsinglleft" unicode="&#x2039;" horiz-adv-x="1229" 
d="M749 161l-469 469l469 469l94 -92l-382 -377l382 -377z" />
    <glyph glyph-name="guilsinglright" unicode="&#x203a;" horiz-adv-x="1229" 
d="M479 161l-93 92l381 377l-381 377l93 92l470 -469z" />
    <glyph glyph-name="fraction" unicode="&#x2044;" horiz-adv-x="426" 
d="M-261 0l-101 78l1051 1367l99 -78z" />
    <glyph glyph-name="uni2060" unicode="&#x2060;" horiz-adv-x="0" 
 />
    <glyph glyph-name="uni2070" horiz-adv-x="891" 
d="M445 517q-89 0 -157.5 39.5t-108 110t-39.5 162.5v316q0 92 39.5 162.5t108 110.5t157.5 40t158 -40t108.5 -110t39.5 -163v-316q0 -92 -39 -162t-107.5 -110t-159.5 -40zM445 623q84 0 138.5 58t54.5 147v320q0 87 -54 145t-139 58q-82 0 -137 -57t-55 -146v-320
q0 -87 54 -146t138 -59z" />
    <glyph glyph-name="uni2074" unicode="&#x2074;" horiz-adv-x="820" 
d="M515 540v165h-415v107l297 628h127l-297 -628h288v253h112v-253h93v-107h-93v-165h-112z" />
    <glyph glyph-name="uni2075" horiz-adv-x="801" 
d="M392 520q-105 0 -184.5 63t-107.5 162l107 28q17 -66 71 -105t117 -39q82 0 138 57t56 136q0 54 -26.5 98.5t-71 70.5t-96.5 26q-59 0 -101.5 -25t-66.5 -61l-99 38l27 471h484v-105h-430l45 40l-21 -394l-31 43q37 46 91.5 70.5t114.5 24.5q83 0 149.5 -39.5t105 -106.5
t38.5 -151q0 -83 -42 -151.5t-112.5 -109.5t-154.5 -41z" />
    <glyph glyph-name="uni2076" horiz-adv-x="886" 
d="M450 514q-87 0 -157.5 41.5t-111.5 113t-41 162.5v302q0 96 41 169t113 114.5t165 41.5q76 0 140.5 -30.5t109.5 -87.5l-85 -75q-28 39 -71 62.5t-94 23.5q-60 0 -106 -28.5t-72 -75.5t-26 -102v-204l-32 36q39 64 102 101t138 37q84 0 151.5 -39t106 -106.5t38.5 -151.5
q0 -85 -42 -154t-112 -109.5t-155 -40.5zM450 621q82 0 138.5 57.5t56.5 139.5q0 81 -56.5 137.5t-138.5 56.5q-81 0 -138 -56.5t-57 -137.5t56.5 -139t138.5 -58z" />
    <glyph glyph-name="uni2077" horiz-adv-x="709" 
d="M165 540l325 793h-410v107h529v-107l-323 -793h-121z" />
    <glyph glyph-name="uni2078" horiz-adv-x="833" 
d="M416 514q-87 0 -153.5 35t-104.5 97t-38 145q0 86 42.5 153t127.5 100l-1 -52q-72 30 -109 88t-37 130q0 115 76.5 181.5t196.5 66.5t196.5 -66.5t76.5 -181.5q0 -72 -36.5 -130t-112.5 -86l1 51q86 -35 129 -101.5t43 -152.5q0 -83 -38 -145t-105 -97t-154 -35zM416 621
q79 0 128 44t49 126q0 85 -48.5 128.5t-128.5 43.5t-129 -43.5t-49 -128.5q0 -82 49.5 -126t128.5 -44zM416 1070q70 0 112.5 35t42.5 105t-42.5 105t-112.5 35q-68 0 -111 -35t-43 -105t43 -105t111 -35z" />
    <glyph glyph-name="uni2079" horiz-adv-x="886" 
d="M436 1458q87 0 157.5 -41t111.5 -113t41 -163v-302q0 -96 -41 -169t-113 -114.5t-165 -41.5q-75 0 -140 31t-110 87l85 75q28 -39 71 -62.5t94 -23.5q60 0 106 28.5t72 75.5t26 102v204l32 -36q-38 -64 -101.5 -101t-138.5 -37q-84 0 -151.5 39t-106 106.5t-38.5 151.5
q0 85 42 154t112 109.5t155 40.5zM436 1351q-81 0 -138 -57.5t-57 -139.5q0 -80 57 -137t138 -57q82 0 138.5 57t56.5 137q0 81 -56.5 139t-138.5 58z" />
    <glyph glyph-name="uni2080" horiz-adv-x="891" 
d="M445 -23q-89 0 -157.5 39.5t-108 110t-39.5 162.5v316q0 92 39.5 162.5t108 110.5t157.5 40t158 -40t108.5 -110t39.5 -163v-316q0 -92 -39 -162t-107.5 -110t-159.5 -40zM445 83q84 0 138.5 58t54.5 147v320q0 87 -54 145t-139 58q-82 0 -137 -57t-55 -146v-320
q0 -87 54 -146t138 -59z" />
    <glyph glyph-name="uni2081" horiz-adv-x="642" 
d="M290 0v777l-170 -103v124l170 102h112v-900h-112z" />
    <glyph glyph-name="uni2082" horiz-adv-x="800" 
d="M100 0l1 100l400 361q50 45 67 85.5t17 81.5q0 79 -51.5 133t-129.5 54q-54 0 -96 -26t-66.5 -68t-22.5 -91h-115q0 85 39 150.5t107 102.5t155 37q84 0 150.5 -38.5t105.5 -105t39 -149.5q0 -59 -15.5 -101.5t-46 -79t-76.5 -77.5l-348 -315l-21 53h507v-107h-600z" />
    <glyph glyph-name="uni2083" horiz-adv-x="779" 
d="M365 -21q-100 0 -178 55t-107 150l107 31q21 -64 69.5 -96.5t108.5 -31.5q83 1 131.5 53.5t48.5 134.5q0 83 -50 135.5t-132 52.5q-23 0 -47 -6t-47 -16l-54 87l352 320l21 -54h-472v106h533v-107l-303 -288l-3 52q95 10 166.5 -24.5t110.5 -102t39 -155.5
q0 -87 -38.5 -153.5t-105 -104.5t-150.5 -38z" />
    <glyph glyph-name="uni2084" horiz-adv-x="820" 
d="M515 0v165h-415v107l297 628h127l-297 -628h288v253h112v-253h93v-107h-93v-165h-112z" />
    <glyph glyph-name="uni2085" horiz-adv-x="801" 
d="M392 -20q-105 0 -184.5 63t-107.5 162l107 28q17 -66 71 -105t117 -39q82 0 138 57t56 136q0 54 -26.5 98.5t-71 70.5t-96.5 26q-59 0 -101.5 -25t-66.5 -61l-99 38l27 471h484v-105h-430l45 40l-21 -394l-31 43q37 46 91.5 70.5t114.5 24.5q83 0 149.5 -39.5t105 -106.5
t38.5 -151q0 -83 -42 -151.5t-112.5 -109.5t-154.5 -41z" />
    <glyph glyph-name="uni2086" horiz-adv-x="886" 
d="M450 -26q-87 0 -157.5 41.5t-111.5 113t-41 162.5v302q0 96 41 169t113 114.5t165 41.5q76 0 140.5 -30.5t109.5 -87.5l-85 -75q-28 39 -71 62.5t-94 23.5q-60 0 -106 -28.5t-72 -75.5t-26 -102v-204l-32 36q39 64 102 101t138 37q84 0 151.5 -39t106 -106.5t38.5 -151.5
q0 -85 -42 -154t-112 -109.5t-155 -40.5zM450 81q82 0 138.5 57.5t56.5 139.5q0 81 -56.5 137.5t-138.5 56.5q-81 0 -138 -56.5t-57 -137.5t56.5 -139t138.5 -58z" />
    <glyph glyph-name="uni2087" horiz-adv-x="709" 
d="M165 0l325 793h-410v107h529v-107l-323 -793h-121z" />
    <glyph glyph-name="uni2088" horiz-adv-x="833" 
d="M416 -26q-87 0 -153.5 35t-104.5 97t-38 145q0 86 42.5 153t127.5 100l-1 -52q-72 30 -109 88t-37 130q0 115 76.5 181.5t196.5 66.5t196.5 -66.5t76.5 -181.5q0 -72 -36.5 -130t-112.5 -86l1 51q86 -35 129 -101.5t43 -152.5q0 -83 -38 -145t-105 -97t-154 -35zM416 81
q79 0 128 44t49 126q0 85 -48.5 128.5t-128.5 43.5t-129 -43.5t-49 -128.5q0 -82 49.5 -126t128.5 -44zM416 530q70 0 112.5 35t42.5 105t-42.5 105t-112.5 35q-68 0 -111 -35t-43 -105t43 -105t111 -35z" />
    <glyph glyph-name="uni2089" horiz-adv-x="886" 
d="M436 918q87 0 157.5 -41t111.5 -113t41 -163v-302q0 -96 -41 -169t-113 -114.5t-165 -41.5q-75 0 -140 31t-110 87l85 75q28 -39 71 -62.5t94 -23.5q60 0 106 28.5t72 75.5t26 102v204l32 -36q-38 -64 -101.5 -101t-138.5 -37q-84 0 -151.5 39t-106 106.5t-38.5 151.5
q0 85 42 154t112 109.5t155 40.5zM436 811q-81 0 -138 -57.5t-57 -139.5q0 -80 57 -137t138 -57q82 0 138.5 57t56.5 137q0 81 -56.5 139t-138.5 58z" />
    <glyph glyph-name="Euro" unicode="&#x20ac;" horiz-adv-x="1297" 
d="M877 -30q-212 0 -361 98t-226.5 267.5t-76.5 384.5q5 225 83 393.5t224 262.5t357 94q92 0 178.5 -21t160.5 -64l-79 -124q-57 33 -123.5 49.5t-136.5 17.5q-169 1 -281 -76.5t-168.5 -215t-56.5 -316.5q0 -183 56.5 -319.5t168.5 -212.5t281 -77q142 -3 262 67l78 -122
q-74 -43 -161 -64.5t-179 -21.5zM60 494v126h905v-126h-905zM60 817v126h905v-126h-905z" />
    <glyph glyph-name="trademark" unicode="&#x2122;" horiz-adv-x="1789" 
d="M905 690v750h99l282 -483l282 483h99l2 -750h-114v518l-230 -400h-78l-229 400v-518h-113zM382 690v638h-262v112h641v-112h-260v-638h-119z" />
    <glyph glyph-name="arrowup" unicode="&#x2191;" horiz-adv-x="1419" 
d="M647 0v1221l-328 -328l-79 80l469 469l470 -469l-79 -80l-327 328v-1221h-126z" />
    <glyph glyph-name="arrowdown" unicode="&#x2193;" horiz-adv-x="1419" 
d="M647 1300h126v-1221l327 328l79 -80l-470 -469l-469 469l79 80l328 -328v1221z" />
    <glyph glyph-name="minus" unicode="&#x2212;" horiz-adv-x="1080" 
d="M120 657v126h840v-126h-840z" />
    <glyph glyph-name="uni2215" unicode="&#x2215;" horiz-adv-x="775" 
d="M504 1440h151l-384 -1440h-151z" />
    <glyph glyph-name="i.loclTRK" 
d="M160 1285v165h147v-165h-147zM160 0v1080h147v-1080h-147z" />
    <glyph glyph-name="uni0414.loclBGR" horiz-adv-x="1459" 
d="M67 -167v308h1319v-308h-141v167h-1038v-167h-140zM629 1440h196l496 -1440h-154l-442 1273l-438 -1273h-154z" />
    <glyph glyph-name="uni0416.loclBGR" horiz-adv-x="1781" 
d="M20 0l638 745l-583 695h185l557 -673v673h147v-673l557 673h185l-583 -695l638 -745h-188l-609 713v-713h-147v713l-608 -713h-189z" />
    <glyph glyph-name="uni041A.loclBGR" horiz-adv-x="1187" 
d="M140 0v1440h147v-680l657 680h188l-671 -695l726 -745h-192l-708 720v-720h-147z" />
    <glyph glyph-name="uni041B.loclBGR" horiz-adv-x="1207" 
d="M506 1440h195l496 -1440h-153l-442 1273l-439 -1273h-153z" />
    <glyph glyph-name="uni0432.loclBGR" horiz-adv-x="1136" 
d="M602 -30q-177 0 -293.5 78t-151.5 213q-10 39 -14 81.5t-4 86.5v634q0 45 6 88.5t20 81.5q25 75 79 128.5t129.5 81t169.5 27.5q121 0 213 -46.5t143.5 -132.5t51.5 -204q0 -121 -58 -208t-175 -110l14 26q55 -3 115.5 -28.5t112.5 -74t84.5 -122t32.5 -171.5
q0 -127 -56 -223.5t-162.5 -151t-256.5 -54.5zM609 111q93 0 165 37t112.5 103t40.5 154q0 141 -103 216t-278 79v135q71 8 128.5 36.5t91.5 81.5t34 133q0 114 -70 178.5t-184 64.5q-75 0 -139.5 -33.5t-92.5 -110.5q-14 -39 -18 -82.5t-4 -79.5v-601q0 -34 3.5 -70.5
t11.5 -64.5q26 -82 112.5 -129t189.5 -47z" />
    <glyph glyph-name="uni0433.loclBGR" horiz-adv-x="1050" 
d="M507 -29q-199 0 -312.5 87.5t-113.5 240.5q0 84 36 141t121 99t234 80q127 32 195.5 59t94.5 57.5t26 73.5q0 77 -72 123.5t-187 43.5q-122 -2 -201 -57.5t-95 -150.5l-150 27q11 94 70 165t155.5 110.5t218.5 39.5t214 -38.5t144 -108t52 -161.5q0 -76 -35 -128.5
t-118 -92.5t-230 -80q-137 -37 -205.5 -64t-91.5 -58.5t-23 -81.5q0 -89 71 -140.5t194 -51.5q126 0 212 54.5t109 146.5l150 -25q-28 -146 -150.5 -228t-312.5 -82z" />
    <glyph glyph-name="uni0434.loclBGR" horiz-adv-x="1184" 
d="M569 -510q-83 0 -163.5 24.5t-148.5 77t-114 136.5l133 74q45 -90 126.5 -129.5t166.5 -39.5q117 0 189.5 43.5t105.5 128.5t32 212v288h17v775h131v-1065q0 -46 -2.5 -88.5t-9.5 -83.5q-19 -121 -78.5 -199t-156 -116t-228.5 -38zM559 -30q-151 0 -258 75.5t-164 204.5
t-57 291q0 161 56.5 290t162.5 204t254 75q152 0 256 -74t157.5 -202.5t53.5 -292.5q0 -161 -53 -290.5t-156 -205t-252 -75.5zM574 107q115 0 190 56t112 154.5t37 223.5q0 127 -37 224.5t-111.5 152.5t-187.5 55q-116 0 -192 -57t-112.5 -155t-36.5 -220
q0 -123 37.5 -221.5t112.5 -155.5t188 -57z" />
    <glyph glyph-name="uni0436.loclBGR" horiz-adv-x="1412" 
d="M21 0l456 540l-436 540h165l425 -532v892h136v-892l424 532h166l-437 -540l456 -540h-171l-438 532v-532h-136v532l-438 -532h-172z" />
    <glyph glyph-name="uni0437.loclBGR" horiz-adv-x="1219" 
d="M614 -390q-147 0 -254.5 43t-176.5 113.5t-103 152.5l134 78q24 -68 76 -124t134 -89t195 -33q117 0 198.5 37t123.5 104t42 156q0 98 -47 152t-126 76.5t-176 25.5q-73 3 -104 4t-41 1h-19v142h37t64 0.5t54 1.5q143 7 225 75t82 184q0 123 -86.5 191t-223.5 68
q-129 0 -217.5 -61.5t-144.5 -164.5l-120 89q68 122 192 200t294 78q91 0 174.5 -25t148 -74t102 -123.5t37.5 -174.5q0 -117 -51.5 -204t-132.5 -131q110 -33 172.5 -116t62.5 -217q0 -132 -65 -230t-183.5 -151.5t-276.5 -53.5z" />
    <glyph glyph-name="uni0438.loclBGR" horiz-adv-x="1188" 
d="M553 -27q-97 0 -169.5 30t-123 81t-81.5 116.5t-45 139t-14 146.5v594h148v-551q0 -89 17 -165t54.5 -132.5t97 -87.5t144.5 -31q78 0 137.5 27t100 77.5t61.5 123t21 163.5l104 -23q0 -166 -58 -279t-160 -171t-234 -58zM916 0v266h-15v814h147v-1080h-132z" />
    <glyph glyph-name="uni0439.loclBGR" horiz-adv-x="1188" 
d="M583 1208q-71 0 -129.5 35t-93.5 93.5t-35 129.5h122q0 -56 40.5 -96t95.5 -40q57 0 96.5 40t39.5 96h122q0 -71 -34.5 -129.5t-93 -93.5t-130.5 -35zM553 -27q-97 0 -169.5 30t-123 81t-81.5 116.5t-45 139t-14 146.5v594h148v-551q0 -89 17 -165t54.5 -132.5t97 -87.5
t144.5 -31q78 0 137.5 27t100 77.5t61.5 123t21 163.5l104 -23q0 -166 -58 -279t-160 -171t-234 -58zM916 0v266h-15v814h147v-1080h-132z" />
    <glyph glyph-name="uni045D.loclBGR" horiz-adv-x="1148" 
d="M583 1250l-119 310h126l119 -310h-126zM553 -27q-97 0 -169.5 30t-123 81t-81.5 116.5t-45 139t-14 146.5v594h148v-551q0 -89 17 -165t54.5 -132.5t97 -87.5t144.5 -31q78 0 137.5 27t100 77.5t61.5 123t21 163.5l104 -23q0 -166 -58 -279t-160 -171t-234 -58zM916 0
v266h-15v814h147v-1080h-132z" />
    <glyph glyph-name="uni043A.loclBGR" horiz-adv-x="992" 
d="M139 0l1 1440h148v-880l482 520h196l-506 -540l572 -540h-214l-530 520v-520h-149z" />
    <glyph glyph-name="uni043B.loclBGR" horiz-adv-x="1016" 
d="M432 1080h152l392 -1080h-151l-317 888l-319 -888h-149z" />
    <glyph glyph-name="uni043D.loclBGR" horiz-adv-x="1182" 
d="M139 0v1080h147v-469h609v469h147v-1080h-147v470h-609v-470h-147z" />
    <glyph glyph-name="uni043F.loclBGR" horiz-adv-x="1188" 
d="M920 0v551q0 90 -17 165.5t-54.5 132t-97 87.5t-144.5 31q-78 0 -137.5 -27t-100 -77.5t-61.5 -122.5t-21 -164l-104 23q0 166 58 279t160 171t234 58q97 0 169.5 -30t123 -81t81.5 -116.5t45 -139t14 -146.5v-594h-148zM139 0v1080h133v-266h15v-814h-148z" />
    <glyph glyph-name="uni0442.loclBGR" horiz-adv-x="1696" 
d="M1428 0l1 709q0 125 -69.5 196.5t-176.5 71.5q-61 0 -119 -28t-95.5 -90t-37.5 -162l-87 25q-3 116 45.5 203t134 135.5t193.5 48.5q163 0 261 -100.5t98 -271.5l-1 -737h-147zM139 0v1080h132v-266h16v-814h-148zM785 0l1 699q0 129 -68.5 203.5t-180.5 74.5t-181 -76.5
t-69 -203.5l-88 48q0 104 49 186.5t134 130t193 47.5q103 0 183.5 -44t126.5 -128t46 -204l-1 -733h-145z" />
    <glyph glyph-name="uni0447.loclBGR" horiz-adv-x="1088" 
d="M801 0v402q-54 -27 -133 -47t-170 -20q-164 0 -266 73t-133 211q-10 41 -13.5 87t-4.5 83t-1 53v238h148v-238q0 -33 2 -75t9 -82q20 -109 90.5 -165t198.5 -56q80 0 151.5 20.5t121.5 55.5v540h147v-1080h-147z" />
    <glyph glyph-name="uni0446.loclBGR" horiz-adv-x="1223" 
d="M916 0v136h287v-303h-147v167h-140zM553 -27q-97 0 -169.5 30t-123 81t-81.5 116.5t-45 139t-14 146.5v594h148v-551q0 -89 17 -165t54.5 -132.5t97 -87.5t144.5 -31q78 0 137.5 27t100 77.5t61.5 123t21 163.5l104 -23q0 -166 -58 -279t-160 -171t-234 -58zM916 0v266
h-15v814h147v-1080h-132z" />
    <glyph glyph-name="uni0448.loclBGR" horiz-adv-x="1696" 
d="M268 1080l-1 -709q0 -125 70 -196.5t176 -71.5q61 0 119 28t95.5 90t37.5 162l87 -25q3 -116 -45.5 -203t-134 -135.5t-193.5 -48.5q-163 0 -261 100.5t-98 271.5l1 737h147zM1557 1080v-1080h-132v266h-16v814h148zM911 1080l-1 -699q0 -128 68.5 -203t180.5 -75
t181 76.5t69 203.5l88 -48q0 -104 -49 -186.5t-134 -130t-193 -47.5q-103 0 -183.5 44t-126.5 128t-46 204l1 733h145z" />
    <glyph glyph-name="uni0449.loclBGR" horiz-adv-x="1731" 
d="M1424 0v136h287v-323h-147v187h-140zM268 1080l-1 -709q0 -125 70 -196.5t176 -71.5q61 0 119 28t95.5 90t37.5 162l87 -25q3 -116 -45.5 -203t-134 -135.5t-193.5 -48.5q-163 0 -261 100.5t-98 271.5l1 737h147zM1557 1080v-1080h-132v266h-16v814h148zM911 1080
l-1 -699q0 -128 68.5 -203t180.5 -75t181 76.5t69 203.5l88 -48q0 -104 -49 -186.5t-134 -130t-193 -47.5q-103 0 -183.5 44t-126.5 128t-46 204l1 733h145z" />
    <glyph glyph-name="uni044C.loclBGR" horiz-adv-x="1069" 
d="M141 0l-2 1080h148v-407h253q47 0 92.5 -2t80.5 -8q80 -15 142.5 -53t98 -105t35.5 -168q0 -139 -71.5 -219t-180.5 -104q-41 -9 -89 -11.5t-95 -2.5h-412zM287 126h260q34 0 76 2t74 11q53 15 96.5 60.5t43.5 137.5q0 91 -42 137.5t-112 61.5q-31 7 -67 9t-69 2h-260
v-421z" />
    <glyph glyph-name="uni044E.loclBGR" horiz-adv-x="1579" 
d="M140 0v1440h147v-1440h-147zM990 -30q-143 0 -249 61.5t-168.5 173t-75.5 262.5h-211v-467h-147v1080h147v-467h210q13 153 76.5 264.5t170 172t248.5 60.5q161 0 275.5 -73t175 -201t60.5 -294q0 -170 -61.5 -299t-176 -201t-274.5 -72zM987 111q182 0 270.5 118.5
t88.5 311.5q0 197 -89.5 312.5t-268.5 115.5q-171 0 -262 -113.5t-91 -313.5q0 -196 89.5 -313.5t262.5 -117.5z" />
    <glyph glyph-name="uni0431.loclSRB" horiz-adv-x="1166" 
d="M573 -31q-151 1 -259 66t-167.5 194t-64.5 322q-3 85 4 185.5t22 191.5t36 148q26 74 74.5 138.5t112.5 105.5q62 42 140.5 65.5t164 36.5t170 23t156.5 25l16 -133q-55 -11 -130 -20t-157 -21.5t-157 -33.5t-128 -55q-81 -49 -124.5 -148t-53.5 -227q62 97 164.5 146
t222.5 49q146 0 251.5 -67t162.5 -186t57 -273q0 -161 -62.5 -281t-177.5 -185.5t-273 -65.5zM584 110q170 0 258.5 106t88.5 282q0 180 -91.5 284t-257.5 104t-255 -104t-89 -284t89 -284t257 -104z" />
    <glyph glyph-name="colon.case" horiz-adv-x="598" 
d="M220 280v171h171v-171h-171zM221 989v171h171v-171h-171z" />
    <glyph glyph-name="exclamdown.case" horiz-adv-x="627" 
d="M240 1440h147v-165h-147v165zM240 1080h147v-1080h-147v1080z" />
    <glyph glyph-name="questiondown.case" horiz-adv-x="1047" 
d="M625 1047q0 -78 -7 -137.5t-40 -119.5q-30 -57 -73.5 -94.5t-92 -71t-91.5 -79.5q-38 -44 -51.5 -90.5t-13.5 -97.5q0 -50 13 -90t38 -70q40 -48 98.5 -66.5t120.5 -18.5q63 0 117 17.5t88 53.5q35 33 50 78t14 94h152q-4 -79 -34 -154.5t-90 -126.5q-59 -53 -137 -78
t-159 -25q-98 0 -186 30t-148 98q-47 52 -70 117.5t-23 138.5q0 83 31.5 156.5t86.5 129.5q34 37 77.5 69t82.5 65t61 72q27 48 28.5 91.5t1.5 108.5h156zM625 1440v-196h-156v196h156z" />
    <glyph glyph-name="periodcentered.case" horiz-adv-x="453" 
d="M229 613q-45 0 -77 30.5t-32 76.5t32 76.5t77 30.5q43 0 73.5 -30.5t30.5 -76.5t-30.5 -76.5t-73.5 -30.5z" />
    <glyph glyph-name="parenleft.case" horiz-adv-x="852" 
d="M657 -299q-118 135 -202.5 301.5t-130 349.5t-44.5 368q-1 185 44.5 368.5t130 349.5t202.5 301l108 -84q-116 -139 -194 -291.5t-116.5 -314.5t-39.5 -329q1 -165 40.5 -328.5t117 -317t192.5 -287.5z" />
    <glyph glyph-name="parenright.case" horiz-adv-x="852" 
d="M195 -299l-108 86q115 134 192.5 287.5t117 317t40.5 328.5q-1 167 -39.5 329t-116.5 314.5t-194 291.5l108 84q118 -135 202.5 -301t130 -349.5t44.5 -368.5q1 -185 -44.5 -368t-130 -349.5t-202.5 -301.5z" />
    <glyph glyph-name="braceleft.case" horiz-adv-x="839" 
d="M633 -386q-104 0 -171 67t-67 170v652q0 31 -18 58l-85 119q-12 18 -12 40t12 40l85 119q18 29 18 58v651q0 104 67 171t171 67h119v-141h-113q-42 0 -72.5 -30t-30.5 -74v-644q0 -77 -45 -140l-55 -77l55 -77q45 -63 45 -140v-646q0 -42 30.5 -72t72.5 -30h113v-141
h-119z" />
    <glyph glyph-name="braceright.case" horiz-adv-x="839" 
d="M206 -386h-119v141h112q44 0 74 30t30 72v646q0 77 44 140l56 77l-56 77q-44 63 -44 140v644q0 44 -30 74t-74 30h-112v141h119q104 0 171 -67t67 -171v-651q0 -29 18 -58l85 -119q13 -18 13 -40t-13 -40l-85 -119q-18 -27 -18 -58v-652q0 -103 -67 -170t-171 -67z" />
    <glyph glyph-name="bracketleft.case" horiz-adv-x="814" 
d="M280 -386v2212h374v-136h-238v-1940h238v-136h-374z" />
    <glyph glyph-name="bracketright.case" horiz-adv-x="814" 
d="M534 -386h-374v136h238v1940h-238v136h374v-2212z" />
    <glyph glyph-name="hyphen.case" horiz-adv-x="840" 
d="M120 657v126h600v-126h-600z" />
    <glyph glyph-name="endash.case" horiz-adv-x="1080" 
d="M120 657v126h840v-126h-840z" />
    <glyph glyph-name="emdash.case" horiz-adv-x="1560" 
d="M120 657v126h1320v-126h-1320z" />
    <glyph glyph-name="guillemotleft.case" horiz-adv-x="1071" 
d="M849 286l-346 435l346 434l89 -69l-291 -365l291 -366zM506 286l-346 435l346 434l89 -69l-292 -365l292 -366z" />
    <glyph glyph-name="guillemotright.case" horiz-adv-x="1071" 
d="M222 286l-89 69l292 366l-292 365l89 69l346 -434zM565 286l-88 69l291 366l-291 365l88 69l346 -434z" />
    <glyph glyph-name="greater.case" horiz-adv-x="1229" 
d="M479 251l-93 92l381 377l-381 377l93 92l470 -469z" />
    <glyph glyph-name="less.case" horiz-adv-x="1229" 
d="M749 251l-469 469l469 469l94 -92l-382 -377l382 -377z" />
    <glyph glyph-name="at.case" horiz-adv-x="1807" 
d="M907 -30q-160 0 -296 55.5t-237 155t-157.5 234.5t-56.5 294q0 169 55 308.5t155.5 241t238.5 156.5t303 55q189 0 330.5 -60.5t233.5 -164t134.5 -232.5t35.5 -267q-10 -189 -89.5 -285t-221.5 -96q-92 0 -160 43t-91 121l48 -5q-35 -71 -104.5 -103t-144.5 -32
q-91 0 -159.5 39.5t-107 109.5t-38.5 162q0 96 40 166t110 108t158 38q65 0 134.5 -27t106.5 -88l-39 -44v131h106l-1 -325q0 -74 34.5 -120.5t114.5 -46.5q54 0 90.5 30t56.5 84.5t23 128.5q6 152 -39 266t-128 190.5t-192.5 114.5t-233.5 38q-150 0 -266.5 -50t-197 -138
t-121.5 -202.5t-39 -243.5q1 -133 48.5 -245.5t131.5 -195t196 -128t243 -45.5q85 0 170.5 22t152.5 61l47 -112q-87 -49 -183 -73t-194 -24zM891 517q78 0 127.5 45t49.5 139q0 92 -47.5 139t-126.5 47q-90 0 -137.5 -49t-47.5 -137q0 -89 49 -136.5t133 -47.5z" />
    </font>
</defs>
</svg>
